  0
SECTION
  2
HEADER
  9
$ACADVER
  1
AC1015
  9
$ACADMAINTVER
 70
    20
  9
$DWGCODEPAGE
  3
ANSI_936
  9
$INSBASE
 10
0.0
 20
0.0
 30
0.0
  9
$EXTMIN
 10
15185.32257336195
 20
-49.41641458806135
 30
-0.0000000349181948
  9
$EXTMAX
 10
16055.88766229617
 20
486.9180872412211
 30
0.0000000814935747
  9
$LIMMIN
 10
0.0
 20
0.0
  9
$LIMMAX
 10
420.0
 20
297.0
  9
$ORTHOMODE
 70
     1
  9
$REGENMODE
 70
     1
  9
$FILLMODE
 70
     1
  9
$QTEXTMODE
 70
     0
  9
$MIRRTEXT
 70
     0
  9
$LTSCALE
 40
1.0
  9
$ATTMODE
 70
     1
  9
$TEXTSIZE
 40
2.5
  9
$TRACEWID
 40
1.0
  9
$TEXTSTYLE
  7
Standard
  9
$CLAYER
  8
标注
  9
$CELTYPE
  6
ByLayer
  9
$CECOLOR
 62
   256
  9
$CELTSCALE
 40
1.0
  9
$DISPSILH
 70
     0
  9
$DIMSCALE
 40
1.0
  9
$DIMASZ
 40
12.0
  9
$DIMEXO
 40
7.0
  9
$DIMDLI
 40
3.75
  9
$DIMRND
 40
0.0
  9
$DIMDLE
 40
0.0
  9
$DIMEXE
 40
1.25
  9
$DIMTP
 40
0.0
  9
$DIMTM
 40
0.0
  9
$DIMTXT
 40
15.0
  9
$DIMCEN
 40
2.5
  9
$DIMTSZ
 40
0.0
  9
$DIMTOL
 70
     0
  9
$DIMLIM
 70
     0
  9
$DIMTIH
 70
     0
  9
$DIMTOH
 70
     0
  9
$DIMSE1
 70
     0
  9
$DIMSE2
 70
     0
  9
$DIMTAD
 70
     1
  9
$DIMZIN
 70
     8
  9
$DIMBLK
  1

  9
$DIMASO
 70
     1
  9
$DIMSHO
 70
     1
  9
$DIMPOST
  1

  9
$DIMAPOST
  1

  9
$DIMALT
 70
     0
  9
$DIMALTD
 70
     3
  9
$DIMALTF
 40
0.03937007874016
  9
$DIMLFAC
 40
1.0
  9
$DIMTOFL
 70
     1
  9
$DIMTVP
 40
0.0
  9
$DIMTIX
 70
     0
  9
$DIMSOXD
 70
     0
  9
$DIMSAH
 70
     0
  9
$DIMBLK1
  1

  9
$DIMBLK2
  1

  9
$DIMSTYLE
  2
mav
  9
$DIMCLRD
 70
     0
  9
$DIMCLRE
 70
     0
  9
$DIMCLRT
 70
     0
  9
$DIMTFAC
 40
1.0
  9
$DIMGAP
 40
5.0
  9
$DIMJUST
 70
     0
  9
$DIMSD1
 70
     0
  9
$DIMSD2
 70
     0
  9
$DIMTOLJ
 70
     0
  9
$DIMTZIN
 70
     8
  9
$DIMALTZ
 70
     0
  9
$DIMALTTZ
 70
     0
  9
$DIMUPT
 70
     0
  9
$DIMDEC
 70
     2
  9
$DIMTDEC
 70
     2
  9
$DIMALTU
 70
     2
  9
$DIMALTTD
 70
     3
  9
$DIMTXSTY
  7
Standard
  9
$DIMAUNIT
 70
     0
  9
$DIMADEC
 70
     0
  9
$DIMALTRND
 40
0.0
  9
$DIMAZIN
 70
     0
  9
$DIMDSEP
 70
    44
  9
$DIMATFIT
 70
     3
  9
$DIMFRAC
 70
     0
  9
$DIMLDRBLK
  1

  9
$DIMLUNIT
 70
     2
  9
$DIMLWD
 70
    -2
  9
$DIMLWE
 70
    -2
  9
$DIMTMOVE
 70
     0
  9
$LUNITS
 70
     2
  9
$LUPREC
 70
     4
  9
$SKETCHINC
 40
1.0
  9
$FILLETRAD
 40
110.0
  9
$AUNITS
 70
     0
  9
$AUPREC
 70
     0
  9
$MENU
  1
.
  9
$ELEVATION
 40
0.0
  9
$PELEVATION
 40
0.0
  9
$THICKNESS
 40
0.0
  9
$LIMCHECK
 70
     0
  9
$CHAMFERA
 40
0.0
  9
$CHAMFERB
 40
0.0
  9
$CHAMFERC
 40
0.0
  9
$CHAMFERD
 40
0.0
  9
$SKPOLY
 70
     0
  9
$TDCREATE
 40
2454214.684605648
  9
$TDUCREATE
 40
2454214.351272315
  9
$TDUPDATE
 40
2454917.664769595
  9
$TDUUPDATE
 40
2454917.331436262
  9
$TDINDWG
 40
1.5929885185
  9
$TDUSRTIMER
 40
1.5929863542
  9
$USRTIMER
 70
     1
  9
$ANGBASE
 50
0.0
  9
$ANGDIR
 70
     0
  9
$PDMODE
 70
     0
  9
$PDSIZE
 40
0.0
  9
$PLINEWID
 40
0.0
  9
$SPLFRAME
 70
     0
  9
$SPLINETYPE
 70
     6
  9
$SPLINESEGS
 70
     8
  9
$HANDSEED
  5
15258
  9
$SURFTAB1
 70
     6
  9
$SURFTAB2
 70
     6
  9
$SURFTYPE
 70
     6
  9
$SURFU
 70
     6
  9
$SURFV
 70
     6
  9
$UCSBASE
  2

  9
$UCSNAME
  2

  9
$UCSORG
 10
0.0
 20
0.0
 30
0.0
  9
$UCSXDIR
 10
1.0
 20
0.0
 30
0.0
  9
$UCSYDIR
 10
0.0
 20
1.0
 30
0.0
  9
$UCSORTHOREF
  2

  9
$UCSORTHOVIEW
 70
     0
  9
$UCSORGTOP
 10
0.0
 20
0.0
 30
0.0
  9
$UCSORGBOTTOM
 10
0.0
 20
0.0
 30
0.0
  9
$UCSORGLEFT
 10
0.0
 20
0.0
 30
0.0
  9
$UCSORGRIGHT
 10
0.0
 20
0.0
 30
0.0
  9
$UCSORGFRONT
 10
0.0
 20
0.0
 30
0.0
  9
$UCSORGBACK
 10
0.0
 20
0.0
 30
0.0
  9
$PUCSBASE
  2

  9
$PUCSNAME
  2

  9
$PUCSORG
 10
0.0
 20
0.0
 30
0.0
  9
$PUCSXDIR
 10
1.0
 20
0.0
 30
0.0
  9
$PUCSYDIR
 10
0.0
 20
1.0
 30
0.0
  9
$PUCSORTHOREF
  2

  9
$PUCSORTHOVIEW
 70
     0
  9
$PUCSORGTOP
 10
0.0
 20
0.0
 30
0.0
  9
$PUCSORGBOTTOM
 10
0.0
 20
0.0
 30
0.0
  9
$PUCSORGLEFT
 10
0.0
 20
0.0
 30
0.0
  9
$PUCSORGRIGHT
 10
0.0
 20
0.0
 30
0.0
  9
$PUCSORGFRONT
 10
0.0
 20
0.0
 30
0.0
  9
$PUCSORGBACK
 10
0.0
 20
0.0
 30
0.0
  9
$USERI1
 70
     0
  9
$USERI2
 70
     0
  9
$USERI3
 70
     0
  9
$USERI4
 70
     0
  9
$USERI5
 70
     0
  9
$USERR1
 40
0.0
  9
$USERR2
 40
0.0
  9
$USERR3
 40
0.0
  9
$USERR4
 40
0.0
  9
$USERR5
 40
0.0
  9
$WORLDVIEW
 70
     1
  9
$SHADEDGE
 70
     3
  9
$SHADEDIF
 70
    70
  9
$TILEMODE
 70
     1
  9
$MAXACTVP
 70
    64
  9
$PINSBASE
 10
0.0
 20
0.0
 30
0.0
  9
$PLIMCHECK
 70
     0
  9
$PEXTMIN
 10
0.0
 20
0.0
 30
0.0
  9
$PEXTMAX
 10
0.0
 20
0.0
 30
0.0
  9
$PLIMMIN
 10
0.0
 20
0.0
  9
$PLIMMAX
 10
12.0
 20
9.0
  9
$UNITMODE
 70
     0
  9
$VISRETAIN
 70
     1
  9
$PLINEGEN
 70
     0
  9
$PSLTSCALE
 70
     1
  9
$TREEDEPTH
 70
  3020
  9
$CMLSTYLE
  2
Standard
  9
$CMLJUST
 70
     0
  9
$CMLSCALE
 40
20.0
  9
$PROXYGRAPHICS
 70
     1
  9
$MEASUREMENT
 70
     1
  9
$CELWEIGHT
370
    -1
  9
$ENDCAPS
280
     0
  9
$JOINSTYLE
280
     0
  9
$LWDISPLAY
290
     0
  9
$INSUNITS
 70
     4
  9
$HYPERLINKBASE
  1

  9
$STYLESHEET
  1
ACAD.CTB
  9
$XEDIT
290
     1
  9
$CEPSNTYPE
380
     0
  9
$PSTYLEMODE
290
     1
  9
$FINGERPRINTGUID
  2
{837212A4-E3CB-4E40-823D-3C33891C9FDB}
  9
$VERSIONGUID
  2
{D1D5ED2C-3568-4CF2-9447-8894F9E84054}
  9
$EXTNAMES
290
     1
  9
$PSVPSCALE
 40
0.0
  9
$OLESTARTUP
290
     0
  0
ENDSEC
  0
SECTION
  2
CLASSES
  0
CLASS
  1
ACDBDICTIONARYWDFLT
  2
AcDbDictionaryWithDefault
  3
ObjectDBX Classes
 90
        0
280
     0
281
     0
  0
CLASS
  1
DICTIONARYVAR
  2
AcDbDictionaryVar
  3
ObjectDBX Classes
 90
        0
280
     0
281
     0
  0
CLASS
  1
TABLESTYLE
  2
AcDbTableStyle
  3
ObjectDBX Classes
 90
     2047
280
     0
281
     0
  0
CLASS
  1
SORTENTSTABLE
  2
AcDbSortentsTable
  3
ObjectDBX Classes
 90
        0
280
     0
281
     0
  0
CLASS
  1
DIMASSOC
  2
AcDbDimAssoc
  3
"AcDbDimAssoc|Product Desc:     AcDim ARX App For Dimension|Company:          Autodesk, Inc.|WEB Address:      www.autodesk.com"
 90
        0
280
     0
281
     0
  0
CLASS
  1
PLOTSETTINGS
  2
AcDbPlotSettings
  3
ObjectDBX Classes
 90
        0
280
     0
281
     0
  0
CLASS
  1
ACDBPLACEHOLDER
  2
AcDbPlaceHolder
  3
ObjectDBX Classes
 90
        0
280
     0
281
     0
  0
CLASS
  1
LAYOUT
  2
AcDbLayout
  3
ObjectDBX Classes
 90
        0
280
     0
281
     0
  0
ENDSEC
  0
SECTION
  2
TABLES
  0
TABLE
  2
VPORT
  5
8
330
0
100
AcDbSymbolTable
 70
     8
  0
VPORT
  5
1524D
330
8
100
AcDbSymbolTableRecord
100
AcDbViewportTableRecord
  2
*Active
 70
     0
 10
0.0
 20
0.0
 11
1.0
 21
1.0
 12
15604.82475297729
 22
227.0922387255087
 13
0.0
 23
0.0
 14
10.0
 24
10.0
 15
10.0
 25
10.0
 16
0.0
 26
0.0
 36
1.0
 17
0.0
 27
0.0
 37
0.0
 40
694.5167538890807
 41
1.586251621271076
 42
50.0
 43
0.0
 44
0.0
 50
0.0
 51
0.0
 71
     0
 72
  1000
 73
     1
 74
     3
 75
     0
 76
     0
 77
     0
 78
     0
281
     0
 65
     1
110
0.0
120
0.0
130
0.0
111
1.0
121
0.0
131
0.0
112
0.0
122
1.0
132
0.0
 79
     0
146
0.0
  0
ENDTAB
  0
TABLE
  2
LTYPE
  5
5
330
0
100
AcDbSymbolTable
 70
     5
  0
LTYPE
  5
14
330
5
100
AcDbSymbolTableRecord
100
AcDbLinetypeTableRecord
  2
ByBlock
 70
     0
  3

 72
    65
 73
     0
 40
0.0
  0
LTYPE
  5
15
330
5
100
AcDbSymbolTableRecord
100
AcDbLinetypeTableRecord
  2
ByLayer
 70
     0
  3

 72
    65
 73
     0
 40
0.0
  0
LTYPE
  5
16
330
5
100
AcDbSymbolTableRecord
100
AcDbLinetypeTableRecord
  2
Continuous
 70
     0
  3
Solid line
 72
    65
 73
     0
 40
0.0
  0
LTYPE
  5
FF
330
5
100
AcDbSymbolTableRecord
100
AcDbLinetypeTableRecord
  2
CENTERX2
 70
     0
  3
Center (2x) ________  __  ________  __  _____
 72
    65
 73
     4
 40
101.6
 49
63.5
 74
     0
 49
-12.7
 74
     0
 49
12.7
 74
     0
 49
-12.7
 74
     0
  0
LTYPE
  5
1D5
330
5
100
AcDbSymbolTableRecord
100
AcDbLinetypeTableRecord
  2
HIDDEN2
 70
     0
  3
Hidden (.5x) _ _ _ _ _ _ _ _ _ _ _ _ _ _ _ _ _
 72
    65
 73
     2
 40
4.762499999999998
 49
3.174999999999998
 74
     0
 49
-1.587499999999999
 74
     0
  0
LTYPE
  5
4F34
330
5
100
AcDbSymbolTableRecord
100
AcDbLinetypeTableRecord
  2
ACAD_ISO10W100
 70
     0
  3
ISO dash dot __ . __ . __ . __ . __ . __ . __ .
 72
    65
 73
     4
 40
18.0
 49
12.0
 74
     0
 49
-3.0
 74
     0
 49
0.0
 74
     0
 49
-3.0
 74
     0
  0
LTYPE
  5
13FE2
330
5
100
AcDbSymbolTableRecord
100
AcDbLinetypeTableRecord
  2
HIDDENX2
 70
     0
  3
Hidden (2x) ____ ____ ____ ____ ____ ____ ____
 72
    65
 73
     2
 40
19.05
 49
12.7
 74
     0
 49
-6.349999999999997
 74
     0
  0
ENDTAB
  0
TABLE
  2
LAYER
  5
2
102
{ACAD_XDICTIONARY
360
102
102
}
330
0
100
AcDbSymbolTable
 70
     8
  0
LAYER
  5
10
330
2
100
AcDbSymbolTableRecord
100
AcDbLayerTableRecord
  2
0
 70
     0
 62
     7
  6
Continuous
370
    35
390
F
  0
LAYER
  5
FB
330
2
100
AcDbSymbolTableRecord
100
AcDbLayerTableRecord
  2
中心线
 70
     0
 62
   230
  6
CENTERX2
370
    -3
390
F
1001
AcAecLayerStandard
1000

1000

  0
LAYER
  5
100
330
2
100
AcDbSymbolTableRecord
100
AcDbLayerTableRecord
  2
细实线
 70
     0
 62
     7
  6
Continuous
370
    -3
390
F
1001
AcAecLayerStandard
1000

1000

  0
LAYER
  5
101
330
2
100
AcDbSymbolTableRecord
100
AcDbLayerTableRecord
  2
标注
 70
     0
 62
    80
  6
Continuous
370
    -3
390
F
1001
AcAecLayerStandard
1000

1000

  0
LAYER
  5
10F
330
2
100
AcDbSymbolTableRecord
100
AcDbLayerTableRecord
  2
Defpoints
 70
     0
 62
     7
  6
Continuous
290
     0
370
    -3
390
F
  0
LAYER
  5
1D4
330
2
100
AcDbSymbolTableRecord
100
AcDbLayerTableRecord
  2
虚线
 70
     0
 62
     7
  6
HIDDENX2
370
    35
390
F
1001
AcAecLayerStandard
1000

1000

  0
LAYER
  5
B0B
330
2
100
AcDbSymbolTableRecord
100
AcDbLayerTableRecord
  2
剖面
 70
     0
 62
    50
  6
Continuous
370
    15
390
F
1001
AcAecLayerStandard
1000

1000

  0
LAYER
  5
1554
330
2
100
AcDbSymbolTableRecord
100
AcDbLayerTableRecord
  2
Title Block
 70
     0
 62
     7
  6
Continuous
370
    -3
390
F
  0
ENDTAB
  0
TABLE
  2
STYLE
  5
3
330
0
100
AcDbSymbolTable
 70
     3
  0
STYLE
  5
11
330
3
100
AcDbSymbolTableRecord
100
AcDbTextStyleTableRecord
  2
Standard
 70
     0
 40
0.0
 41
1.0
 50
0.0
 71
     0
 42
2.5
  3
txt
  4
gbcbig.shx
  0
STYLE
  5
FE
330
3
100
AcDbSymbolTableRecord
100
AcDbTextStyleTableRecord
  2

 70
     1
 40
0.0
 41
1.0
 50
0.0
 71
     0
 42
2.5
  3
ltypeshp.shx
  4

  0
STYLE
  5
4F35
330
3
100
AcDbSymbolTableRecord
100
AcDbTextStyleTableRecord
  2
Roman
 70
     0
 40
0.0
 41
1.0
 50
0.0
 71
     0
 42
0.065
  3
romans
  4

  0
ENDTAB
  0
TABLE
  2
VIEW
  5
6
330
0
100
AcDbSymbolTable
 70
     0
  0
ENDTAB
  0
TABLE
  2
UCS
  5
7
330
0
100
AcDbSymbolTable
 70
     0
  0
ENDTAB
  0
TABLE
  2
APPID
  5
9
330
0
100
AcDbSymbolTable
 70
    12
  0
APPID
  5
12
330
9
100
AcDbSymbolTableRecord
100
AcDbRegAppTableRecord
  2
ACAD
 70
     0
  0
APPID
  5
9E
330
9
100
AcDbSymbolTableRecord
100
AcDbRegAppTableRecord
  2
ACAD_PSEXT
 70
     0
  0
APPID
  5
FC
330
9
100
AcDbSymbolTableRecord
100
AcDbRegAppTableRecord
  2
AcAecLayerStandard
 70
     0
  0
APPID
  5
20D
330
9
100
AcDbSymbolTableRecord
100
AcDbRegAppTableRecord
  2
ACAD_DSTYLE_DIMTEXT_FILL
 70
     0
  0
APPID
  5
20E
330
9
100
AcDbSymbolTableRecord
100
AcDbRegAppTableRecord
  2
ACAD_DSTYLE_DIMEXT_LENGTH
 70
     0
  0
APPID
  5
20F
330
9
100
AcDbSymbolTableRecord
100
AcDbRegAppTableRecord
  2
ACAD_DSTYLE_DIMEXT_ENABLED
 70
     0
  0
APPID
  5
210
330
9
100
AcDbSymbolTableRecord
100
AcDbRegAppTableRecord
  2
ACAD_DSTYLE_DIM_LINETYPE
 70
     0
  0
APPID
  5
211
330
9
100
AcDbSymbolTableRecord
100
AcDbRegAppTableRecord
  2
ACAD_DSTYLE_DIM_EXT1_LINETYPE
 70
     0
  0
APPID
  5
212
330
9
100
AcDbSymbolTableRecord
100
AcDbRegAppTableRecord
  2
ACAD_DSTYLE_DIM_EXT2_LINETYPE
 70
     0
  0
APPID
  5
2CE
330
9
100
AcDbSymbolTableRecord
100
AcDbRegAppTableRecord
  2
ACAD_DSTYLE_DIMJOGGED_JOGANGLE_SYMBOL
 70
     0
  0
APPID
  5
362
330
9
100
AcDbSymbolTableRecord
100
AcDbRegAppTableRecord
  2
ACAD_DSTYLE_DIMARC_LENGTH_SYMBOL
 70
     0
  0
APPID
  5
4F1
330
9
100
AcDbSymbolTableRecord
100
AcDbRegAppTableRecord
  2
ACAD_EXEMPT_FROM_CAD_STANDARDS
 70
     0
  0
ENDTAB
  0
TABLE
  2
DIMSTYLE
  5
A
330
0
100
AcDbSymbolTable
 70
     7
100
AcDbDimStyleTable
 71
     2
340
D654
340
27
  0
DIMSTYLE
105
27
102
{ACAD_REACTORS
330
3176
330
3179
330
3736
102
}
330
A
100
AcDbSymbolTableRecord
100
AcDbDimStyleTableRecord
  2
ISO-25
 70
     0
 41
10.0
 42
5.0
 43
3.75
 44
3.0
 73
     0
 74
     0
 77
     1
 78
     8
140
24.0
141
7.0
143
0.03937007874016
147
5.0
171
     3
172
     1
271
     2
272
     2
274
     3
278
    44
283
     0
284
     8
340
11
1001
ACAD_DSTYLE_DIMEXT_LENGTH
1070
   378
1040
1.25
1001
ACAD_DSTYLE_DIMEXT_ENABLED
1070
   383
1070
     0
1001
ACAD_DSTYLE_DIMARC_LENGTH_SYMBOL
1070
   379
1070
     0
1001
ACAD_DSTYLE_DIMJOGGED_JOGANGLE_SYMBOL
1070
   384
1040
1.570796326794896
  0
DIMSTYLE
105
4F36
330
A
100
AcDbSymbolTableRecord
100
AcDbDimStyleTableRecord
  2
Standard
 70
     0
340
11
  0
DIMSTYLE
105
D653
102
{ACAD_REACTORS
330
E1BB
330
E1BE
330
E1C1
330
E1C4
330
E1C7
330
E1CA
330
E1CD
330
E1D0
330
E1D3
330
E1D6
330
E1D9
102
}
330
A
100
AcDbSymbolTableRecord
100
AcDbDimStyleTableRecord
  2
副本ISO-25
 70
     0
 41
15.0
 42
0.625
 43
3.75
 44
1.25
 73
     0
 77
     1
 78
     8
 79
     2
140
20.0
141
2.5
143
0.03937007874016
147
5.0
172
     1
176
     6
177
     6
271
     0
272
     0
278
    44
283
     0
284
     8
340
11
  0
DIMSTYLE
105
D654
102
{ACAD_REACTORS
330
1507B
330
15087
330
1508A
330
15113
330
1512B
330
15143
102
}
330
A
100
AcDbSymbolTableRecord
100
AcDbDimStyleTableRecord
  2
mav
 70
     0
 41
12.0
 42
7.0
 43
3.75
 44
1.25
 73
     0
 74
     0
 77
     1
 78
     8
140
15.0
141
2.5
143
0.03937007874016
147
5.0
171
     3
172
     1
271
     2
272
     2
274
     3
278
    44
283
     0
284
     8
340
11
1001
ACAD_DSTYLE_DIMEXT_LENGTH
1070
   378
1040
1.25
1001
ACAD_DSTYLE_DIMEXT_ENABLED
1070
   383
1070
     0
1001
ACAD_DSTYLE_DIMARC_LENGTH_SYMBOL
1070
   379
1070
     0
1001
ACAD_DSTYLE_DIMJOGGED_JOGANGLE_SYMBOL
1070
   384
1040
1.570796326794896
  0
DIMSTYLE
105
DD07
330
A
100
AcDbSymbolTableRecord
100
AcDbDimStyleTableRecord
  2
01
 70
     0
 41
15.0
 42
0.625
 43
3.75
 44
1.25
 73
     0
 77
     1
 78
     8
140
15.0
141
2.5
143
0.03937007874016
147
0.625
171
     3
172
     1
176
     6
177
     6
271
     2
272
     2
274
     3
278
    44
283
     0
284
     8
340
11
371
     5
372
     5
  0
DIMSTYLE
105
DD08
330
A
100
AcDbSymbolTableRecord
100
AcDbDimStyleTableRecord
  2
副本01
 70
     0
 41
15.0
 42
0.625
 43
3.75
 44
1.25
 73
     0
 77
     1
 78
     9
 79
     2
140
18.0
141
0.5
143
0.03937007874
147
0.625
170
     1
176
     6
177
     6
271
     2
272
     2
283
     0
284
     8
285
    12
340
11
371
     5
372
     5
  0
DIMSTYLE
105
DD09
330
A
100
AcDbSymbolTableRecord
100
AcDbDimStyleTableRecord
  2
1
 70
     0
 41
8.0
 42
3.0
 43
3.75
 44
1.25
 73
     0
 74
     0
 77
     1
 78
     8
140
15.0
141
2.5
143
0.03937007874016
147
0.625
171
     3
172
     1
271
     2
272
     2
274
     3
278
    44
283
     0
284
     8
340
11
  0
ENDTAB
  0
TABLE
  2
BLOCK_RECORD
  5
1
330
0
100
AcDbSymbolTable
 70
    50
  0
BLOCK_RECORD
  5
1F
102
{ACAD_XDICTIONARY
360
F9
102
}
330
1
100
AcDbSymbolTableRecord
100
AcDbBlockTableRecord
  2
*Model_Space
340
22
  0
BLOCK_RECORD
  5
D2
330
1
100
AcDbSymbolTableRecord
100
AcDbBlockTableRecord
  2
*Paper_Space
340
D3
  0
BLOCK_RECORD
  5
D6
330
1
100
AcDbSymbolTableRecord
100
AcDbBlockTableRecord
  2
*Paper_Space0
340
D7
  0
BLOCK_RECORD
  5
17B
102
{ACAD_XDICTIONARY
360
182
102
}
330
1
100
AcDbSymbolTableRecord
100
AcDbBlockTableRecord
  2
A$C04C343A0
340
0
1001
ACAD
1000
DesignCenter Data
1002
{
1070
     1
1070
     4
1002
}
  0
BLOCK_RECORD
  5
24FE
102
{ACAD_XDICTIONARY
360
2500
102
}
330
1
100
AcDbSymbolTableRecord
100
AcDbBlockTableRecord
  2
A$C341A5C84
340
0
1001
ACAD
1000
DesignCenter Data
1002
{
1070
     1
1070
     4
1002
}
  0
BLOCK_RECORD
  5
2DD9
102
{ACAD_XDICTIONARY
360
2DDE
102
}
330
1
100
AcDbSymbolTableRecord
100
AcDbBlockTableRecord
  2
A$C1D4E5C09
340
0
1001
ACAD
1000
DesignCenter Data
1002
{
1070
     1
1070
     4
1002
}
  0
BLOCK_RECORD
  5
3146
330
1
100
AcDbSymbolTableRecord
100
AcDbBlockTableRecord
  2
*D4
340
0
  0
BLOCK_RECORD
  5
3153
330
1
100
AcDbSymbolTableRecord
100
AcDbBlockTableRecord
  2
*D5
340
0
  0
BLOCK_RECORD
  5
3160
102
{ACAD_XDICTIONARY
360
317C
102
}
330
1
100
AcDbSymbolTableRecord
100
AcDbBlockTableRecord
  2
A$C4C777B45
340
0
1001
ACAD
1000
DesignCenter Data
1002
{
1070
     1
1070
     4
1002
}
  0
BLOCK_RECORD
  5
370F
330
1
100
AcDbSymbolTableRecord
100
AcDbBlockTableRecord
  2
*D7
340
0
  0
BLOCK_RECORD
  5
371C
102
{ACAD_XDICTIONARY
360
373E
102
}
330
1
100
AcDbSymbolTableRecord
100
AcDbBlockTableRecord
  2
A$C53031FEE
340
0
1001
ACAD
1000
DesignCenter Data
1002
{
1070
     1
1070
     4
1002
}
  0
BLOCK_RECORD
  5
4574
102
{ACAD_XDICTIONARY
360
4595
102
}
330
1
100
AcDbSymbolTableRecord
100
AcDbBlockTableRecord
  2
A$C19B8122A
340
0
1001
ACAD
1000
DesignCenter Data
1002
{
1070
     1
1070
     4
1002
}
  0
BLOCK_RECORD
  5
A706
102
{ACAD_XDICTIONARY
360
A708
102
}
330
1
100
AcDbSymbolTableRecord
100
AcDbBlockTableRecord
  2
A$C0B2A3428
340
0
  0
BLOCK_RECORD
  5
A77A
102
{ACAD_XDICTIONARY
360
A77E
102
}
330
1
100
AcDbSymbolTableRecord
100
AcDbBlockTableRecord
  2
A$C2CDA6B33
340
0
  0
BLOCK_RECORD
  5
D8E6
330
1
100
AcDbSymbolTableRecord
100
AcDbBlockTableRecord
  2
_ClosedBlank
340
0
  0
BLOCK_RECORD
  5
D8F5
330
1
100
AcDbSymbolTableRecord
100
AcDbBlockTableRecord
  2
_Closed
340
0
  0
BLOCK_RECORD
  5
E0FF
330
1
100
AcDbSymbolTableRecord
100
AcDbBlockTableRecord
  2
*D14
340
0
  0
BLOCK_RECORD
  5
E10B
330
1
100
AcDbSymbolTableRecord
100
AcDbBlockTableRecord
  2
*D15
340
0
  0
BLOCK_RECORD
  5
E117
330
1
100
AcDbSymbolTableRecord
100
AcDbBlockTableRecord
  2
*D16
340
0
  0
BLOCK_RECORD
  5
E123
330
1
100
AcDbSymbolTableRecord
100
AcDbBlockTableRecord
  2
*D17
340
0
  0
BLOCK_RECORD
  5
E12F
330
1
100
AcDbSymbolTableRecord
100
AcDbBlockTableRecord
  2
*D18
340
0
  0
BLOCK_RECORD
  5
E13B
330
1
100
AcDbSymbolTableRecord
100
AcDbBlockTableRecord
  2
*D19
340
0
  0
BLOCK_RECORD
  5
E147
330
1
100
AcDbSymbolTableRecord
100
AcDbBlockTableRecord
  2
*D20
340
0
  0
BLOCK_RECORD
  5
E153
330
1
100
AcDbSymbolTableRecord
100
AcDbBlockTableRecord
  2
*D21
340
0
  0
BLOCK_RECORD
  5
E161
330
1
100
AcDbSymbolTableRecord
100
AcDbBlockTableRecord
  2
*D22
340
0
  0
BLOCK_RECORD
  5
E16F
330
1
100
AcDbSymbolTableRecord
100
AcDbBlockTableRecord
  2
*D23
340
0
  0
BLOCK_RECORD
  5
E17B
330
1
100
AcDbSymbolTableRecord
100
AcDbBlockTableRecord
  2
*D24
340
0
  0
BLOCK_RECORD
  5
E187
102
{ACAD_XDICTIONARY
360
E1DE
102
}
330
1
100
AcDbSymbolTableRecord
100
AcDbBlockTableRecord
  2
A$C105E5E57
340
0
  0
BLOCK_RECORD
  5
12BB4
330
1
100
AcDbSymbolTableRecord
100
AcDbBlockTableRecord
  2
*D26
340
0
  0
BLOCK_RECORD
  5
12BBC
330
1
100
AcDbSymbolTableRecord
100
AcDbBlockTableRecord
  2
*D27
340
0
  0
BLOCK_RECORD
  5
12BC8
330
1
100
AcDbSymbolTableRecord
100
AcDbBlockTableRecord
  2
*D28
340
0
  0
BLOCK_RECORD
  5
14875
330
1
100
AcDbSymbolTableRecord
100
AcDbBlockTableRecord
  2
*D29
340
0
  0
BLOCK_RECORD
  5
14891
330
1
100
AcDbSymbolTableRecord
100
AcDbBlockTableRecord
  2
*D30
340
0
  0
BLOCK_RECORD
  5
148A9
330
1
100
AcDbSymbolTableRecord
100
AcDbBlockTableRecord
  2
*D31
340
0
  0
BLOCK_RECORD
  5
14E60
330
1
100
AcDbSymbolTableRecord
100
AcDbBlockTableRecord
  2
*D32
340
0
  0
BLOCK_RECORD
  5
14E78
330
1
100
AcDbSymbolTableRecord
100
AcDbBlockTableRecord
  2
*D33
340
0
  0
BLOCK_RECORD
  5
14F21
330
1
100
AcDbSymbolTableRecord
100
AcDbBlockTableRecord
  2
*D34
340
0
  0
BLOCK_RECORD
  5
14F9E
330
1
100
AcDbSymbolTableRecord
100
AcDbBlockTableRecord
  2
*D35
340
0
  0
BLOCK_RECORD
  5
14FAA
330
1
100
AcDbSymbolTableRecord
100
AcDbBlockTableRecord
  2
*D36
340
0
  0
BLOCK_RECORD
  5
14FB8
330
1
100
AcDbSymbolTableRecord
100
AcDbBlockTableRecord
  2
*D37
340
0
  0
BLOCK_RECORD
  5
14FC4
330
1
100
AcDbSymbolTableRecord
100
AcDbBlockTableRecord
  2
*D38
340
0
  0
BLOCK_RECORD
  5
14FD0
330
1
100
AcDbSymbolTableRecord
100
AcDbBlockTableRecord
  2
*D39
340
0
  0
BLOCK_RECORD
  5
14FDC
330
1
100
AcDbSymbolTableRecord
100
AcDbBlockTableRecord
  2
*D40
340
0
  0
BLOCK_RECORD
  5
15090
330
1
100
AcDbSymbolTableRecord
100
AcDbBlockTableRecord
  2
*D41
340
0
  0
BLOCK_RECORD
  5
1509C
330
1
100
AcDbSymbolTableRecord
100
AcDbBlockTableRecord
  2
*D42
340
0
  0
BLOCK_RECORD
  5
150B1
330
1
100
AcDbSymbolTableRecord
100
AcDbBlockTableRecord
  2
*D43
340
0
  0
BLOCK_RECORD
  5
150C8
330
1
100
AcDbSymbolTableRecord
100
AcDbBlockTableRecord
  2
*D44
340
0
  0
BLOCK_RECORD
  5
150D4
330
1
100
AcDbSymbolTableRecord
100
AcDbBlockTableRecord
  2
*D45
340
0
  0
BLOCK_RECORD
  5
150E0
330
1
100
AcDbSymbolTableRecord
100
AcDbBlockTableRecord
  2
*D46
340
0
  0
BLOCK_RECORD
  5
15114
330
1
100
AcDbSymbolTableRecord
100
AcDbBlockTableRecord
  2
*D47
340
0
  0
BLOCK_RECORD
  5
1512C
330
1
100
AcDbSymbolTableRecord
100
AcDbBlockTableRecord
  2
*D48
340
0
  0
BLOCK_RECORD
  5
15144
330
1
100
AcDbSymbolTableRecord
100
AcDbBlockTableRecord
  2
*D49
340
0
  0
ENDTAB
  0
ENDSEC
  0
SECTION
  2
BLOCKS
  0
BLOCK
  5
20
330
1F
100
AcDbEntity
  8
0
100
AcDbBlockBegin
  2
*Model_Space
 70
     0
 10
0.0
 20
0.0
 30
0.0
  3
*Model_Space
  1

  0
ENDBLK
  5
21
330
1F
100
AcDbEntity
  8
0
100
AcDbBlockEnd
  0
BLOCK
  5
D4
330
D2
100
AcDbEntity
 67
     1
  8
0
100
AcDbBlockBegin
  2
*Paper_Space
 70
     0
 10
0.0
 20
0.0
 30
0.0
  3
*Paper_Space
  1

  0
ENDBLK
  5
D5
330
D2
100
AcDbEntity
 67
     1
  8
0
100
AcDbBlockEnd
  0
BLOCK
  5
D8
330
D6
100
AcDbEntity
 67
     1
  8
0
100
AcDbBlockBegin
  2
*Paper_Space0
 70
     0
 10
0.0
 20
0.0
 30
0.0
  3
*Paper_Space0
  1

  0
ENDBLK
  5
D9
330
D6
100
AcDbEntity
 67
     1
  8
0
100
AcDbBlockEnd
  0
BLOCK
  5
184
330
17B
100
AcDbEntity
  8
0
100
AcDbBlockBegin
  2
A$C04C343A0
 70
     0
 10
0.0
 20
0.0
 30
0.0
  3
A$C04C343A0
  1

  0
LINE
  5
17C
330
17B
100
AcDbEntity
  8
0
100
AcDbLine
 10
30.00000150738356
 20
29.99999929067767
 30
0.0
 11
590.0000015073833
 21
29.99999929067767
 31
0.0
  0
LINE
  5
17D
330
17B
100
AcDbEntity
  8
中心线
100
AcDbLine
 10
0.0000015073835584
 20
59.99999929067765
 30
0.0
 11
620.0000015073833
 21
59.99999929067765
 31
0.0
  0
LINE
  5
17E
330
17B
100
AcDbEntity
  8
0
100
AcDbLine
 10
30.00000150738356
 20
29.99999929067767
 30
0.0
 11
30.00000150738356
 21
89.99999929067767
 31
0.0
  0
LINE
  5
17F
330
17B
100
AcDbEntity
  8
0
100
AcDbLine
 10
30.00000150738356
 20
89.99999929067767
 30
0.0
 11
590.0000015073833
 21
89.99999929067767
 31
0.0
  0
LINE
  5
180
330
17B
100
AcDbEntity
  8
0
100
AcDbLine
 10
590.0000015073833
 20
89.99999929067767
 30
0.0
 11
590.0000015073833
 21
29.99999929067767
 31
0.0
  0
LINE
  5
181
330
17B
100
AcDbEntity
  8
中心线
100
AcDbLine
 10
310.0000015073836
 20
119.9999992906775
 30
0.0
 11
310.0000015073836
 21
-0.000000709322336
 31
0.0
  0
ENDBLK
  5
185
330
17B
100
AcDbEntity
  8
0
100
AcDbBlockEnd
  0
BLOCK
  5
2502
330
24FE
100
AcDbEntity
  8
0
100
AcDbBlockBegin
  2
A$C341A5C84
 70
     0
 10
0.0
 20
0.0
 30
0.0
  3
A$C341A5C84
  1

  0
LINE
  5
24FF
330
24FE
100
AcDbEntity
  8
0
100
AcDbLine
 10
0.0
 20
0.0
 30
0.0
 11
3.5
 21
3.5
 31
0.0
  0
ENDBLK
  5
2503
330
24FE
100
AcDbEntity
  8
0
100
AcDbBlockEnd
  0
BLOCK
  5
2DE0
330
2DD9
100
AcDbEntity
  8
0
100
AcDbBlockBegin
  2
A$C1D4E5C09
 70
     0
 10
0.0
 20
0.0
 30
0.0
  3
A$C1D4E5C09
  1

  0
LINE
  5
2DDA
330
2DD9
100
AcDbEntity
  8
中心线
 48
0.25
100
AcDbLine
 10
-20.0
 20
0.0
 30
0.0
 11
20.0
 21
0.0
 31
0.0
  0
LINE
  5
2DDB
330
2DD9
100
AcDbEntity
  8
中心线
 48
0.25
100
AcDbLine
 10
0.0
 20
20.0
 30
0.0
 11
0.0
 21
-20.0
 31
0.0
  0
CIRCLE
  5
2DDC
330
2DD9
100
AcDbEntity
  8
0
100
AcDbCircle
 10
0.0
 20
0.0
 30
0.0
 40
6.0
  0
CIRCLE
  5
2DDD
330
2DD9
100
AcDbEntity
  8
0
100
AcDbCircle
 10
0.0
 20
0.0
 30
0.0
 40
10.0
  0
ENDBLK
  5
2DE1
330
2DD9
100
AcDbEntity
  8
0
100
AcDbBlockEnd
  0
BLOCK
  5
3147
330
3146
100
AcDbEntity
  8
0
100
AcDbBlockBegin
  2
*D4
 70
     1
 10
0.0
 20
0.0
 30
0.0
  3
*D4
  1

  0
LINE
  5
3148
330
3146
100
AcDbEntity
  8
标注
 62
     0
370
    -2
100
AcDbLine
 10
2751.237993839695
 20
121.045106148211
 30
0.0
 11
2751.237993839695
 21
176.6810010535813
 31
0.0
  0
LINE
  5
3149
330
3146
100
AcDbEntity
  8
标注
 62
     0
370
    -2
100
AcDbLine
 10
2763.237993839693
 20
121.045106148211
 30
0.0
 11
2763.237993839693
 21
176.6810010535813
 31
0.0
  0
LINE
  5
314A
330
3146
100
AcDbEntity
  8
标注
 62
     0
370
    -2
100
AcDbLine
 10
2760.737993839695
 20
175.4310010535814
 30
0.0
 11
2753.737993839695
 21
175.4310010535814
 31
0.0
  0
LINE
  5
314B
330
3146
100
AcDbEntity
  8
标注
 62
     0
370
    -2
100
AcDbLine
 10
2751.237993839695
 20
175.4310010535814
 30
0.0
 11
2717.815064614856
 21
175.4310010535814
 31
0.0
  0
SOLID
  5
314C
330
3146
100
AcDbEntity
  8
标注
 62
     0
100
AcDbTrace
 10
2760.737993839695
 20
175.8476677202481
 30
0.0
 11
2760.737993839695
 21
175.0143343869148
 31
0.0
 12
2763.237993839693
 22
175.4310010535814
 32
0.0
 13
2763.237993839693
 23
175.4310010535814
 33
0.0
  0
SOLID
  5
314D
330
3146
100
AcDbEntity
  8
标注
 62
     0
100
AcDbTrace
 10
2753.737993839695
 20
175.8476677202481
 30
0.0
 11
2753.737993839695
 21
175.0143343869148
 31
0.0
 12
2751.237993839695
 22
175.4310010535814
 32
0.0
 13
2751.237993839695
 23
175.4310010535814
 33
0.0
  0
MTEXT
  5
314E
330
3146
100
AcDbEntity
  8
标注
 62
     0
100
AcDbMText
 10
2729.273397948188
 20
178.5560010535814
 30
0.0
 40
5.0
 41
0.0
 71
     5
 72
     1
  1
4X%%C12
 73
     1
 44
1.0
1001
ACAD
1000
MTEXTBEGIN
1070
    73
1070
     1
1070
    44
1040
1.0
1070
    74
1070
     0
1000
MTEXTEND
  0
POINT
  5
314F
330
3146
100
AcDbEntity
  8
Defpoints
 62
     0
100
AcDbPoint
 10
2751.237993839695
 20
120.420106148211
 30
0.0
  0
POINT
  5
3150
330
3146
100
AcDbEntity
  8
Defpoints
 62
     0
100
AcDbPoint
 10
2763.237993839693
 20
120.420106148211
 30
0.0
  0
POINT
  5
3151
330
3146
100
AcDbEntity
  8
Defpoints
 62
     0
100
AcDbPoint
 10
2763.237993839693
 20
175.4310010535814
 30
0.0
  0
ENDBLK
  5
3152
330
3146
100
AcDbEntity
  8
0
100
AcDbBlockEnd
  0
BLOCK
  5
3154
330
3153
100
AcDbEntity
  8
0
100
AcDbBlockBegin
  2
*D5
 70
     1
 10
0.0
 20
0.0
 30
0.0
  3
*D5
  1

  0
LINE
  5
3155
330
3153
100
AcDbEntity
  8
标注
 62
     0
370
    -2
100
AcDbLine
 10
2767.237993839695
 20
159.045106148211
 30
0.0
 11
2767.237993839695
 21
189.8795501117295
 31
0.0
  0
LINE
  5
3156
330
3153
100
AcDbEntity
  8
标注
 62
     0
370
    -2
100
AcDbLine
 10
2747.237993839694
 20
159.045106148211
 30
0.0
 11
2747.237993839694
 21
189.8795501117295
 31
0.0
  0
LINE
  5
3157
330
3153
100
AcDbEntity
  8
标注
 62
     0
370
    -2
100
AcDbLine
 10
2764.737993839695
 20
188.6295501117297
 30
0.0
 11
2749.737993839695
 21
188.6295501117297
 31
0.0
  0
LINE
  5
3158
330
3153
100
AcDbEntity
  8
标注
 62
     0
370
    -2
100
AcDbLine
 10
2747.237993839694
 20
188.6295501117297
 30
0.0
 11
2706.83005303626
 21
188.6295501117297
 31
0.0
  0
SOLID
  5
3159
330
3153
100
AcDbEntity
  8
标注
 62
     0
100
AcDbTrace
 10
2764.737993839695
 20
189.0462167783963
 30
0.0
 11
2764.737993839695
 21
188.212883445063
 31
0.0
 12
2767.237993839695
 22
188.6295501117297
 32
0.0
 13
2767.237993839695
 23
188.6295501117297
 33
0.0
  0
SOLID
  5
315A
330
3153
100
AcDbEntity
  8
标注
 62
     0
100
AcDbTrace
 10
2749.737993839695
 20
189.0462167783963
 30
0.0
 11
2749.737993839695
 21
188.212883445063
 31
0.0
 12
2747.237993839694
 22
188.6295501117297
 32
0.0
 13
2747.237993839694
 23
188.6295501117297
 33
0.0
  0
MTEXT
  5
315B
330
3153
100
AcDbEntity
  8
标注
 62
     0
100
AcDbMText
 10
2718.70505303626
 20
191.7545501117297
 30
0.0
 40
5.0
 41
0.0
 71
     5
 72
     1
  1
4x%%C20
 73
     1
 44
1.0
1001
ACAD
1000
MTEXTBEGIN
1070
    73
1070
     1
1070
    44
1040
1.0
1070
    74
1070
     0
1000
MTEXTEND
  0
POINT
  5
315C
330
3153
100
AcDbEntity
  8
Defpoints
 62
     0
100
AcDbPoint
 10
2767.237993839695
 20
158.420106148211
 30
0.0
  0
POINT
  5
315D
330
3153
100
AcDbEntity
  8
Defpoints
 62
     0
100
AcDbPoint
 10
2747.237993839694
 20
158.420106148211
 30
0.0
  0
POINT
  5
315E
330
3153
100
AcDbEntity
  8
Defpoints
 62
     0
100
AcDbPoint
 10
2747.237993839694
 20
188.6295501117297
 30
0.0
  0
ENDBLK
  5
315F
330
3153
100
AcDbEntity
  8
0
100
AcDbBlockEnd
  0
BLOCK
  5
317E
330
3160
100
AcDbEntity
  8
0
100
AcDbBlockBegin
  2
A$C4C777B45
 70
     0
 10
0.0
 20
0.0
 30
0.0
  3
A$C4C777B45
  1

  0
HATCH
  5
3161
330
3160
100
AcDbEntity
  8
剖面
100
AcDbHatch
 10
0.0
 20
0.0
 30
0.0
210
0.0
220
0.0
230
1.0
  2
ANSI31
 70
     0
 71
     0
 91
        4
 92
        5
 93
        7
 72
     4
 94
        3
 73
     0
 74
     0
 95
        9
 96
        5
 40
75.270632649492
 40
75.270632649492
 40
75.270632649492
 40
75.270632649492
 40
93.34761097761834
 40
106.3988728248537
 40
106.3988728248537
 40
106.3988728248537
 40
106.3988728248537
 10
30.74304124193486
 20
0.0000000000024727
 10
31.23591280696383
 20
5.816427497488033
 10
30.82475107536903
 20
15.82368044702397
 10
27.58925943741952
 20
25.81180374074806
 10
26.21028505448748
 20
30.0
 72
     1
 10
26.21028505448748
 20
30.0
 11
10.0
 21
30.0
 72
     1
 10
10.0
 20
30.0
 11
10.0
 21
20.0
 72
     1
 10
10.0
 20
20.0
 11
6.0
 21
20.0
 72
     1
 10
6.0
 20
20.0
 11
6.0
 21
3.499999999999687
 72
     1
 10
6.0
 20
3.499999999999686
 11
9.5
 21
0.0
 72
     1
 10
9.5
 20
0.0
 11
30.74304124193532
 21
0.0000000000000142
 97
        0
 92
        5
 93
       31
 72
     1
 10
-6.0
 20
20.0
 11
-10.00000000000045
 21
19.99999999999997
 72
     1
 10
-10.00000000000045
 20
19.99999999999997
 11
-10.00000000000045
 21
30.0
 72
     1
 10
-10.00000000000045
 20
30.0
 11
-33.33312368540646
 21
30.0
 72
     4
 94
        3
 73
     0
 74
     0
 95
        8
 96
        4
 40
51.12877354587951
 40
51.12877354587951
 40
51.12877354587951
 40
51.12877354587951
 40
51.20442301763207
 40
51.20442301763207
 40
51.20442301763207
 40
51.20442301763207
 10
-33.33312368540602
 20
30.00000000000034
 10
-33.34716438595115
 20
29.97493238065013
 10
-33.36118838611174
 20
29.94987091976046
 10
-33.37519543421922
 20
29.92481565861033
 72
     4
 94
        3
 73
     0
 74
     0
 95
        8
 96
        4
 40
51.20442301763207
 40
51.20442301763207
 40
51.20442301763207
 40
51.20442301763207
 40
55.27088400947921
 40
55.27088400947921
 40
55.27088400947921
 40
55.27088400947921
 10
-33.37519543421922
 20
29.92481565861033
 10
-34.12813016622022
 20
28.5779953868067
 10
-34.83208208526868
 20
27.24908920976259
 10
-35.44796161652675
 20
25.9445086552945
 72
     4
 94
        3
 73
     0
 74
     0
 95
        8
 96
        4
 40
55.27088400947921
 40
55.27088400947921
 40
55.27088400947921
 40
55.27088400947921
 40
57.46817706330572
 40
57.46817706330572
 40
57.46817706330572
 40
57.46817706330572
 10
-35.44796161652675
 20
25.9445086552945
 10
-35.78074922195083
 20
25.2395846940818
 10
-36.08782206500655
 20
24.54176315872235
 10
-36.36301312986236
 20
23.85205557194865
 72
     4
 94
        3
 73
     0
 74
     0
 95
        8
 96
        4
 40
57.46817706330572
 40
57.46817706330572
 40
57.46817706330572
 40
57.46817706330572
 40
59.03819471014286
 40
59.03819471014286
 40
59.03819471014286
 40
59.03819471014286
 10
-36.36301312986236
 20
23.85205557194865
 10
-36.55964362815757
 20
23.3592432543079
 10
-36.73999707867733
 20
22.87057346372288
 10
-36.90182378086047
 20
22.38641519928814
 72
     4
 94
        3
 73
     0
 74
     0
 95
        8
 96
        4
 40
59.03819471014286
 40
59.03819471014286
 40
59.03819471014286
 40
59.03819471014286
 40
60.75341349291893
 40
60.75341349291893
 40
60.75341349291893
 40
60.75341349291893
 10
-36.90182378086047
 20
22.38641519928814
 10
-37.07861682500152
 20
21.85748015790967
 10
-37.23329781026178
 20
21.33392971668166
 10
-37.36293334745551
 20
20.81624501428206
 72
     4
 94
        3
 73
     0
 74
     0
 95
        8
 96
        4
 40
60.75341349291893
 40
60.75341349291893
 40
60.75341349291893
 40
60.75341349291893
 40
61.77871143739412
 40
61.77871143739412
 40
61.77871143739412
 40
61.77871143739412
 10
-37.36293334745551
 20
20.81624501428206
 10
-37.44042494861469
 20
20.50679116117215
 10
-37.50896723195822
 20
20.19943327220145
 10
-37.56793363934868
 20
19.89427411632937
 72
     4
 94
        3
 73
     0
 74
     0
 95
        8
 96
        4
 40
61.77871143739412
 40
61.77871143739412
 40
61.77871143739412
 40
61.77871143739412
 40
62.94354836571875
 40
62.94354836571875
 40
62.94354836571875
 40
62.94354836571875
 10
-37.56793363934868
 20
19.89427411632937
 10
-37.63492514092013
 20
19.54758400962276
 10
-37.68955692343752
 20
19.20373183894492
 10
-37.73091021753454
 20
18.86286830215758
 72
     4
 94
        3
 73
     0
 74
     0
 95
        8
 96
        4
 40
62.94354836571875
 40
62.94354836571875
 40
62.94354836571875
 40
62.94354836571875
 40
63.9657580936338
 40
63.9657580936338
 40
63.9657580936338
 40
63.9657580936338
 10
-37.73091021753454
 20
18.86286830215758
 10
-37.76720005217111
 20
18.56374143321747
 10
-37.79326406083236
 20
18.26691612520062
 10
-37.80848132995925
 20
17.9724942212346
 72
     4
 94
        3
 73
     0
 74
     0
 95
        8
 96
        4
 40
63.9657580936338
 40
63.9657580936338
 40
63.9657580936338
 40
63.9657580936338
 40
65.13366464105288
 40
65.13366464105288
 40
65.13366464105288
 40
65.13366464105288
 10
-37.80848132995925
 20
17.9724942212346
 10
-37.82586753531632
 20
17.63610799837318
 10
-37.82909464949262
 20
17.30285912540307
 10
-37.81723662044442
 20
16.97289949470124
 72
     4
 94
        3
 73
     0
 74
     0
 95
        8
 96
        4
 40
65.13366464105288
 40
65.13366464105288
 40
65.13366464105288
 40
65.13366464105288
 40
66.15361649547003
 40
66.15361649547003
 40
66.15361649547003
 40
66.15361649547003
 10
-37.81723662044442
 20
16.97289949470124
 10
-37.80688081008975
 20
16.68474036248227
 10
-37.78501984151764
 20
16.39908987417532
 10
-37.75103690653941
 20
16.11604919953919
 72
     4
 94
        3
 73
     0
 74
     0
 95
        8
 96
        4
 40
66.15361649547003
 40
66.15361649547003
 40
66.15361649547003
 40
66.15361649547003
 40
67.24464235853678
 40
67.24464235853678
 40
67.24464235853678
 40
67.24464235853678
 10
-37.75103690653941
 20
16.11604919953919
 10
-37.71468591526172
 20
15.81328520632664
 10
-37.66446468883805
 20
15.51350742245415
 10
-37.59961828063661
 20
15.21683967534517
 72
     4
 94
        3
 73
     0
 74
     0
 95
        8
 96
        4
 40
67.24464235853678
 40
67.24464235853678
 40
67.24464235853678
 40
67.24464235853678
 40
68.05461710312586
 40
68.05461710312586
 40
68.05461710312586
 40
68.05461710312586
 10
-37.59961828063661
 20
15.21683967534517
 10
-37.55147647694639
 20
14.99659431652574
 10
-37.49527394767574
 20
14.77806306651371
 10
-37.43070178739072
 20
14.56129659241887
 72
     4
 94
        3
 73
     0
 74
     0
 95
        8
 96
        4
 40
68.05461710312586
 40
68.05461710312586
 40
68.05461710312586
 40
68.05461710312586
 40
68.63138649998045
 40
68.63138649998045
 40
68.63138649998045
 40
68.63138649998045
 10
-37.43070178739072
 20
14.56129659241887
 10
-37.38472103775621
 20
14.4069408308878
 10
-37.3344963623963
 20
14.25347992098181
 10
-37.27991622462378
 20
14.10093215710742
 72
     4
 94
        3
 73
     0
 74
     0
 95
        8
 96
        4
 40
68.63138649998045
 40
68.63138649998045
 40
68.63138649998045
 40
68.63138649998045
 40
70.24230154675395
 40
70.24230154675395
 40
70.24230154675395
 40
70.24230154675395
 10
-37.27991622462378
 20
14.10093215710742
 10
-37.12747407760299
 20
13.67486674948165
 10
-36.94105570522335
 20
13.25592463954893
 10
-36.71823098015693
 20
12.84450442025945
 72
     4
 94
        3
 73
     0
 74
     0
 95
        8
 96
        4
 40
70.24230154675395
 40
70.24230154675395
 40
70.24230154675395
 40
70.24230154675395
 40
70.82056217001372
 40
70.82056217001372
 40
70.82056217001372
 40
70.82056217001372
 10
-36.71823098015693
 20
12.84450442025945
 10
-36.63824490972274
 20
12.69681934344271
 10
-36.55356769127548
 20
12.5501035013814
 10
-36.46408692076193
 20
12.40437533074878
 72
     4
 94
        3
 73
     0
 74
     0
 95
        9
 96
        5
 40
70.82056217001372
 40
70.82056217001372
 40
70.82056217001372
 40
70.82056217001372
 40
71.22731143678956
 40
71.83523921610436
 40
71.83523921610436
 40
71.83523921610436
 40
71.83523921610436
 10
-36.46408692076193
 20
12.40437533074878
 10
-36.40114603159736
 20
12.30186994793496
 10
-36.23820479716143
 20
12.04737898337467
 10
-36.06023002780785
 20
11.79596897986712
 10
-35.94872211610937
 20
11.6463379757012
 72
     4
 94
        3
 73
     0
 74
     0
 95
        8
 96
        4
 40
71.83523921610436
 40
71.83523921610436
 40
71.83523921610436
 40
71.83523921610436
 40
72.71239976525752
 40
72.71239976525752
 40
72.71239976525752
 40
72.71239976525752
 10
-35.94872211610937
 20
11.6463379757012
 10
-35.78783073330396
 20
11.43043993937121
 10
-35.61678578532383
 20
11.21661824184148
 10
-35.43714728870011
 20
11.0045466455181
 72
     4
 94
        3
 73
     0
 74
     0
 95
        8
 96
        4
 40
72.71239976525752
 40
72.71239976525752
 40
72.71239976525752
 40
72.71239976525752
 40
73.70563221173823
 40
73.70563221173823
 40
73.70563221173823
 40
73.70563221173823
 10
-35.43714728870011
 20
11.0045466455181
 10
-35.23373779467329
 20
10.76441228169074
 10
-35.01930996101601
 20
10.52652183481537
 10
-34.79612866473872
 20
10.29040166374031
 72
     4
 94
        3
 73
     0
 74
     0
 95
        8
 96
        4
 40
73.70563221173823
 40
73.70563221173823
 40
73.70563221173823
 40
73.70563221173823
 40
75.32503831474399
 40
75.32503831474399
 40
75.32503831474399
 40
75.32503831474399
 10
-34.79612866473872
 20
10.29040166374031
 10
-34.43224490867624
 20
9.905421846139118
 10
-34.04509151457161
 20
9.525148015059583
 10
-33.64448504056418
 20
9.147527288211943
 72
     4
 94
        3
 73
     0
 74
     0
 95
        8
 96
        4
 40
75.32503831474399
 40
75.32503831474399
 40
75.32503831474399
 40
75.32503831474399
 40
76.80977577349068
 40
76.80977577349068
 40
76.80977577349068
 40
76.80977577349068
 10
-33.64448504056418
 20
9.147527288211943
 10
-33.27719271217802
 20
8.801309228820171
 10
-32.89859176643131
 20
8.457321360640492
 10
-32.51624776062409
 20
8.113981540688483
 72
     4
 94
        3
 73
     0
 74
     0
 95
        8
 96
        4
 40
76.80977577349068
 40
76.80977577349068
 40
76.80977577349068
 40
76.80977577349068
 40
79.68500513686163
 40
79.68500513686163
 40
79.68500513686163
 40
79.68500513686163
 10
-32.51624776062409
 20
8.113981540688483
 10
-31.7758295096196
 20
7.449095822257246
 10
-31.02137431825213
 20
6.786640365209834
 10
-30.30782481257029
 20
6.115125323271427
 72
     4
 94
        3
 73
     0
 74
     0
 95
        9
 96
        5
 40
79.68500513686163
 40
79.68500513686163
 40
79.68500513686163
 40
79.68500513686163
 40
80.66220834932343
 40
81.41327496226379
 40
81.41327496226379
 40
81.41327496226379
 40
81.41327496226379
 10
-30.30782481257029
 20
6.115125323271427
 10
-30.06531098807818
 20
5.886897737480039
 10
-29.64476066652878
 20
5.481406378521056
 10
-29.24573674660451
 20
5.071230787539619
 10
-29.07635377206771
 20
4.892102263225297
 72
     4
 94
        3
 73
     0
 74
     0
 95
        8
 96
        4
 40
81.41327496226379
 40
81.41327496226379
 40
81.41327496226379
 40
81.41327496226379
 40
83.69870908659832
 40
83.69870908659832
 40
83.69870908659832
 40
83.69870908659832
 10
-29.07635377206771
 20
4.892102263225297
 10
-28.5609352680126
 20
4.347028850220111
 10
-28.08277372259545
 20
3.793848172389671
 10
-27.64069403969461
 20
3.232815935400806
 72
     4
 94
        3
 73
     0
 74
     0
 95
        8
 96
        4
 40
83.69870908659832
 40
83.69870908659832
 40
83.69870908659832
 40
83.69870908659832
 40
85.79026363578586
 40
85.79026363578586
 40
85.79026363578586
 40
85.79026363578586
 10
-27.64069403969461
 20
3.232815935400806
 10
-27.23611717526819
 20
2.719377584664457
 10
-26.86175999518355
 20
2.199363308440664
 10
-26.51672181044342
 20
1.67296910029651
 72
     4
 94
        3
 73
     0
 74
     0
 95
        8
 96
        4
 40
85.79026363578586
 40
85.79026363578586
 40
85.79026363578586
 40
85.79026363578586
 40
87.97858175601101
 40
87.97858175601101
 40
87.97858175601101
 40
87.97858175601101
 10
-26.51672181044342
 20
1.67296910029651
 10
-26.15572079704498
 20
1.122221817845314
 10
-25.82681435694303
 20
0.5644906264899703
 10
-25.52897092029116
 20
-0.0000000000000711
 72
     1
 10
-25.52897092029116
 20
-0.0000000000000142
 11
-9.500000000000905
 21
-0.0000000000000426
 72
     1
 10
-9.500000000000907
 20
-0.0000000000000426
 11
-6.0
 21
3.499999999999458
 72
     1
 10
-6.0
 20
3.499999999999458
 11
-6.0
 21
20.0
 97
        0
 92
        5
 93
       12
 72
     1
 10
-10.0
 20
58.00000000000037
 11
-12.0
 21
60.00000000000003
 72
     1
 10
-12.0
 20
60.00000000000003
 11
-21.99910188025342
 21
60.0
 72
     4
 94
        3
 73
     0
 74
     0
 95
        8
 96
        4
 40
21.62997227897743
 40
21.62997227897743
 40
21.62997227897743
 40
21.62997227897743
 40
24.51920069068393
 40
24.51920069068393
 40
24.51920069068393
 40
24.51920069068393
 10
-21.99910188025297
 20
60.0
 10
-22.01589805873209
 20
59.03587808967174
 10
-22.06213577553354
 20
58.06992307375782
 10
-22.14174769075999
 20
57.10189009476742
 72
     4
 94
        3
 73
     0
 74
     0
 95
        8
 96
        4
 40
24.51920069068393
 40
24.51920069068393
 40
24.51920069068393
 40
24.51920069068393
 40
26.60384858438794
 40
26.60384858438794
 40
26.60384858438794
 40
26.60384858438794
 10
-22.14174769075999
 20
57.10189009476742
 10
-22.1991896052582
 20
56.40343098280802
 10
-22.27400602763555
 20
55.70389008948615
 10
-22.36767415658596
 20
55.00317544062747
 72
     4
 94
        3
 73
     0
 74
     0
 95
        8
 96
        4
 40
26.60384858438794
 40
26.60384858438794
 40
26.60384858438794
 40
26.60384858438794
 40
29.37477459018309
 40
29.37477459018309
 40
29.37477459018309
 40
29.37477459018309
 10
-22.36767415658596
 20
55.00317544062747
 10
-22.49217837392007
 20
54.0717814872274
 10
-22.64998955974125
 20
53.13831375665897
 10
-22.84457680405195
 20
52.20255625449317
 72
     4
 94
        3
 73
     0
 74
     0
 95
        8
 96
        4
 40
29.37477459018309
 40
29.37477459018309
 40
29.37477459018309
 40
29.37477459018309
 40
31.42614381668297
 40
31.42614381668297
 40
31.42614381668297
 40
31.42614381668297
 10
-22.84457680405195
 20
52.20255625449317
 10
-22.98863344216261
 20
51.50979717706032
 10
-23.15284601747408
 20
50.81578313935125
 10
-23.33862210740154
 20
50.12042650199072
 72
     4
 94
        3
 73
     0
 74
     0
 95
        8
 96
        4
 40
31.42614381668297
 40
31.42614381668297
 40
31.42614381668297
 40
31.42614381668297
 40
33.28246582713612
 40
33.28246582713612
 40
33.28246582713612
 40
33.28246582713612
 10
-23.33862210740154
 20
50.12042650199072
 10
-23.50673433229713
 20
49.49118540079247
 10
-23.69250443484771
 20
48.86084487490359
 10
-23.8969754544778
 20
48.22933998201808
 72
     4
 94
        3
 73
     0
 74
     0
 95
        8
 96
        4
 40
33.28246582713612
 40
33.28246582713612
 40
33.28246582713612
 40
33.28246582713612
 40
35.34527414545411
 40
35.34527414545411
 40
35.34527414545411
 40
35.34527414545411
 10
-23.8969754544778
 20
48.22933998201808
 10
-24.1241906239211
 20
47.5275902108214
 10
-24.37449845671381
 20
46.82440263125658
 10
-24.6493302091294
 20
46.11968812964202
 72
     4
 94
        3
 73
     0
 74
     0
 95
        9
 96
        5
 40
35.34527414545411
 40
35.34527414545411
 40
35.34527414545411
 40
35.34527414545411
 40
36.0084731115785
 40
44.74600006232107
 40
44.74600006232107
 40
44.74600006232107
 40
44.74600006232107
 10
-24.6493302091294
 20
46.11968812964202
 10
-24.73768942915103
 20
45.89312033624437
 10
-26.02609712844242
 20
42.67932546721906
 10
-27.83338642615218
 20
39.43322370084604
 10
-29.57365583297542
 20
36.45182034816424
 72
     4
 94
        3
 73
     0
 74
     0
 95
        8
 96
        4
 40
44.74600006232107
 40
44.74600006232107
 40
44.74600006232107
 40
44.74600006232107
 40
51.12877354587951
 40
51.12877354587951
 40
51.12877354587951
 40
51.12877354587951
 10
-29.57365583297542
 20
36.45182034816424
 10
-30.84492463554852
 20
34.27390177113799
 10
-32.14846754634209
 20
32.11503044737586
 10
-33.33312368540602
 20
30.00000000000034
 72
     1
 10
-33.33312368540692
 20
30.0
 11
-10.00000000000045
 21
29.99999999999997
 72
     1
 10
-10.00000000000045
 20
29.99999999999997
 11
-10.0
 21
58.00000000000037
 97
        0
 92
        5
 93
       10
 72
     4
 94
        3
 73
     0
 74
     0
 95
        8
 96
        4
 40
59.72183502742871
 40
59.72183502742871
 40
59.72183502742871
 40
59.72183502742871
 40
67.49751567901461
 40
67.49751567901461
 40
67.49751567901461
 40
67.49751567901461
 10
23.82270192051738
 20
37.4845288052026
 10
23.08541634060111
 20
39.98088441288638
 10
22.44039526877805
 20
42.47819777081097
 10
21.98789321499771
 20
44.97727219490609
 72
     4
 94
        3
 73
     0
 74
     0
 95
        9
 96
        5
 40
55.83017587514445
 40
55.83017587514445
 40
55.83017587514445
 40
55.83017587514445
 40
57.00104273489795
 40
59.72183502742868
 40
59.72183502742868
 40
59.72183502742868
 40
59.72183502742868
 10
21.98789321499771
 20
44.97727219490609
 10
21.91975517249284
 20
45.35358438599814
 10
21.70779096544265
 20
46.60448167593242
 10
21.547832624688
 20
47.85585039812807
 10
21.46023891685354
 20
48.730944883022
 72
     4
 94
        3
 73
     0
 74
     0
 95
        8
 96
        4
 40
51.94195035448064
 40
51.94195035448064
 40
51.94195035448064
 40
51.94195035448064
 40
55.83017587514445
 40
55.83017587514445
 40
55.83017587514445
 40
55.83017587514445
 10
21.46023891685354
 20
48.730944883022
 10
21.33506064022231
 20
49.98152351722996
 10
21.25938411346078
 20
51.232550883928
 10
21.22976184667505
 20
52.48399573168104
 72
     4
 94
        3
 73
     0
 74
     0
 95
        8
 96
        4
 40
48.05194887219097
 40
48.05194887219097
 40
48.05194887219097
 40
48.05194887219097
 40
51.94195035448067
 40
51.94195035448067
 40
51.94195035448067
 40
51.94195035448067
 10
21.22976184667505
 20
52.48399573168104
 10
21.20012604980729
 20
53.73601218157354
 10
21.21658659343484
 20
54.98844649398012
 10
21.27569126154412
 20
56.24126737462352
 72
     4
 94
        3
 73
     0
 74
     0
 95
        8
 96
        4
 40
44.16283533442546
 40
44.16283533442546
 40
44.16283533442546
 40
44.16283533442546
 40
48.05194887219096
 40
48.05194887219096
 40
48.05194887219096
 40
48.05194887219096
 10
21.27569126154412
 20
56.24126737462352
 10
21.33478243822765
 20
57.4938022822549
 10
21.43649827343779
 20
58.74672358166449
 10
21.57738891466352
 20
60.0000000000001
 72
     1
 10
21.57738891466352
 20
60.0
 11
12.0
 21
60.0
 72
     1
 10
12.0
 20
60.0
 11
9.999999999999543
 21
57.99999999999997
 72
     1
 10
9.999999999999543
 20
57.99999999999997
 11
9.999999999999543
 21
29.99999999999997
 72
     1
 10
9.999999999999543
 20
29.99999999999997
 11
26.21028505448704
 21
30.00000000000003
 72
     4
 94
        3
 73
     0
 74
     0
 95
        8
 96
        4
 40
67.49751567901461
 40
67.49751567901461
 40
67.49751567901461
 40
67.49751567901461
 40
75.27063264949203
 40
75.27063264949203
 40
75.27063264949203
 40
75.27063264949203
 10
26.21028505448704
 20
29.99999999999995
 10
25.38899058478091
 20
32.49442083068596
 10
24.55974441366107
 20
34.9889962585469
 10
23.82270192051738
 20
37.4845288052026
 97
        0
 75
     0
 76
     1
 52
0.0
 41
2.5
 77
     0
 78
     1
 53
45.0
 43
-2742.331752938879
 44
-115.3263470490262
 45
-5.612660075668219
 46
5.612660075668221
 79
     0
 47
0.4671604336521292
 98
        4
 10
22.97540131426103
 20
14.74642714841343
 10
-16.76839424374702
 20
16.61507204554277
 10
-14.89809335100654
 20
41.37457168901003
 10
19.23480772984112
 20
38.57161096431561
1001
ACAD
1010
0.0
1020
0.0
1030
0.0
  0
LINE
  5
3162
330
3160
100
AcDbEntity
  8
0
100
AcDbLine
 10
-10.0
 20
20.0
 30
0.0
 11
10.0
 21
20.0
 31
0.0
  0
LINE
  5
3163
330
3160
100
AcDbEntity
  8
中心线
 48
0.25
100
AcDbLine
 10
0.0
 20
67.12820323970504
 30
0.0
 11
0.0
 21
-4.900525913388945
 31
0.0
  0
LINE
  5
3164
330
3160
100
AcDbEntity
  8
0
 48
0.25
100
AcDbLine
 10
10.0
 20
58.0
 30
0.0
 11
10.0
 21
20.0
 31
0.0
  0
LINE
  5
3165
330
3160
100
AcDbEntity
  8
0
 48
0.25
100
AcDbLine
 10
-10.0
 20
58.0
 30
0.0
 11
-10.0
 21
20.0
 31
0.0
  0
LINE
  5
3166
102
{ACAD_REACTORS
330
3178
102
}
330
3160
100
AcDbEntity
  8
0
 48
0.25
100
AcDbLine
 10
6.0
 20
20.0
 30
0.0
 11
6.0
 21
3.500000000000013
 31
0.0
  0
LINE
  5
3167
102
{ACAD_REACTORS
330
3178
102
}
330
3160
100
AcDbEntity
  8
0
 48
0.25
100
AcDbLine
 10
-6.0
 20
20.0
 30
0.0
 11
-6.0
 21
3.5
 31
0.0
  0
LINE
  5
3168
330
3160
100
AcDbEntity
  8
0
100
AcDbLine
 10
-9.5
 20
0.0
 30
0.0
 11
-6.0
 21
3.5
 31
0.0
  0
LINE
  5
3169
330
3160
100
AcDbEntity
  8
0
100
AcDbLine
 10
9.5
 20
0.0000000000000142
 30
0.0
 11
6.0
 21
3.500000000000013
 31
0.0
  0
LINE
  5
316A
330
3160
100
AcDbEntity
  8
标注
100
AcDbLine
 10
-10.47894957836388
 20
-0.9789495783637676
 30
0.0
 11
-21.01173452979129
 21
-10.80674944956604
 31
0.0
  0
LINE
  5
316B
330
3160
100
AcDbEntity
  8
标注
100
AcDbLine
 10
-20.80929956979708
 20
-10.73727750107059
 30
0.0
 11
-40.78942673492202
 21
-10.62180284292185
 31
0.0
  0
MTEXT
  5
316C
330
3160
100
AcDbEntity
  8
标注
100
AcDbMText
 10
-40.68580634440514
 20
-3.151176783203482
 30
0.0
 40
5.0
 41
11.12317121027809
 71
     1
 72
     5
  1
2X45°
 73
     1
 44
1.0
1001
ACAD
1000
ACAD_MTEXT_DEFINED_HEIGHT_BEGIN
1070
    46
1040
0.0
1000
ACAD_MTEXT_DEFINED_HEIGHT_END
1000
MTEXTBEGIN
1070
    73
1070
     1
1070
    44
1040
1.0
1070
    74
1070
     0
1000
MTEXTEND
  0
LINE
  5
316D
330
3160
100
AcDbEntity
  8
0
100
AcDbLine
 10
-6.0
 20
3.5
 30
0.0
 11
6.0
 21
3.500000000000013
 31
0.0
  0
LINE
  5
316E
330
3160
100
AcDbEntity
  8
0
100
AcDbLine
 10
-10.0
 20
58.0
 30
0.0
 11
-12.0
 21
60.0
 31
0.0
  0
LINE
  5
316F
330
3160
100
AcDbEntity
  8
0
100
AcDbLine
 10
10.0
 20
58.0
 30
0.0
 11
12.0
 21
60.0
 31
0.0
  0
LINE
  5
3170
102
{ACAD_REACTORS
330
317B
102
}
330
3160
100
AcDbEntity
  8
0
100
AcDbLine
 10
-10.0
 20
58.0
 30
0.0
 11
10.0
 21
58.0
 31
0.0
  0
SPLINE
  5
3171
330
3160
100
AcDbEntity
  8
0
100
AcDbSpline
210
0.0
220
0.0
230
1.0
 70
     8
 71
     3
 72
    10
 73
     6
 74
     0
 42
0.0000000001
 43
0.0000000001
 40
44.16283533442546
 40
44.16283533442546
 40
44.16283533442546
 40
44.16283533442546
 40
58.5509681676752
 40
88.32189449672743
 40
106.3988728248538
 40
106.3988728248538
 40
106.3988728248538
 40
106.3988728248538
 10
21.57738891466352
 20
60.0000000000001
 30
0.0
 10
21.05615104355729
 20
55.36338874946995
 30
0.0
 10
21.1020250814322
 20
41.14794067577952
 30
0.0
 10
30.60390703917255
 20
21.1987967645004
 30
0.0
 10
31.23591280696383
 20
5.816427497488033
 30
0.0
 10
30.74304124193486
 20
0.0000000000024727
 30
0.0
  0
SPLINE
  5
3172
330
3160
100
AcDbEntity
  8
0
100
AcDbSpline
210
0.0
220
0.0
230
1.0
 70
     8
 71
     3
 72
    11
 73
     7
 74
     0
 42
0.0000000001
 43
0.0000000001
 40
21.62997227897743
 40
21.62997227897743
 40
21.62997227897743
 40
21.62997227897743
 40
36.0084731115785
 40
71.22731143678956
 40
80.66220834932343
 40
87.97858175601101
 40
87.97858175601101
 40
87.97858175601101
 40
87.97858175601101
 10
-21.99910188025297
 20
60.0
 30
0.0
 10
-22.08268954859704
 20
55.20196200680575
 30
0.0
 10
-24.88619567536898
 20
38.49496214869418
 30
0.0
 10
-45.4136942080072
 20
17.53945548878079
 30
0.0
 10
-29.59972214600248
 20
6.035407494821057
 30
0.0
 10
-26.52477394323341
 20
1.88730521847121
 30
0.0
 10
-25.52897092029116
 20
-0.0000000000000711
 30
0.0
  0
LINE
  5
3173
330
3160
100
AcDbEntity
  8
标注
100
AcDbLine
 10
12.53893704761685
 20
60.6697543928069
 30
0.0
 11
22.23666624999532
 21
69.40592653603561
 31
0.0
  0
LINE
  5
3174
330
3160
100
AcDbEntity
  8
标注
100
AcDbLine
 10
43.25130242557406
 20
69.29045187788688
 30
0.0
 11
22.23666624999532
 21
69.40592653603561
 31
0.0
  0
MTEXT
  5
3175
330
3160
100
AcDbEntity
  8
标注
100
AcDbMText
 10
23.37479565096601
 20
76.87655259575397
 30
0.0
 40
5.0
 41
11.12317121027809
 71
     1
 72
     5
  1
2X45°
 73
     1
 44
1.0
1001
ACAD
1000
ACAD_MTEXT_DEFINED_HEIGHT_BEGIN
1070
    46
1040
0.0
1000
ACAD_MTEXT_DEFINED_HEIGHT_END
1000
MTEXTBEGIN
1070
    73
1070
     1
1070
    44
1040
1.0
1070
    74
1070
     0
1000
MTEXTEND
  0
DIMENSION
  5
3176
102
{ACAD_XDICTIONARY
360
3177
102
}
102
{ACAD_REACTORS
330
3178
102
}
330
3160
100
AcDbEntity
  8
标注
100
AcDbDimension
  2
*D4
 10
5.999999999999543
 20
75.01089490537037
 30
0.0
 11
-27.96459589150618
 21
75.01089490537037
 31
0.0
 12
-2757.237993839695
 22
-100.420106148211
 32
0.0
 70
   128
  1
4X%%C12
 71
     5
 42
11.99999999999954
  3
ISO-25
100
AcDbAlignedDimension
 13
-6.0
 23
20.0
 33
0.0
 14
5.999999999999543
 24
20.0
 34
0.0
100
AcDbRotatedDimension
  0
DIMENSION
  5
3179
102
{ACAD_XDICTIONARY
360
317A
102
}
102
{ACAD_REACTORS
330
317B
102
}
330
3160
100
AcDbEntity
  8
标注
100
AcDbDimension
  2
*D5
 10
-10.0
 20
88.20944396351865
 30
0.0
 11
-38.53294080343403
 21
88.20944396351865
 31
0.0
 12
-2757.237993839695
 22
-100.420106148211
 32
0.0
 70
   128
  1
4x%%C20
 71
     5
 42
20.0
  3
ISO-25
100
AcDbAlignedDimension
 13
10.0
 23
58.0
 33
0.0
 14
-10.0
 24
58.0
 34
0.0
100
AcDbRotatedDimension
  0
ENDBLK
  5
317F
330
3160
100
AcDbEntity
  8
0
100
AcDbBlockEnd
  0
BLOCK
  5
3710
330
370F
100
AcDbEntity
  8
0
100
AcDbBlockBegin
  2
*D7
 70
     1
 10
0.0
 20
0.0
 30
0.0
  3
*D7
  1

  0
LINE
  5
3711
330
370F
100
AcDbEntity
  8
标注
 62
     0
370
    -2
100
AcDbLine
 10
1339.320303191581
 20
195.8932766975536
 30
0.0
 11
1339.320303191581
 21
213.5660450899695
 31
0.0
  0
LINE
  5
3712
330
370F
100
AcDbEntity
  8
标注
 62
     0
370
    -2
100
AcDbLine
 10
1349.320303191581
 20
195.8932766975536
 30
0.0
 11
1349.320303191581
 21
213.5660450899695
 31
0.0
  0
LINE
  5
3713
330
370F
100
AcDbEntity
  8
标注
 62
     0
370
    -2
100
AcDbLine
 10
1341.820303191581
 20
212.3160450899695
 30
0.0
 11
1346.820303191581
 21
212.3160450899695
 31
0.0
  0
LINE
  5
3714
330
370F
100
AcDbEntity
  8
标注
 62
     0
370
    -2
100
AcDbLine
 10
1349.320303191581
 20
212.3160450899695
 30
0.0
 11
1373.903636524915
 21
212.3160450899695
 31
0.0
  0
SOLID
  5
3715
330
370F
100
AcDbEntity
  8
标注
 62
     0
100
AcDbTrace
 10
1341.820303191581
 20
212.7327117566362
 30
0.0
 11
1341.820303191581
 21
211.8993784233029
 31
0.0
 12
1339.320303191581
 22
212.3160450899695
 32
0.0
 13
1339.320303191581
 23
212.3160450899695
 33
0.0
  0
SOLID
  5
3716
330
370F
100
AcDbEntity
  8
标注
 62
     0
100
AcDbTrace
 10
1346.820303191581
 20
212.7327117566362
 30
0.0
 11
1346.820303191581
 21
211.8993784233029
 31
0.0
 12
1349.320303191581
 22
212.3160450899695
 32
0.0
 13
1349.320303191581
 23
212.3160450899695
 33
0.0
  0
MTEXT
  5
3717
330
370F
100
AcDbEntity
  8
标注
 62
     0
100
AcDbMText
 10
1362.861969858248
 20
215.4410450899695
 30
0.0
 40
5.0
 41
0.0
 71
     5
 72
     1
  1
2XM10
 73
     1
 44
1.0
1001
ACAD
1000
MTEXTBEGIN
1070
    73
1070
     1
1070
    44
1040
1.0
1070
    74
1070
     0
1000
MTEXTEND
  0
POINT
  5
3718
330
370F
100
AcDbEntity
  8
Defpoints
 62
     0
100
AcDbPoint
 10
1339.320303191581
 20
195.2682766975535
 30
0.0
  0
POINT
  5
3719
330
370F
100
AcDbEntity
  8
Defpoints
 62
     0
100
AcDbPoint
 10
1349.320303191581
 20
195.2682766975535
 30
0.0
  0
POINT
  5
371A
330
370F
100
AcDbEntity
  8
Defpoints
 62
     0
100
AcDbPoint
 10
1349.320303191581
 20
212.3160450899695
 30
0.0
  0
ENDBLK
  5
371B
330
370F
100
AcDbEntity
  8
0
100
AcDbBlockEnd
  0
BLOCK
  5
3740
330
371C
100
AcDbEntity
  8
0
100
AcDbBlockBegin
  2
A$C53031FEE
 70
     0
 10
0.0
 20
0.0
 30
0.0
  3
A$C53031FEE
  1

  0
HATCH
  5
371D
330
371C
100
AcDbEntity
  8
剖面
100
AcDbHatch
 10
0.0
 20
0.0
 30
0.0
210
0.0
220
0.0
230
1.0
  2
ANSI31
 70
     0
 71
     0
 91
        8
 92
        5
 93
        5
 72
     1
 10
-5.000000000000226
 20
27.99999999999993
 11
-7.000000000000227
 21
30.0
 72
     1
 10
-7.000000000000227
 20
30.0
 11
-11.38608855052985
 21
30.00000000000003
 72
     4
 94
        3
 73
     0
 74
     0
 95
       10
 96
        6
 40
15.87387332718653
 40
15.87387332718653
 40
15.87387332718653
 40
15.87387332718653
 40
25.50996794471452
 40
34.95878151376738
 40
49.85349073022708
 40
49.85349073022708
 40
49.85349073022708
 40
49.85349073022708
 10
-11.38608855052985
 20
30.0
 10
-11.46332872241328
 20
26.83140717194362
 10
-12.90089419641435
 20
20.92428910261643
 10
-22.74000304830634
 20
12.49515521283626
 10
-19.61161954411454
 20
4.880520174160722
 10
-17.05053074080706
 20
0.0
 72
     1
 10
-17.05053074080683
 20
0.0
 11
-5.000000000000227
 21
-0.0000000000000284
 72
     1
 10
-5.000000000000226
 20
-0.0000000000000284
 11
-5.000000000000226
 21
27.99999999999993
 97
        0
 92
        5
 93
        5
 72
     4
 94
        3
 73
     0
 74
     0
 95
       10
 96
        6
 40
10.59960820569508
 40
10.59960820569508
 40
10.59960820569508
 40
10.59960820569508
 40
18.23892599956073
 40
32.96135660831762
 40
40.87937914458968
 40
40.87937914458968
 40
40.87937914458968
 40
40.87937914458968
 10
10.18488525363523
 20
0.0
 10
9.806454499492248
 20
2.525156253870989
 10
9.123972260259504
 20
9.907698965310713
 10
12.12069074877809
 20
19.83574638567086
 10
12.35825336366724
 20
27.3610437284843
 10
12.30109569880096
 20
30.00000000000006
 72
     1
 10
12.30109569880073
 20
29.99999999999997
 11
7.0
 21
29.99999999999997
 72
     1
 10
7.0
 20
29.99999999999997
 11
5.0
 21
28.00000000000003
 72
     1
 10
5.0
 20
28.00000000000003
 11
5.0
 21
0.0
 72
     1
 10
5.0
 20
0.0
 11
10.18488525363523
 21
0.0
 97
        0
 92
        7
 72
     0
 73
     1
 93
        4
 10
5.0
 20
28.00000000000003
 10
3.5
 20
26.49999999999995
 10
3.500000000000226
 20
0.0
 10
5.000000000000226
 20
0.0
 97
        0
 92
        7
 72
     0
 73
     1
 93
        4
 10
-3.5
 20
26.50000000000009
 10
-5.0
 20
28.00000000000034
 10
-4.999999999999771
 20
0.0000000000000284
 10
-3.5
 20
0.0000000000000284
 97
        0
 92
        5
 93
        5
 72
     1
 10
-5.0
 20
0.0
 11
-17.05053074080729
 21
0.0
 72
     4
 94
        3
 73
     0
 74
     0
 95
        9
 96
        5
 40
49.85349073022708
 40
49.85349073022708
 40
49.85349073022708
 40
49.85349073022708
 40
60.59025456547669
 40
79.83594103221278
 40
79.83594103221278
 40
79.83594103221278
 40
79.83594103221278
 10
-17.05053074080706
 20
0.0
 10
-15.20438488843751
 20
-3.518094360998247
 10
-9.110241233164742
 20
-13.66373994654296
 10
-9.633440342888434
 20
-23.63046680768639
 10
-11.00829469408654
 20
-30.0
 72
     1
 10
-11.00829469408632
 20
-30.0
 11
-6.999999999999772
 21
-29.99999999999997
 72
     1
 10
-6.999999999999772
 20
-29.99999999999997
 11
-4.999999999999771
 21
-28.00000000000011
 72
     1
 10
-4.999999999999771
 20
-28.00000000000011
 11
-5.0
 21
0.0
 97
        0
 92
        7
 72
     0
 73
     1
 93
        4
 10
-3.500000000000226
 20
0.0
 10
-5.0
 20
0.0
 10
-5.0
 20
-27.99999999999997
 10
-3.5
 20
-26.50000000000023
 97
        0
 92
        7
 72
     0
 73
     1
 93
        4
 10
5.0
 20
0.0
 10
3.5
 20
0.0
 10
3.5
 20
-26.49999999999997
 10
5.0
 20
-28.00000000000025
 97
        0
 92
        5
 93
        5
 72
     4
 94
        3
 73
     0
 74
     0
 95
        9
 96
        5
 40
40.87937914458968
 40
40.87937914458968
 40
40.87937914458968
 40
40.87937914458968
 40
55.15564366526024
 40
71.13645869416155
 40
71.13645869416155
 40
71.13645869416155
 40
71.13645869416155
 10
11.37623144623126
 20
-30.00000000000006
 10
12.33838562608298
 20
-25.29300916087482
 10
13.67908030125409
 20
-15.3094975416507
 10
10.97653079665269
 20
-5.282416061364754
 10
10.18488525363523
 20
0.0
 72
     1
 10
10.184885253635
 20
0.0
 11
5.0
 21
-0.0000000000000284
 72
     1
 10
5.0
 20
-0.0000000000000284
 11
4.999999999999771
 21
-28.00000000000011
 72
     1
 10
4.999999999999771
 20
-28.00000000000011
 11
7.0
 21
-30.0
 72
     1
 10
7.0
 20
-30.0
 11
11.37623144623103
 21
-30.0
 97
        0
 75
     0
 76
     1
 52
0.0
 41
2.5
 77
     0
 78
     1
 53
45.0
 43
-1344.320303191581
 44
-167.2682766975535
 45
-5.612660075668219
 46
5.612660075668221
 79
     0
 47
0.1460770227189747
 98
        8
 10
-8.662988014023994
 20
8.507937941748878
 10
8.543589934598003
 20
20.78747892488218
 10
4.109457326444044
 20
20.31594452994295
 10
-4.335641405470139
 20
23.37574268186427
 10
-9.312413537115842
 20
-5.71217848509832
 10
-4.780015830492174
 20
-3.082793902639877
 10
3.992362594683525
 20
-4.397486193869098
 10
8.378560008330619
 20
-4.835716957612476
1001
ACAD
1010
0.0
1020
0.0
1030
0.0
  0
LINE
  5
371E
330
371C
100
AcDbEntity
  8
中心线
 48
0.25
100
AcDbLine
 10
15.0
 20
42.08434855375094
 30
0.0
 11
15.0
 21
-36.75489593400629
 31
0.0
  0
LINE
  5
371F
330
371C
100
AcDbEntity
  8
中心线
 48
0.25
100
AcDbLine
 10
30.0
 20
42.08434855375094
 30
0.0
 11
30.0
 21
-36.75489593400629
 31
0.0
  0
LINE
  5
3720
330
371C
100
AcDbEntity
  8
中心线
 48
0.25
100
AcDbLine
 10
0.0
 20
42.08434855375094
 30
0.0
 11
0.0
 21
-36.75489593400629
 31
0.0
  0
LINE
  5
3721
330
371C
100
AcDbEntity
  8
中心线
 48
0.25
100
AcDbLine
 10
0.0
 20
6.927214931242017
 30
0.0
 11
0.0
 21
-32.94580801316704
 31
0.0
  0
LINE
  5
3722
330
371C
100
AcDbEntity
  8
细实线
 48
0.25
100
AcDbLine
 10
-5.0
 20
0.0
 30
0.0
 11
-5.0
 21
-28.0
 31
0.0
  0
LINE
  5
3723
330
371C
100
AcDbEntity
  8
0
 48
0.25
100
AcDbLine
 10
-3.5
 20
0.0
 30
0.0
 11
-3.5
 21
-26.5
 31
0.0
  0
LINE
  5
3724
330
371C
100
AcDbEntity
  8
0
100
AcDbLine
 10
-7.0
 20
-30.0
 30
0.0
 11
-3.5
 21
-26.5
 31
0.0
  0
LINE
  5
3725
330
371C
100
AcDbEntity
  8
细实线
 48
0.25
100
AcDbLine
 10
5.0
 20
0.0
 30
0.0
 11
5.0
 21
-28.0
 31
0.0
  0
LINE
  5
3726
330
371C
100
AcDbEntity
  8
0
 48
0.25
100
AcDbLine
 10
3.5
 20
0.0
 30
0.0
 11
3.5
 21
-26.5
 31
0.0
  0
LINE
  5
3727
330
371C
100
AcDbEntity
  8
0
100
AcDbLine
 10
7.0
 20
-30.0
 30
0.0
 11
3.5
 21
-26.5
 31
0.0
  0
LINE
  5
3728
330
371C
100
AcDbEntity
  8
0
100
AcDbLine
 10
-3.5
 20
-26.5
 30
0.0
 11
3.5
 21
-26.5
 31
0.0
  0
LINE
  5
3729
330
371C
100
AcDbEntity
  8
0
100
AcDbLine
 10
-5.0
 20
-28.0
 30
0.0
 11
5.0
 21
-28.0
 31
0.0
  0
LINE
  5
372A
330
371C
100
AcDbEntity
  8
标注
100
AcDbLine
 10
-7.401615811105782
 20
-30.37383298705072
 30
0.0
 11
-18.51173452979105
 21
-40.80674944956611
 31
0.0
  0
LINE
  5
372B
330
371C
100
AcDbEntity
  8
标注
100
AcDbLine
 10
-18.30929956979685
 20
-40.73727750107067
 30
0.0
 11
-38.28942673492179
 21
-40.62180284292193
 31
0.0
  0
MTEXT
  5
372C
330
371C
100
AcDbEntity
  8
标注
100
AcDbMText
 10
-38.18580634440491
 20
-33.15117678320348
 30
0.0
 40
5.0
 41
11.12317121027809
 71
     1
 72
     5
  1
2X45°
 73
     1
 44
1.0
1001
ACAD
1000
ACAD_MTEXT_DEFINED_HEIGHT_BEGIN
1070
    46
1040
0.0
1000
ACAD_MTEXT_DEFINED_HEIGHT_END
1000
MTEXTBEGIN
1070
    73
1070
     1
1070
    44
1040
1.0
1070
    74
1070
     0
1000
MTEXTEND
  0
LINE
  5
372D
330
371C
100
AcDbEntity
  8
中心线
 48
0.25
100
AcDbLine
 10
0.0
 20
-6.927214931242017
 30
0.0
 11
0.0
 21
32.94580801316704
 31
0.0
  0
LINE
  5
372E
102
{ACAD_REACTORS
330
3738
102
}
330
371C
100
AcDbEntity
  8
细实线
 48
0.25
100
AcDbLine
 10
-5.0
 20
0.0
 30
0.0
 11
-5.0
 21
28.0
 31
0.0
  0
LINE
  5
372F
330
371C
100
AcDbEntity
  8
0
 48
0.25
100
AcDbLine
 10
-3.5
 20
0.0
 30
0.0
 11
-3.5
 21
26.5
 31
0.0
  0
LINE
  5
3730
330
371C
100
AcDbEntity
  8
0
100
AcDbLine
 10
-7.0
 20
30.0
 30
0.0
 11
-3.5
 21
26.5
 31
0.0
  0
LINE
  5
3731
102
{ACAD_REACTORS
330
3738
102
}
330
371C
100
AcDbEntity
  8
细实线
 48
0.25
100
AcDbLine
 10
5.0
 20
0.0
 30
0.0
 11
5.0
 21
28.0
 31
0.0
  0
LINE
  5
3732
330
371C
100
AcDbEntity
  8
0
 48
0.25
100
AcDbLine
 10
3.5
 20
0.0
 30
0.0
 11
3.5
 21
26.5
 31
0.0
  0
LINE
  5
3733
330
371C
100
AcDbEntity
  8
0
100
AcDbLine
 10
7.0
 20
30.0
 30
0.0
 11
3.5
 21
26.5
 31
0.0
  0
LINE
  5
3734
330
371C
100
AcDbEntity
  8
0
100
AcDbLine
 10
-3.5
 20
26.5
 30
0.0
 11
3.5
 21
26.5
 31
0.0
  0
LINE
  5
3735
330
371C
100
AcDbEntity
  8
0
100
AcDbLine
 10
-5.0
 20
28.0
 30
0.0
 11
5.0
 21
28.0
 31
0.0
  0
DIMENSION
  5
3736
102
{ACAD_XDICTIONARY
360
3737
102
}
102
{ACAD_REACTORS
330
3738
102
}
330
371C
100
AcDbEntity
  8
标注
100
AcDbDimension
  2
*D7
 10
5.0
 20
45.04776839241593
 30
0.0
 11
18.54166666666674
 21
45.04776839241593
 31
0.0
 12
-1344.320303191581
 22
-167.2682766975535
 32
0.0
 70
   128
  1
2XM10
 71
     5
 42
10.0
  3
ISO-25
100
AcDbAlignedDimension
 13
-5.0
 23
28.0
 33
0.0
 14
5.0
 24
28.0
 34
0.0
100
AcDbRotatedDimension
  0
LINE
  5
3739
330
371C
100
AcDbEntity
  8
标注
100
AcDbLine
 10
-7.401615811105782
 20
30.37383298705072
 30
0.0
 11
-18.51173452979105
 21
40.80674944956611
 31
0.0
  0
LINE
  5
373A
330
371C
100
AcDbEntity
  8
标注
100
AcDbLine
 10
-18.30929956979685
 20
40.73727750107067
 30
0.0
 11
-38.28942673492179
 21
40.62180284292193
 31
0.0
  0
MTEXT
  5
373B
330
371C
100
AcDbEntity
  8
标注
100
AcDbMText
 10
-37.39149730336386
 20
44.04974370618357
 30
0.0
 40
5.0
 41
11.12317121027809
 71
     7
 72
     5
  1
2X45°
 73
     1
 44
1.0
1001
ACAD
1000
ACAD_MTEXT_DEFINED_HEIGHT_BEGIN
1070
    46
1040
0.0
1000
ACAD_MTEXT_DEFINED_HEIGHT_END
1000
MTEXTBEGIN
1070
    73
1070
     1
1070
    44
1040
1.0
1070
    74
1070
     0
1000
MTEXTEND
  0
SPLINE
  5
373C
330
371C
100
AcDbEntity
  8
细实线
100
AcDbSpline
210
0.0
220
0.0
230
1.0
 70
     8
 71
     3
 72
    11
 73
     7
 74
     0
 42
0.0000000001
 43
0.0000000001
 40
10.59960820569509
 40
10.59960820569509
 40
10.59960820569509
 40
10.59960820569509
 40
18.51763074196715
 40
33.24006135072404
 40
56.86019417349097
 40
71.13645869416153
 40
71.13645869416153
 40
71.13645869416153
 40
71.13645869416153
 10
12.30109569880096
 20
30.00000000000006
 30
0.0
 10
12.35825336366724
 20
27.3610437284843
 30
0.0
 10
12.12069074877809
 20
19.83574638567086
 30
0.0
 10
7.542388173796552
 20
4.667953600555023
 30
0.0
 10
14.01757935141495
 20
-12.78885711324946
 30
0.0
 10
12.33838562608298
 20
-25.29300916087482
 30
0.0
 10
11.37623144623126
 20
-30.00000000000006
 30
0.0
  0
SPLINE
  5
373D
330
371C
100
AcDbEntity
  8
细实线
100
AcDbSpline
210
0.0
220
0.0
230
1.0
 70
     8
 71
     3
 72
    11
 73
     7
 74
     0
 42
0.0000000001
 43
0.0000000001
 40
15.87387332718653
 40
15.87387332718653
 40
15.87387332718653
 40
15.87387332718653
 40
25.50996794471452
 40
34.95878151376738
 40
60.59025456547669
 40
79.83594103221278
 40
79.83594103221278
 40
79.83594103221278
 40
79.83594103221278
 10
-11.38608855052985
 20
30.0
 30
0.0
 10
-11.46332872241328
 20
26.83140717194362
 30
0.0
 10
-12.90089419641435
 20
20.92428910261643
 30
0.0
 10
-25.84893116951072
 20
9.831746180391716
 30
0.0
 10
-8.850325898588836
 20
-8.712460216521094
 30
0.0
 10
-9.633440342888434
 20
-23.63046680768639
 30
0.0
 10
-11.00829469408654
 20
-30.0
 30
0.0
  0
ENDBLK
  5
3741
330
371C
100
AcDbEntity
  8
0
100
AcDbBlockEnd
  0
BLOCK
  5
4597
330
4574
100
AcDbEntity
  8
0
100
AcDbBlockBegin
  2
A$C19B8122A
 70
     0
 10
0.0
 20
0.0
 30
0.0
  3
A$C19B8122A
  1

  0
LINE
  5
4575
330
4574
100
AcDbEntity
  8
中心线
 48
0.25
100
AcDbLine
 10
-320.0
 20
40.0
 30
0.0
 11
-280.0
 21
40.0
 31
0.0
  0
LINE
  5
4576
330
4574
100
AcDbEntity
  8
中心线
 48
0.25
100
AcDbLine
 10
-300.0
 20
60.0
 30
0.0
 11
-300.0
 21
20.0
 31
0.0
  0
LINE
  5
4577
330
4574
100
AcDbEntity
  8
中心线
 48
0.25
100
AcDbLine
 10
-320.0
 20
40.0
 30
0.0
 11
-280.0
 21
40.0
 31
0.0
  0
LINE
  5
4578
330
4574
100
AcDbEntity
  8
中心线
 48
0.25
100
AcDbLine
 10
-300.0
 20
60.0
 30
0.0
 11
-300.0
 21
20.0
 31
0.0
  0
CIRCLE
  5
4579
330
4574
100
AcDbEntity
  8
0
100
AcDbCircle
 10
-300.0
 20
40.0
 30
0.0
 40
6.0
  0
CIRCLE
  5
457A
330
4574
100
AcDbEntity
  8
0
100
AcDbCircle
 10
-300.0
 20
40.0
 30
0.0
 40
10.0
  0
LINE
  5
457B
330
4574
100
AcDbEntity
  8
中心线
 48
0.25
100
AcDbLine
 10
-320.0
 20
-40.0
 30
0.0
 11
-280.0
 21
-40.0
 31
0.0
  0
LINE
  5
457C
330
4574
100
AcDbEntity
  8
中心线
 48
0.25
100
AcDbLine
 10
-300.0
 20
-20.0
 30
0.0
 11
-300.0
 21
-60.0
 31
0.0
  0
LINE
  5
457D
330
4574
100
AcDbEntity
  8
中心线
 48
0.25
100
AcDbLine
 10
-320.0
 20
-40.0
 30
0.0
 11
-280.0
 21
-40.0
 31
0.0
  0
LINE
  5
457E
330
4574
100
AcDbEntity
  8
中心线
 48
0.25
100
AcDbLine
 10
-300.0
 20
-20.0
 30
0.0
 11
-300.0
 21
-60.0
 31
0.0
  0
CIRCLE
  5
457F
330
4574
100
AcDbEntity
  8
0
100
AcDbCircle
 10
-300.0
 20
-40.0
 30
0.0
 40
6.0
  0
CIRCLE
  5
4580
330
4574
100
AcDbEntity
  8
0
100
AcDbCircle
 10
-300.0
 20
-40.0
 30
0.0
 40
10.0
  0
LINE
  5
4581
330
4574
100
AcDbEntity
  8
中心线
 48
0.25
100
AcDbLine
 10
280.0
 20
40.0
 30
0.0
 11
320.0
 21
40.0
 31
0.0
  0
LINE
  5
4582
330
4574
100
AcDbEntity
  8
中心线
 48
0.25
100
AcDbLine
 10
300.0
 20
60.0
 30
0.0
 11
300.0
 21
20.0
 31
0.0
  0
LINE
  5
4583
330
4574
100
AcDbEntity
  8
中心线
 48
0.25
100
AcDbLine
 10
280.0
 20
40.0
 30
0.0
 11
320.0
 21
40.0
 31
0.0
  0
LINE
  5
4584
330
4574
100
AcDbEntity
  8
中心线
 48
0.25
100
AcDbLine
 10
300.0
 20
60.0
 30
0.0
 11
300.0
 21
20.0
 31
0.0
  0
CIRCLE
  5
4585
330
4574
100
AcDbEntity
  8
0
100
AcDbCircle
 10
300.0
 20
40.0
 30
0.0
 40
6.0
  0
CIRCLE
  5
4586
330
4574
100
AcDbEntity
  8
0
100
AcDbCircle
 10
300.0
 20
40.0
 30
0.0
 40
10.0
  0
LINE
  5
4587
330
4574
100
AcDbEntity
  8
中心线
 48
0.25
100
AcDbLine
 10
280.0
 20
-40.0
 30
0.0
 11
320.0
 21
-40.0
 31
0.0
  0
LINE
  5
4588
330
4574
100
AcDbEntity
  8
中心线
 48
0.25
100
AcDbLine
 10
300.0
 20
-20.0
 30
0.0
 11
300.0
 21
-60.0
 31
0.0
  0
LINE
  5
4589
330
4574
100
AcDbEntity
  8
中心线
 48
0.25
100
AcDbLine
 10
280.0
 20
-40.0
 30
0.0
 11
320.0
 21
-40.0
 31
0.0
  0
LINE
  5
458A
330
4574
100
AcDbEntity
  8
中心线
 48
0.25
100
AcDbLine
 10
300.0
 20
-20.0
 30
0.0
 11
300.0
 21
-60.0
 31
0.0
  0
CIRCLE
  5
458B
330
4574
100
AcDbEntity
  8
0
100
AcDbCircle
 10
300.0
 20
-40.0
 30
0.0
 40
6.0
  0
CIRCLE
  5
458C
330
4574
100
AcDbEntity
  8
0
100
AcDbCircle
 10
300.0
 20
-40.0
 30
0.0
 40
10.0
  0
LINE
  5
458D
330
4574
100
AcDbEntity
  8
中心线
 48
0.25
100
AcDbLine
 10
-120.0
 20
0.0
 30
0.0
 11
-80.0
 21
0.0
 31
0.0
  0
LINE
  5
458E
330
4574
100
AcDbEntity
  8
中心线
 48
0.25
100
AcDbLine
 10
-100.0
 20
20.0
 30
0.0
 11
-100.0
 21
-20.0
 31
0.0
  0
CIRCLE
  5
458F
330
4574
100
AcDbEntity
  8
0
100
AcDbCircle
 10
-100.0
 20
0.0
 30
0.0
 40
6.0
  0
CIRCLE
  5
4590
330
4574
100
AcDbEntity
  8
0
100
AcDbCircle
 10
-100.0
 20
0.0
 30
0.0
 40
10.0
  0
LINE
  5
4591
330
4574
100
AcDbEntity
  8
中心线
 48
0.25
100
AcDbLine
 10
80.0
 20
0.0
 30
0.0
 11
120.0
 21
0.0
 31
0.0
  0
LINE
  5
4592
330
4574
100
AcDbEntity
  8
中心线
 48
0.25
100
AcDbLine
 10
100.0
 20
20.0
 30
0.0
 11
100.0
 21
-20.0
 31
0.0
  0
CIRCLE
  5
4593
330
4574
100
AcDbEntity
  8
0
100
AcDbCircle
 10
100.0
 20
0.0
 30
0.0
 40
6.0
  0
CIRCLE
  5
4594
330
4574
100
AcDbEntity
  8
0
100
AcDbCircle
 10
100.0
 20
0.0
 30
0.0
 40
10.0
  0
ENDBLK
  5
4598
330
4574
100
AcDbEntity
  8
0
100
AcDbBlockEnd
  0
BLOCK
  5
A70A
330
A706
100
AcDbEntity
  8
0
100
AcDbBlockBegin
  2
A$C0B2A3428
 70
     0
 10
0.0
 20
0.0
 30
0.0
  3
A$C0B2A3428
  1

  0
CIRCLE
  5
A707
330
A706
100
AcDbEntity
  8
0
100
AcDbCircle
 10
0.0
 20
0.0
 30
0.0
 40
6.0
  0
ENDBLK
  5
A70B
330
A706
100
AcDbEntity
  8
0
100
AcDbBlockEnd
  0
BLOCK
  5
A780
330
A77A
100
AcDbEntity
  8
0
100
AcDbBlockBegin
  2
A$C2CDA6B33
 70
     0
 10
0.0
 20
0.0
 30
0.0
  3
A$C2CDA6B33
  1

  0
LINE
  5
A77B
330
A77A
100
AcDbEntity
  8
0
100
AcDbLine
 10
1037.9
 20
183.0000000000004
 30
0.0
 11
1037.899999999999
 21
403.0000000000002
 31
0.0
  0
LINE
  5
A77C
330
A77A
100
AcDbEntity
  8
0
100
AcDbLine
 10
562.1000000000021
 20
182.9999999999998
 30
0.0
 11
562.1000000000001
 21
402.9999999999998
 31
0.0
  0
LINE
  5
A77D
330
A77A
100
AcDbEntity
  8
0
100
AcDbLine
 10
703.9000000000022
 20
143.0000000000001
 30
0.0
 11
703.9000000000003
 21
443.0000000000001
 31
0.0
  0
ENDBLK
  5
A781
330
A77A
100
AcDbEntity
  8
0
100
AcDbBlockEnd
  0
BLOCK
  5
D8EA
330
D8E6
100
AcDbEntity
  8
0
100
AcDbBlockBegin
  2
_ClosedBlank
 70
     0
 10
0.0
 20
0.0
 30
0.0
  3
_ClosedBlank
  1

  0
LINE
  5
D8E7
330
D8E6
100
AcDbEntity
  8
0
  6
ByBlock
 62
     0
370
    -2
100
AcDbLine
 10
-1.0
 20
0.1666666666666666
 30
0.0
 11
0.0
 21
0.0
 31
0.0
  0
LINE
  5
D8E8
330
D8E6
100
AcDbEntity
  8
0
  6
ByBlock
 62
     0
370
    -2
100
AcDbLine
 10
0.0
 20
0.0
 30
0.0
 11
-1.0
 21
-0.1666666666666666
 31
0.0
  0
LINE
  5
D8E9
330
D8E6
100
AcDbEntity
  8
0
  6
ByBlock
 62
     0
370
    -2
100
AcDbLine
 10
-1.0
 20
0.1666666666666666
 30
0.0
 11
-1.0
 21
-0.1666666666666666
 31
0.0
  0
ENDBLK
  5
D8EB
330
D8E6
100
AcDbEntity
  8
0
100
AcDbBlockEnd
  0
BLOCK
  5
D8FA
330
D8F5
100
AcDbEntity
  8
0
100
AcDbBlockBegin
  2
_Closed
 70
     0
 10
0.0
 20
0.0
 30
0.0
  3
_Closed
  1

  0
LINE
  5
D8F6
330
D8F5
100
AcDbEntity
  8
0
  6
ByBlock
 62
     0
370
    -2
100
AcDbLine
 10
-1.0
 20
0.1666666666666666
 30
0.0
 11
0.0
 21
0.0
 31
0.0
  0
LINE
  5
D8F7
330
D8F5
100
AcDbEntity
  8
0
  6
ByBlock
 62
     0
370
    -2
100
AcDbLine
 10
0.0
 20
0.0
 30
0.0
 11
-1.0
 21
-0.1666666666666666
 31
0.0
  0
LINE
  5
D8F8
330
D8F5
100
AcDbEntity
  8
0
  6
ByBlock
 62
     0
370
    -2
100
AcDbLine
 10
-1.0
 20
0.1666666666666666
 30
0.0
 11
-1.0
 21
-0.1666666666666666
 31
0.0
  0
LINE
  5
D8F9
330
D8F5
100
AcDbEntity
  8
0
  6
ByBlock
 62
     0
370
    -2
100
AcDbLine
 10
0.0
 20
0.0
 30
0.0
 11
-1.0
 21
0.0
 31
0.0
  0
ENDBLK
  5
D8FB
330
D8F5
100
AcDbEntity
  8
0
100
AcDbBlockEnd
  0
BLOCK
  5
E100
330
E0FF
100
AcDbEntity
  8
0
100
AcDbBlockBegin
  2
*D14
 70
     1
 10
0.0
 20
0.0
 30
0.0
  3
*D14
  1

  0
LINE
  5
E101
330
E0FF
100
AcDbEntity
  8
0
 62
     6
370
    -2
100
AcDbLine
 10
4941.449224913821
 20
-204.8187080225334
 30
0.0
 11
5106.066064058508
 21
-204.8187080225335
 31
0.0
  0
LINE
  5
E102
330
E0FF
100
AcDbEntity
  8
0
 62
     6
370
    -2
100
AcDbLine
 10
4956.449224913821
 20
-636.8187080225339
 30
0.0
 11
5106.066064058508
 21
-636.8187080225339
 31
0.0
  0
LINE
  5
E103
330
E0FF
100
AcDbEntity
  8
0
 62
     6
370
    -2
100
AcDbLine
 10
5104.816064058508
 20
-219.8187080225335
 30
0.0
 11
5104.816064058508
 21
-621.8187080225337
 31
0.0
  0
SOLID
  5
E104
330
E0FF
100
AcDbEntity
  8
0
 62
     6
100
AcDbTrace
 10
5102.316064058508
 20
-219.8187080225335
 30
0.0
 11
5107.316064058508
 21
-219.8187080225335
 31
0.0
 12
5104.816064058508
 22
-204.8187080225335
 32
0.0
 13
5104.816064058508
 23
-204.8187080225335
 33
0.0
  0
SOLID
  5
E105
330
E0FF
100
AcDbEntity
  8
0
 62
     6
100
AcDbTrace
 10
5102.316064058508
 20
-621.8187080225337
 30
0.0
 11
5107.316064058508
 21
-621.8187080225337
 31
0.0
 12
5104.816064058508
 22
-636.8187080225339
 32
0.0
 13
5104.816064058508
 23
-636.8187080225339
 33
0.0
  0
MTEXT
  5
E106
330
E0FF
100
AcDbEntity
  8
0
 62
     0
100
AcDbMText
 10
5089.816064058508
 20
-420.8187080225328
 30
0.0
 40
20.0
 41
0.0
 71
     5
 72
     1
  1
432
 11
0.0000000000000001
 21
1.0
 31
0.0
 73
     1
 44
1.0
1001
ACAD
1000
MTEXTBEGIN
1070
    73
1070
     1
1070
    44
1040
1.0
1070
    74
1070
     0
1000
MTEXTEND
  0
POINT
  5
E107
330
E0FF
100
AcDbEntity
  8
Defpoints
 62
     0
100
AcDbPoint
 10
4940.824224913821
 20
-204.8187080225334
 30
0.0
  0
POINT
  5
E108
330
E0FF
100
AcDbEntity
  8
Defpoints
 62
     0
100
AcDbPoint
 10
4955.82422491382
 20
-636.8187080225339
 30
0.0
  0
POINT
  5
E109
330
E0FF
100
AcDbEntity
  8
Defpoints
 62
     0
100
AcDbPoint
 10
5104.816064058508
 20
-636.8187080225339
 30
0.0
  0
ENDBLK
  5
E10A
330
E0FF
100
AcDbEntity
  8
0
100
AcDbBlockEnd
  0
BLOCK
  5
E10C
330
E10B
100
AcDbEntity
  8
0
100
AcDbBlockBegin
  2
*D15
 70
     1
 10
0.0
 20
0.0
 30
0.0
  3
*D15
  1

  0
LINE
  5
E10D
330
E10B
100
AcDbEntity
  8
0
 62
     6
370
    -2
100
AcDbLine
 10
4857.44922491382
 20
-237.0013564304547
 30
0.0
 11
5070.709860951654
 21
-237.0013564304548
 31
0.0
  0
LINE
  5
E10E
330
E10B
100
AcDbEntity
  8
0
 62
     6
370
    -2
100
AcDbLine
 10
4857.44922491382
 20
-604.8187080225337
 30
0.0
 11
5070.709860951654
 21
-604.8187080225337
 31
0.0
  0
LINE
  5
E10F
330
E10B
100
AcDbEntity
  8
0
 62
     6
370
    -2
100
AcDbLine
 10
5069.459860951655
 20
-252.0013564304548
 30
0.0
 11
5069.459860951655
 21
-589.818708022534
 31
0.0
  0
SOLID
  5
E110
330
E10B
100
AcDbEntity
  8
0
 62
     6
100
AcDbTrace
 10
5066.959860951654
 20
-252.0013564304548
 30
0.0
 11
5071.959860951654
 21
-252.0013564304548
 31
0.0
 12
5069.459860951655
 22
-237.0013564304548
 32
0.0
 13
5069.459860951655
 23
-237.0013564304548
 33
0.0
  0
SOLID
  5
E111
330
E10B
100
AcDbEntity
  8
0
 62
     6
100
AcDbTrace
 10
5066.959860951654
 20
-589.818708022534
 30
0.0
 11
5071.959860951654
 21
-589.818708022534
 31
0.0
 12
5069.459860951655
 22
-604.8187080225337
 32
0.0
 13
5069.459860951655
 23
-604.8187080225337
 33
0.0
  0
MTEXT
  5
E112
330
E10B
100
AcDbEntity
  8
0
 62
     0
100
AcDbMText
 10
5054.459860951654
 20
-420.9100322264935
 30
0.0
 40
20.0
 41
0.0
 71
     5
 72
     1
  1
368
 11
0.0000000000000001
 21
1.0
 31
0.0
 73
     1
 44
1.0
1001
ACAD
1000
MTEXTBEGIN
1070
    73
1070
     1
1070
    44
1040
1.0
1070
    74
1070
     0
1000
MTEXTEND
  0
POINT
  5
E113
330
E10B
100
AcDbEntity
  8
Defpoints
 62
     0
100
AcDbPoint
 10
4856.82422491382
 20
-237.0013564304547
 30
0.0
  0
POINT
  5
E114
330
E10B
100
AcDbEntity
  8
Defpoints
 62
     0
100
AcDbPoint
 10
4856.82422491382
 20
-604.8187080225337
 30
0.0
  0
POINT
  5
E115
330
E10B
100
AcDbEntity
  8
Defpoints
 62
     0
100
AcDbPoint
 10
5069.459860951655
 20
-604.8187080225337
 30
0.0
  0
ENDBLK
  5
E116
330
E10B
100
AcDbEntity
  8
0
100
AcDbBlockEnd
  0
BLOCK
  5
E118
330
E117
100
AcDbEntity
  8
0
100
AcDbBlockBegin
  2
*D16
 70
     1
 10
0.0
 20
0.0
 30
0.0
  3
*D16
  1

  0
LINE
  5
E119
330
E117
100
AcDbEntity
  8
0
 62
     6
370
    -2
100
AcDbLine
 10
4474.19922491382
 20
-159.8187080225339
 30
0.0
 11
4183.080660347946
 21
-159.8187080225338
 31
0.0
  0
LINE
  5
E11A
330
E117
100
AcDbEntity
  8
0
 62
     6
370
    -2
100
AcDbLine
 10
4474.19922491382
 20
-604.8187080225337
 30
0.0
 11
4183.080660347946
 21
-604.8187080225337
 31
0.0
  0
LINE
  5
E11B
330
E117
100
AcDbEntity
  8
0
 62
     6
370
    -2
100
AcDbLine
 10
4184.330660347947
 20
-174.8187080225338
 30
0.0
 11
4184.330660347947
 21
-589.8187080225337
 31
0.0
  0
SOLID
  5
E11C
330
E117
100
AcDbEntity
  8
0
 62
     6
100
AcDbTrace
 10
4181.830660347947
 20
-174.8187080225338
 30
0.0
 11
4186.830660347946
 21
-174.8187080225338
 31
0.0
 12
4184.330660347947
 22
-159.8187080225338
 32
0.0
 13
4184.330660347947
 23
-159.8187080225338
 33
0.0
  0
SOLID
  5
E11D
330
E117
100
AcDbEntity
  8
0
 62
     6
100
AcDbTrace
 10
4181.830660347947
 20
-589.8187080225337
 30
0.0
 11
4186.830660347946
 21
-589.8187080225337
 31
0.0
 12
4184.330660347947
 22
-604.8187080225337
 32
0.0
 13
4184.330660347947
 23
-604.8187080225337
 33
0.0
  0
MTEXT
  5
E11E
330
E117
100
AcDbEntity
  8
0
 62
     0
100
AcDbMText
 10
4169.330660347947
 20
-382.3187080225331
 30
0.0
 40
20.0
 41
0.0
 71
     5
 72
     1
  1
445
 11
0.0000000000000001
 21
1.0
 31
0.0
 73
     1
 44
1.0
1001
ACAD
1000
MTEXTBEGIN
1070
    73
1070
     1
1070
    44
1040
1.0
1070
    74
1070
     0
1000
MTEXTEND
  0
POINT
  5
E11F
330
E117
100
AcDbEntity
  8
Defpoints
 62
     0
100
AcDbPoint
 10
4474.824224913819
 20
-159.8187080225339
 30
0.0
  0
POINT
  5
E120
330
E117
100
AcDbEntity
  8
Defpoints
 62
     0
100
AcDbPoint
 10
4474.824224913819
 20
-604.8187080225337
 30
0.0
  0
POINT
  5
E121
330
E117
100
AcDbEntity
  8
Defpoints
 62
     0
100
AcDbPoint
 10
4184.330660347947
 20
-604.8187080225337
 30
0.0
  0
ENDBLK
  5
E122
330
E117
100
AcDbEntity
  8
0
100
AcDbBlockEnd
  0
BLOCK
  5
E124
330
E123
100
AcDbEntity
  8
0
100
AcDbBlockBegin
  2
*D17
 70
     1
 10
0.0
 20
0.0
 30
0.0
  3
*D17
  1

  0
LINE
  5
E125
330
E123
100
AcDbEntity
  8
0
 62
     6
370
    -2
100
AcDbLine
 10
4462.96413546871
 20
-127.8187080225339
 30
0.0
 11
4153.145274513577
 21
-127.8187080225338
 31
0.0
  0
LINE
  5
E126
330
E123
100
AcDbEntity
  8
0
 62
     6
370
    -2
100
AcDbLine
 10
4462.96413546871
 20
-636.8187080225339
 30
0.0
 11
4153.145274513577
 21
-636.8187080225338
 31
0.0
  0
LINE
  5
E127
330
E123
100
AcDbEntity
  8
0
 62
     6
370
    -2
100
AcDbLine
 10
4154.395274513578
 20
-142.8187080225337
 30
0.0
 11
4154.395274513578
 21
-621.8187080225337
 31
0.0
  0
SOLID
  5
E128
330
E123
100
AcDbEntity
  8
0
 62
     6
100
AcDbTrace
 10
4151.895274513577
 20
-142.8187080225337
 30
0.0
 11
4156.895274513577
 21
-142.8187080225337
 31
0.0
 12
4154.395274513578
 22
-127.8187080225338
 32
0.0
 13
4154.395274513578
 23
-127.8187080225338
 33
0.0
  0
SOLID
  5
E129
330
E123
100
AcDbEntity
  8
0
 62
     6
100
AcDbTrace
 10
4151.895274513577
 20
-621.8187080225337
 30
0.0
 11
4156.895274513577
 21
-621.8187080225337
 31
0.0
 12
4154.395274513578
 22
-636.8187080225338
 32
0.0
 13
4154.395274513578
 23
-636.8187080225338
 33
0.0
  0
MTEXT
  5
E12A
330
E123
100
AcDbEntity
  8
0
 62
     0
100
AcDbMText
 10
4139.395274513577
 20
-382.3187080225331
 30
0.0
 40
20.0
 41
0.0
 71
     5
 72
     1
  1
509
 11
0.0000000000000001
 21
1.0
 31
0.0
 73
     1
 44
1.0
1001
ACAD
1000
MTEXTBEGIN
1070
    73
1070
     1
1070
    44
1040
1.0
1070
    74
1070
     0
1000
MTEXTEND
  0
POINT
  5
E12B
330
E123
100
AcDbEntity
  8
Defpoints
 62
     0
100
AcDbPoint
 10
4463.58913546871
 20
-127.8187080225339
 30
0.0
  0
POINT
  5
E12C
330
E123
100
AcDbEntity
  8
Defpoints
 62
     0
100
AcDbPoint
 10
4463.58913546871
 20
-636.8187080225339
 30
0.0
  0
POINT
  5
E12D
330
E123
100
AcDbEntity
  8
Defpoints
 62
     0
100
AcDbPoint
 10
4154.395274513578
 20
-636.8187080225338
 30
0.0
  0
ENDBLK
  5
E12E
330
E123
100
AcDbEntity
  8
0
100
AcDbBlockEnd
  0
BLOCK
  5
E130
330
E12F
100
AcDbEntity
  8
0
100
AcDbBlockBegin
  2
*D18
 70
     1
 10
0.0
 20
0.0
 30
0.0
  3
*D18
  1

  0
LINE
  5
E131
330
E12F
100
AcDbEntity
  8
0
 62
     6
370
    -2
100
AcDbLine
 10
4264.824224913819
 20
-520.4437080225337
 30
0.0
 11
4264.824224913819
 21
-683.8943209907568
 31
0.0
  0
LINE
  5
E132
330
E12F
100
AcDbEntity
  8
0
 62
     6
370
    -2
100
AcDbLine
 10
4684.82422491382
 20
-520.4437080225326
 30
0.0
 11
4684.82422491382
 21
-683.8943209907568
 31
0.0
  0
LINE
  5
E133
330
E12F
100
AcDbEntity
  8
0
 62
     6
370
    -2
100
AcDbLine
 10
4279.82422491382
 20
-682.6443209907568
 30
0.0
 11
4669.82422491382
 21
-682.6443209907568
 31
0.0
  0
SOLID
  5
E134
330
E12F
100
AcDbEntity
  8
0
 62
     6
100
AcDbTrace
 10
4279.82422491382
 20
-680.1443209907565
 30
0.0
 11
4279.82422491382
 21
-685.1443209907565
 31
0.0
 12
4264.824224913819
 22
-682.6443209907568
 32
0.0
 13
4264.824224913819
 23
-682.6443209907568
 33
0.0
  0
SOLID
  5
E135
330
E12F
100
AcDbEntity
  8
0
 62
     6
100
AcDbTrace
 10
4669.82422491382
 20
-680.1443209907565
 30
0.0
 11
4669.82422491382
 21
-685.1443209907565
 31
0.0
 12
4684.82422491382
 22
-682.6443209907568
 32
0.0
 13
4684.82422491382
 23
-682.6443209907568
 33
0.0
  0
MTEXT
  5
E136
330
E12F
100
AcDbEntity
  8
0
 62
     0
100
AcDbMText
 10
4474.824224913819
 20
-667.6443209907565
 30
0.0
 40
20.0
 41
0.0
 71
     5
 72
     1
  1
420
 73
     1
 44
1.0
1001
ACAD
1000
MTEXTBEGIN
1070
    73
1070
     1
1070
    44
1040
1.0
1070
    74
1070
     0
1000
MTEXTEND
  0
POINT
  5
E137
330
E12F
100
AcDbEntity
  8
Defpoints
 62
     0
100
AcDbPoint
 10
4264.824224913819
 20
-519.8187080225339
 30
0.0
  0
POINT
  5
E138
330
E12F
100
AcDbEntity
  8
Defpoints
 62
     0
100
AcDbPoint
 10
4684.82422491382
 20
-519.8187080225326
 30
0.0
  0
POINT
  5
E139
330
E12F
100
AcDbEntity
  8
Defpoints
 62
     0
100
AcDbPoint
 10
4684.82422491382
 20
-682.6443209907568
 30
0.0
  0
ENDBLK
  5
E13A
330
E12F
100
AcDbEntity
  8
0
100
AcDbBlockEnd
  0
BLOCK
  5
E13C
330
E13B
100
AcDbEntity
  8
0
100
AcDbBlockBegin
  2
*D19
 70
     1
 10
0.0
 20
0.0
 30
0.0
  3
*D19
  1

  0
LINE
  5
E13D
330
E13B
100
AcDbEntity
  8
0
 62
     6
370
    -2
100
AcDbLine
 10
4716.82422491382
 20
-520.4437080225337
 30
0.0
 11
4716.82422491382
 21
-683.8943209907565
 31
0.0
  0
LINE
  5
E13E
330
E13B
100
AcDbEntity
  8
0
 62
     6
370
    -2
100
AcDbLine
 10
4996.82422491382
 20
-520.4437080225337
 30
0.0
 11
4996.82422491382
 21
-683.8943209907565
 31
0.0
  0
LINE
  5
E13F
330
E13B
100
AcDbEntity
  8
0
 62
     6
370
    -2
100
AcDbLine
 10
4731.82422491382
 20
-682.6443209907566
 30
0.0
 11
4981.82422491382
 21
-682.6443209907566
 31
0.0
  0
SOLID
  5
E140
330
E13B
100
AcDbEntity
  8
0
 62
     6
100
AcDbTrace
 10
4731.82422491382
 20
-680.1443209907565
 30
0.0
 11
4731.82422491382
 21
-685.1443209907565
 31
0.0
 12
4716.82422491382
 22
-682.6443209907566
 32
0.0
 13
4716.82422491382
 23
-682.6443209907566
 33
0.0
  0
SOLID
  5
E141
330
E13B
100
AcDbEntity
  8
0
 62
     6
100
AcDbTrace
 10
4981.82422491382
 20
-680.1443209907565
 30
0.0
 11
4981.82422491382
 21
-685.1443209907565
 31
0.0
 12
4996.82422491382
 22
-682.6443209907566
 32
0.0
 13
4996.82422491382
 23
-682.6443209907566
 33
0.0
  0
MTEXT
  5
E142
330
E13B
100
AcDbEntity
  8
0
 62
     0
100
AcDbMText
 10
4856.82422491382
 20
-667.6443209907565
 30
0.0
 40
20.0
 41
0.0
 71
     5
 72
     1
  1
280
 73
     1
 44
1.0
1001
ACAD
1000
MTEXTBEGIN
1070
    73
1070
     1
1070
    44
1040
1.0
1070
    74
1070
     0
1000
MTEXTEND
  0
POINT
  5
E143
330
E13B
100
AcDbEntity
  8
Defpoints
 62
     0
100
AcDbPoint
 10
4716.82422491382
 20
-519.8187080225339
 30
0.0
  0
POINT
  5
E144
330
E13B
100
AcDbEntity
  8
Defpoints
 62
     0
100
AcDbPoint
 10
4996.82422491382
 20
-519.8187080225339
 30
0.0
  0
POINT
  5
E145
330
E13B
100
AcDbEntity
  8
Defpoints
 62
     0
100
AcDbPoint
 10
4996.82422491382
 20
-682.6443209907566
 30
0.0
  0
ENDBLK
  5
E146
330
E13B
100
AcDbEntity
  8
0
100
AcDbBlockEnd
  0
BLOCK
  5
E148
330
E147
100
AcDbEntity
  8
0
100
AcDbBlockBegin
  2
*D20
 70
     1
 10
0.0
 20
0.0
 30
0.0
  3
*D20
  1

  0
LINE
  5
E149
330
E147
100
AcDbEntity
  8
0
 62
     6
370
    -2
100
AcDbLine
 10
4230.82422491382
 20
-521.0687080225337
 30
0.0
 11
4230.82422491382
 21
-726.3591867128089
 31
0.0
  0
LINE
  5
E14A
330
E147
100
AcDbEntity
  8
0
 62
     6
370
    -2
100
AcDbLine
 10
5030.82422491382
 20
90.80579388111322
 30
0.0
 11
5030.82422491382
 21
-726.3591867128089
 31
0.0
  0
LINE
  5
E14B
330
E147
100
AcDbEntity
  8
0
 62
     6
370
    -2
100
AcDbLine
 10
4245.82422491382
 20
-725.1091867128089
 30
0.0
 11
5015.824224913821
 21
-725.1091867128089
 31
0.0
  0
SOLID
  5
E14C
330
E147
100
AcDbEntity
  8
0
 62
     6
100
AcDbTrace
 10
4245.82422491382
 20
-722.6091867128086
 30
0.0
 11
4245.82422491382
 21
-727.6091867128086
 31
0.0
 12
4230.82422491382
 22
-725.1091867128089
 32
0.0
 13
4230.82422491382
 23
-725.1091867128089
 33
0.0
  0
SOLID
  5
E14D
330
E147
100
AcDbEntity
  8
0
 62
     6
100
AcDbTrace
 10
5015.824224913821
 20
-722.6091867128086
 30
0.0
 11
5015.824224913821
 21
-727.6091867128086
 31
0.0
 12
5030.82422491382
 22
-725.1091867128089
 32
0.0
 13
5030.82422491382
 23
-725.1091867128089
 33
0.0
  0
MTEXT
  5
E14E
330
E147
100
AcDbEntity
  8
0
 62
     0
100
AcDbMText
 10
4630.82422491382
 20
-710.1091867128086
 30
0.0
 40
20.0
 41
0.0
 71
     5
 72
     1
  1
800
 73
     1
 44
1.0
1001
ACAD
1000
MTEXTBEGIN
1070
    73
1070
     1
1070
    44
1040
1.0
1070
    74
1070
     0
1000
MTEXTEND
  0
POINT
  5
E14F
330
E147
100
AcDbEntity
  8
Defpoints
 62
     0
100
AcDbPoint
 10
4230.82422491382
 20
-520.4437080225337
 30
0.0
  0
POINT
  5
E150
330
E147
100
AcDbEntity
  8
Defpoints
 62
     0
100
AcDbPoint
 10
5030.82422491382
 20
91.43079388111322
 30
0.0
  0
POINT
  5
E151
330
E147
100
AcDbEntity
  8
Defpoints
 62
     0
100
AcDbPoint
 10
5030.82422491382
 20
-725.1091867128089
 30
0.0
  0
ENDBLK
  5
E152
330
E147
100
AcDbEntity
  8
0
100
AcDbBlockEnd
  0
BLOCK
  5
E154
330
E153
100
AcDbEntity
  8
0
100
AcDbBlockBegin
  2
*D21
 70
     1
 10
0.0
 20
0.0
 30
0.0
  3
*D21
  1

  0
LINE
  5
E155
330
E153
100
AcDbEntity
  8
0
 62
     6
370
    -2
100
AcDbLine
 10
4264.824224913819
 20
-520.4437080225337
 30
0.0
 11
4264.824224913819
 21
-683.8943209907568
 31
0.0
  0
LINE
  5
E156
330
E153
100
AcDbEntity
  8
0
 62
     6
370
    -2
100
AcDbLine
 10
4230.82422491382
 20
-520.4437080225337
 30
0.0
 11
4230.82422491382
 21
-683.8943209907568
 31
0.0
  0
LINE
  5
E157
330
E153
100
AcDbEntity
  8
0
 62
     6
370
    -2
100
AcDbLine
 10
4279.82422491382
 20
-682.6443209907568
 30
0.0
 11
4294.82422491382
 21
-682.6443209907568
 31
0.0
  0
LINE
  5
E158
330
E153
100
AcDbEntity
  8
0
 62
     6
370
    -2
100
AcDbLine
 10
4215.82422491382
 20
-682.6443209907568
 30
0.0
 11
4157.490891580487
 21
-682.6443209907568
 31
0.0
  0
LINE
  5
E159
330
E153
100
AcDbEntity
  8
0
 62
     6
370
    -2
100
AcDbLine
 10
4264.824224913819
 20
-682.6443209907568
 30
0.0
 11
4230.82422491382
 21
-682.6443209907568
 31
0.0
  0
SOLID
  5
E15A
330
E153
100
AcDbEntity
  8
0
 62
     6
100
AcDbTrace
 10
4279.82422491382
 20
-680.1443209907567
 30
0.0
 11
4279.82422491382
 21
-685.1443209907568
 31
0.0
 12
4264.824224913819
 22
-682.6443209907568
 32
0.0
 13
4264.824224913819
 23
-682.6443209907568
 33
0.0
  0
SOLID
  5
E15B
330
E153
100
AcDbEntity
  8
0
 62
     6
100
AcDbTrace
 10
4215.82422491382
 20
-680.1443209907567
 30
0.0
 11
4215.82422491382
 21
-685.1443209907568
 31
0.0
 12
4230.82422491382
 22
-682.6443209907568
 32
0.0
 13
4230.82422491382
 23
-682.6443209907568
 33
0.0
  0
MTEXT
  5
E15C
330
E153
100
AcDbEntity
  8
0
 62
     0
100
AcDbMText
 10
4179.157558247152
 20
-667.6443209907567
 30
0.0
 40
20.0
 41
0.0
 71
     5
 72
     1
  1
34
 73
     1
 44
1.0
1001
ACAD
1000
MTEXTBEGIN
1070
    73
1070
     1
1070
    44
1040
1.0
1070
    74
1070
     0
1000
MTEXTEND
  0
POINT
  5
E15D
330
E153
100
AcDbEntity
  8
Defpoints
 62
     0
100
AcDbPoint
 10
4264.824224913819
 20
-519.8187080225337
 30
0.0
  0
POINT
  5
E15E
330
E153
100
AcDbEntity
  8
Defpoints
 62
     0
100
AcDbPoint
 10
4230.82422491382
 20
-519.8187080225337
 30
0.0
  0
POINT
  5
E15F
330
E153
100
AcDbEntity
  8
Defpoints
 62
     0
100
AcDbPoint
 10
4230.82422491382
 20
-682.6443209907568
 30
0.0
  0
ENDBLK
  5
E160
330
E153
100
AcDbEntity
  8
0
100
AcDbBlockEnd
  0
BLOCK
  5
E162
330
E161
100
AcDbEntity
  8
0
100
AcDbBlockBegin
  2
*D22
 70
     1
 10
0.0
 20
0.0
 30
0.0
  3
*D22
  1

  0
LINE
  5
E163
330
E161
100
AcDbEntity
  8
0
 62
     6
370
    -2
100
AcDbLine
 10
4684.82422491382
 20
-519.1937080225337
 30
0.0
 11
4684.82422491382
 21
-488.4879087027729
 31
0.0
  0
LINE
  5
E164
330
E161
100
AcDbEntity
  8
0
 62
     6
370
    -2
100
AcDbLine
 10
4716.82422491382
 20
-519.8187080225339
 30
0.0
 11
4716.82422491382
 21
-488.4879087027729
 31
0.0
  0
LINE
  5
E165
330
E161
100
AcDbEntity
  8
0
 62
     6
370
    -2
100
AcDbLine
 10
4731.82422491382
 20
-489.7379087027728
 30
0.0
 11
4746.82422491382
 21
-489.7379087027728
 31
0.0
  0
LINE
  5
E166
330
E161
100
AcDbEntity
  8
0
 62
     6
370
    -2
100
AcDbLine
 10
4669.82422491382
 20
-489.7379087027728
 30
0.0
 11
4600.436667836197
 21
-489.7379087027728
 31
0.0
  0
LINE
  5
E167
330
E161
100
AcDbEntity
  8
0
 62
     6
370
    -2
100
AcDbLine
 10
4716.82422491382
 20
-489.7379087027728
 30
0.0
 11
4684.82422491382
 21
-489.7379087027728
 31
0.0
  0
SOLID
  5
E168
330
E161
100
AcDbEntity
  8
0
 62
     6
100
AcDbTrace
 10
4731.82422491382
 20
-487.237908702773
 30
0.0
 11
4731.82422491382
 21
-492.237908702773
 31
0.0
 12
4716.82422491382
 22
-489.7379087027728
 32
0.0
 13
4716.82422491382
 23
-489.7379087027728
 33
0.0
  0
SOLID
  5
E169
330
E161
100
AcDbEntity
  8
0
 62
     6
100
AcDbTrace
 10
4669.82422491382
 20
-487.237908702773
 30
0.0
 11
4669.82422491382
 21
-492.237908702773
 31
0.0
 12
4684.82422491382
 22
-489.7379087027728
 32
0.0
 13
4684.82422491382
 23
-489.7379087027728
 33
0.0
  0
MTEXT
  5
E16A
330
E161
100
AcDbEntity
  8
0
 62
     0
100
AcDbMText
 10
4622.103334502861
 20
-474.737908702773
 30
0.0
 40
20.0
 41
0.0
 71
     5
 72
     1
  1
32
 73
     1
 44
1.0
1001
ACAD
1000
MTEXTBEGIN
1070
    73
1070
     1
1070
    44
1040
1.0
1070
    74
1070
     0
1000
MTEXTEND
  0
POINT
  5
E16B
330
E161
100
AcDbEntity
  8
Defpoints
 62
     0
100
AcDbPoint
 10
4684.82422491382
 20
-519.8187080225339
 30
0.0
  0
POINT
  5
E16C
330
E161
100
AcDbEntity
  8
Defpoints
 62
     0
100
AcDbPoint
 10
4716.82422491382
 20
-520.4437080225337
 30
0.0
  0
POINT
  5
E16D
330
E161
100
AcDbEntity
  8
Defpoints
 62
     0
100
AcDbPoint
 10
4716.82422491382
 20
-489.7379087027728
 30
0.0
  0
ENDBLK
  5
E16E
330
E161
100
AcDbEntity
  8
0
100
AcDbBlockEnd
  0
BLOCK
  5
E170
330
E16F
100
AcDbEntity
  8
0
100
AcDbBlockBegin
  2
*D23
 70
     1
 10
0.0
 20
0.0
 30
0.0
  3
*D23
  1

  0
LINE
  5
E171
330
E16F
100
AcDbEntity
  8
0
 62
     6
370
    -2
100
AcDbLine
 10
4315.294946880029
 20
0.1245404907560898
 30
0.0
 11
4220.280530910512
 21
0.1245404907561167
 31
0.0
  0
LINE
  5
E172
330
E16F
100
AcDbEntity
  8
0
 62
     6
370
    -2
100
AcDbLine
 10
4230.199224913817
 20
228.72230653309
 30
0.0
 11
4220.280530910512
 21
228.72230653309
 31
0.0
  0
LINE
  5
E173
330
E16F
100
AcDbEntity
  8
0
 62
     6
370
    -2
100
AcDbLine
 10
4221.530530910512
 20
15.12454049075611
 30
0.0
 11
4221.530530910512
 21
213.72230653309
 31
0.0
  0
SOLID
  5
E174
330
E16F
100
AcDbEntity
  8
0
 62
     6
100
AcDbTrace
 10
4219.030530910512
 20
15.12454049075612
 30
0.0
 11
4224.030530910512
 21
15.12454049075611
 31
0.0
 12
4221.530530910512
 22
0.1245404907561164
 32
0.0
 13
4221.530530910512
 23
0.1245404907561164
 33
0.0
  0
SOLID
  5
E175
330
E16F
100
AcDbEntity
  8
0
 62
     6
100
AcDbTrace
 10
4219.030530910512
 20
213.72230653309
 30
0.0
 11
4224.030530910512
 21
213.72230653309
 31
0.0
 12
4221.530530910512
 22
228.72230653309
 32
0.0
 13
4221.530530910512
 23
228.72230653309
 33
0.0
  0
MTEXT
  5
E176
330
E16F
100
AcDbEntity
  8
0
 62
     0
100
AcDbMText
 10
4206.530530910512
 20
114.4234235119237
 30
0.0
 40
20.0
 41
0.0
 71
     5
 72
     1
  1
229
 11
0.0000000000000001
 21
1.0
 31
0.0
 73
     1
 44
1.0
1001
ACAD
1000
MTEXTBEGIN
1070
    73
1070
     1
1070
    44
1040
1.0
1070
    74
1070
     0
1000
MTEXTEND
  0
POINT
  5
E177
330
E16F
100
AcDbEntity
  8
Defpoints
 62
     0
100
AcDbPoint
 10
4315.919946880028
 20
0.1245404907560896
 30
0.0
  0
POINT
  5
E178
330
E16F
100
AcDbEntity
  8
Defpoints
 62
     0
100
AcDbPoint
 10
4230.824224913816
 20
228.72230653309
 30
0.0
  0
POINT
  5
E179
330
E16F
100
AcDbEntity
  8
Defpoints
 62
     0
100
AcDbPoint
 10
4221.530530910512
 20
228.72230653309
 30
0.0
  0
ENDBLK
  5
E17A
330
E16F
100
AcDbEntity
  8
0
100
AcDbBlockEnd
  0
BLOCK
  5
E17C
330
E17B
100
AcDbEntity
  8
0
100
AcDbBlockBegin
  2
*D24
 70
     1
 10
0.0
 20
0.0
 30
0.0
  3
*D24
  1

  0
LINE
  5
E17D
330
E17B
100
AcDbEntity
  8
0
 62
     6
370
    -2
100
AcDbLine
 10
5031.449224913821
 20
228.7223065330954
 30
0.0
 11
5073.873001857977
 21
228.7223065330954
 31
0.0
  0
LINE
  5
E17E
330
E17B
100
AcDbEntity
  8
0
 62
     6
370
    -2
100
AcDbLine
 10
4945.879292951999
 20
25.52073657028279
 30
0.0
 11
5073.873001857977
 21
25.52073657028276
 31
0.0
  0
LINE
  5
E17F
330
E17B
100
AcDbEntity
  8
0
 62
     6
370
    -2
100
AcDbLine
 10
5072.623001857976
 20
213.7223065330954
 30
0.0
 11
5072.623001857976
 21
40.52073657028276
 31
0.0
  0
SOLID
  5
E180
330
E17B
100
AcDbEntity
  8
0
 62
     6
100
AcDbTrace
 10
5070.123001857977
 20
213.7223065330954
 30
0.0
 11
5075.123001857978
 21
213.7223065330954
 31
0.0
 12
5072.623001857976
 22
228.7223065330954
 32
0.0
 13
5072.623001857976
 23
228.7223065330954
 33
0.0
  0
SOLID
  5
E181
330
E17B
100
AcDbEntity
  8
0
 62
     6
100
AcDbTrace
 10
5070.123001857977
 20
40.52073657028276
 30
0.0
 11
5075.123001857978
 21
40.52073657028276
 31
0.0
 12
5072.623001857976
 22
25.52073657028276
 32
0.0
 13
5072.623001857976
 23
25.52073657028276
 33
0.0
  0
MTEXT
  5
E182
330
E17B
100
AcDbEntity
  8
0
 62
     0
100
AcDbMText
 10
5057.623001857977
 20
127.1215215516899
 30
0.0
 40
20.0
 41
0.0
 71
     5
 72
     1
  1
203
 11
0.0000000000000001
 21
1.0
 31
0.0
 73
     1
 44
1.0
1001
ACAD
1000
MTEXTBEGIN
1070
    73
1070
     1
1070
    44
1040
1.0
1070
    74
1070
     0
1000
MTEXTEND
  0
POINT
  5
E183
330
E17B
100
AcDbEntity
  8
Defpoints
 62
     0
100
AcDbPoint
 10
5030.82422491382
 20
228.7223065330954
 30
0.0
  0
POINT
  5
E184
330
E17B
100
AcDbEntity
  8
Defpoints
 62
     0
100
AcDbPoint
 10
4945.254292951998
 20
25.52073657028279
 30
0.0
  0
POINT
  5
E185
330
E17B
100
AcDbEntity
  8
Defpoints
 62
     0
100
AcDbPoint
 10
5072.623001857976
 20
25.52073657028276
 30
0.0
  0
ENDBLK
  5
E186
330
E17B
100
AcDbEntity
  8
0
100
AcDbBlockEnd
  0
BLOCK
  5
E1E0
330
E187
100
AcDbEntity
  8
0
100
AcDbBlockBegin
  2
A$C105E5E57
 70
     0
 10
0.0
 20
0.0
 30
0.0
  3
A$C105E5E57
  1

  0
LINE
  5
E188
330
E187
100
AcDbEntity
  8
0
100
AcDbLine
 10
587.4289628776457
 20
956.3314979231373
 30
0.0
 11
867.428962877646
 21
956.3314979231373
 31
0.0
  0
LINE
  5
E189
330
E187
100
AcDbEntity
  8
0
100
AcDbLine
 10
135.4289628776459
 20
956.3314979231316
 30
0.0
 11
555.428962877646
 21
956.3314979231373
 31
0.0
  0
LINE
  5
E18A
330
E187
100
AcDbEntity
  8
0
100
AcDbLine
 10
672.8597574230007
 20
753.4028210103038
 30
0.0
 11
781.9981683322912
 21
753.4028210103038
 31
0.0
  0
LINE
  5
E18B
330
E187
100
AcDbEntity
  8
0
100
AcDbLine
 10
666.4289628776457
 20
758.193731880794
 30
0.0
 11
788.428962877646
 21
758.193731880794
 31
0.0
  0
LINE
  5
E18C
330
E187
100
AcDbEntity
  8
0
100
AcDbLine
 10
290.8597574230007
 20
720.4028210102983
 30
0.0
 11
399.9981683322876
 21
720.4028210102983
 31
0.0
  0
LINE
  5
E18D
330
E187
100
AcDbEntity
  8
0
100
AcDbLine
 10
284.428962877646
 20
725.1937318807886
 30
0.0
 11
406.4289628776458
 21
725.1937318807886
 31
0.0
  0
ARC
  5
E18E
330
E187
100
AcDbEntity
  8
0
370
    70
100
AcDbCircle
 10
345.428962877646
 20
1723.331497923132
 30
0.0
 40
1000.0
100
AcDbArc
 50
273.4972136965088
 51
279.1610147865932
  0
ARC
  5
E18F
330
E187
100
AcDbEntity
  8
0
370
    70
100
AcDbCircle
 10
727.4289628776458
 20
1756.331497923138
 30
0.0
 40
1000.0
100
AcDbArc
 50
273.4972136965088
 51
275.0732964820862
  0
LINE
  5
E190
330
E187
100
AcDbEntity
  8
0
370
    70
100
AcDbLine
 10
666.4289628776457
 20
758.1937318807937
 30
0.0
 11
667.8597574230007
 21
753.4028210103038
 31
0.0
  0
LINE
  5
E191
330
E187
100
AcDbEntity
  8
0
370
    70
100
AcDbLine
 10
667.8597574230007
 20
753.4028210103038
 30
0.0
 11
672.8597574230007
 21
753.4028210103038
 31
0.0
  0
LINE
  5
E192
330
E187
100
AcDbEntity
  8
0
370
    70
100
AcDbLine
 10
786.9981683322913
 20
753.4028210103038
 30
0.0
 11
781.9981683322912
 21
753.4028210103038
 31
0.0
  0
LINE
  5
E193
330
E187
100
AcDbEntity
  8
0
370
    70
100
AcDbLine
 10
788.428962877646
 20
758.1937318807937
 30
0.0
 11
786.9981683322913
 21
753.4028210103038
 31
0.0
  0
LINE
  5
E194
330
E187
100
AcDbEntity
  8
0
370
    70
100
AcDbLine
 10
406.4289628776458
 20
725.1937318807883
 30
0.0
 11
404.9981683322876
 21
720.4028210102983
 31
0.0
  0
LINE
  5
E195
330
E187
100
AcDbEntity
  8
0
370
    70
100
AcDbLine
 10
404.9981683322876
 20
720.4028210102983
 30
0.0
 11
399.9981683322876
 21
720.4028210102983
 31
0.0
  0
LINE
  5
E196
330
E187
100
AcDbEntity
  8
0
370
    70
100
AcDbLine
 10
285.8597574230007
 20
720.4028210102983
 30
0.0
 11
290.8597574230007
 21
720.4028210102983
 31
0.0
  0
LINE
  5
E197
330
E187
100
AcDbEntity
  8
0
370
    70
100
AcDbLine
 10
284.428962877646
 20
725.1937318807883
 30
0.0
 11
285.8597574230007
 21
720.4028210102983
 31
0.0
  0
ARC
  5
E198
330
E187
100
AcDbEntity
  8
0
370
    70
100
AcDbCircle
 10
811.4375275137062
 20
810.0532296173563
 30
0.0
 40
50.0
100
AcDbArc
 50
275.0732964820862
 51
357.3085620491704
  0
ARC
  5
E199
330
E187
100
AcDbEntity
  8
0
370
    70
100
AcDbCircle
 10
643.4203982415782
 20
810.0532296173563
 30
0.0
 40
50.0
100
AcDbArc
 50
182.6914379508296
 51
264.9267035179139
  0
ARC
  5
E19A
330
E187
100
AcDbEntity
  8
0
370
    70
100
AcDbCircle
 10
727.4289628776458
 20
1756.331497923138
 30
0.0
 40
1000.0
100
AcDbArc
 50
264.9267035179139
 51
266.5027863032827
  0
ARC
  5
E19B
330
E187
100
AcDbEntity
  8
0
370
    70
100
AcDbCircle
 10
345.428962877646
 20
1723.331497923132
 30
0.0
 40
1000.0
100
AcDbArc
 50
260.8389852134068
 51
266.5027863032827
  0
LINE
  5
E19C
330
E187
100
AcDbEntity
  8
0
370
    70
100
AcDbLine
 10
867.428962877646
 20
936.3314979231315
 30
0.0
 11
861.3823726740049
 21
807.7053706109543
 31
0.0
  0
LINE
  5
E19D
330
E187
100
AcDbEntity
  8
0
370
    70
100
AcDbLine
 10
555.428962877646
 20
936.3314979231315
 30
0.0
 11
546.5956566333113
 21
782.5810340471828
 31
0.0
  0
LINE
  5
E19E
102
{ACAD_REACTORS
330
E1DB
102
}
330
E187
100
AcDbEntity
  8
0
370
    70
100
AcDbLine
 10
867.428962877646
 20
956.3314979231373
 30
0.0
 11
901.428962877646
 21
956.3314979231373
 31
0.0
  0
LINE
  5
E19F
330
E187
100
AcDbEntity
  8
0
370
    70
100
AcDbLine
 10
867.428962877646
 20
936.3314979231315
 30
0.0
 11
867.428962877646
 21
956.3314979231373
 31
0.0
  0
LINE
  5
E1A0
330
E187
100
AcDbEntity
  8
0
370
    70
100
AcDbLine
 10
587.4289628776457
 20
936.3314979231315
 30
0.0
 11
593.4755530812833
 21
807.7053706109543
 31
0.0
  0
LINE
  5
E1A1
330
E187
100
AcDbEntity
  8
0
370
    70
100
AcDbLine
 10
587.4289628776457
 20
956.3314979231373
 30
0.0
 11
587.4289628776457
 21
936.3314979231315
 31
0.0
  0
LINE
  5
E1A2
330
E187
100
AcDbEntity
  8
0
370
    70
100
AcDbLine
 10
555.428962877646
 20
956.3314979231373
 30
0.0
 11
587.4289628776457
 21
956.3314979231373
 31
0.0
  0
LINE
  5
E1A3
330
E187
100
AcDbEntity
  8
0
370
    70
100
AcDbLine
 10
555.428962877646
 20
936.3314979231315
 30
0.0
 11
555.428962877646
 21
956.3314979231373
 31
0.0
  0
LINE
  5
E1A4
330
E187
100
AcDbEntity
  8
0
370
    70
100
AcDbLine
 10
135.4289628776459
 20
936.3314979231315
 30
0.0
 11
144.2622691219767
 21
782.5810340471828
 31
0.0
  0
LINE
  5
E1A5
330
E187
100
AcDbEntity
  8
0
370
    70
100
AcDbLine
 10
135.4289628776459
 20
956.3314979231316
 30
0.0
 11
135.4289628776459
 21
936.3314979231315
 31
0.0
  0
LINE
  5
E1A6
102
{ACAD_REACTORS
330
E1D8
102
}
330
E187
100
AcDbEntity
  8
0
370
    70
100
AcDbLine
 10
101.4289628776423
 20
956.3314979231316
 30
0.0
 11
135.4289628776459
 21
956.3314979231316
 31
0.0
  0
CIRCLE
  5
E1A7
330
E187
100
AcDbEntity
  8
0
100
AcDbCircle
 10
727.4289628776458
 20
355.7904833675079
 30
0.0
 40
45.0
  0
CIRCLE
  5
E1A8
330
E187
100
AcDbEntity
  8
0
100
AcDbCircle
 10
727.4289628776458
 20
355.7904833675079
 30
0.0
 40
57.0
  0
CIRCLE
  5
E1A9
330
E187
100
AcDbEntity
  8
0
100
AcDbCircle
 10
727.4289628776458
 20
355.7904833675079
 30
0.0
 40
61.0
  0
CIRCLE
  5
E1AA
330
E187
100
AcDbEntity
  8
0
100
AcDbCircle
 10
345.428962877646
 20
432.7904833675077
 30
0.0
 40
61.0
  0
CIRCLE
  5
E1AB
330
E187
100
AcDbEntity
  8
0
100
AcDbCircle
 10
345.428962877646
 20
432.7904833675077
 30
0.0
 40
57.5
  0
CIRCLE
  5
E1AC
330
E187
100
AcDbEntity
  8
0
100
AcDbCircle
 10
345.428962877646
 20
432.7904833675077
 30
0.0
 40
45.0
  0
LINE
  5
E1AD
330
E187
100
AcDbEntity
  8
0
100
AcDbLine
 10
811.4289628776457
 20
522.7904833675084
 30
0.0
 11
901.428962877646
 21
434.7904833675084
 31
0.0
  0
LINE
  5
E1AE
330
E187
100
AcDbEntity
  8
0
100
AcDbLine
 10
216.4289628776423
 20
599.7904833675078
 30
0.0
 11
101.4289628776423
 21
486.7904833675082
 31
0.0
  0
LINE
  5
E1AF
330
E187
100
AcDbEntity
  8
0
100
AcDbLine
 10
901.428962877646
 20
163.7904833675079
 30
0.0
 11
826.428962877646
 21
90.79048336750792
 31
0.0
  0
LINE
  5
E1B0
330
E187
100
AcDbEntity
  8
0
100
AcDbLine
 10
101.428962877646
 20
163.7904833675079
 30
0.0
 11
176.428962877646
 21
90.79048336750792
 31
0.0
  0
LINE
  5
E1B1
330
E187
100
AcDbEntity
  8
0
100
AcDbLine
 10
451.9587839874293
 20
599.7904833675078
 30
0.0
 11
561.8305810213386
 21
522.7904833675084
 31
0.0
  0
LINE
  5
E1B2
102
{ACAD_REACTORS
330
E1C6
102
}
330
E187
100
AcDbEntity
  8
0
100
AcDbLine
 10
216.4289628776423
 20
599.7904833675078
 30
0.0
 11
451.9587839874293
 21
599.7904833675078
 31
0.0
  0
LINE
  5
E1B3
102
{ACAD_REACTORS
330
E1BD
102
}
330
E187
100
AcDbEntity
  8
0
100
AcDbLine
 10
811.4289628776457
 20
522.7904833675084
 30
0.0
 11
561.8305810213386
 21
522.7904833675084
 31
0.0
  0
LINE
  5
E1B4
102
{ACAD_REACTORS
330
E1CF
102
}
330
E187
100
AcDbEntity
  8
0
100
AcDbLine
 10
901.428962877646
 20
163.7904833675079
 30
0.0
 11
901.428962877646
 21
434.7904833675084
 31
0.0
  0
LINE
  5
E1B5
102
{ACAD_REACTORS
330
E1BD
330
E1C6
102
}
330
E187
100
AcDbEntity
  8
0
100
AcDbLine
 10
176.428962877646
 20
90.79048336750792
 30
0.0
 11
826.428962877646
 21
90.79048336750792
 31
0.0
  0
LINE
  5
E1B6
330
E187
100
AcDbEntity
  8
0
100
AcDbLine
 10
101.4289628776423
 20
486.7904833675082
 30
0.0
 11
101.428962877646
 21
163.7904833675079
 31
0.0
  0
REGION
  5
E1B7
102
{ACAD_REACTORS
330
E1C0
330
E1CC
102
}
330
E187
100
AcDbEntity
  8
0
100
AcDbModelerGeometry
 70
     1
  1
koo ki n o          
  1
ni ^ *+0;:,4 ^ *+0\^ [ nh ^ LR iqoqjqhook QK mk K7* R>- mi njejheni moof 
  1
n fqfffffffffffffffj:rooh n:rono 
  1
=0;& {rn {n {rn {rn |
  1
3*2/ {rn {rn {m {o |
  1
,7:33 {rn {rn {rn {l {rn {n |
  1
9><: {rn {rn {k {m {rn {j 90-(>-; ;0*=3: 0*+ |
  1
300/ {rn {rn {i {l |
  1
/3>1:r,*-9><: {rn hmhqkmgfimghhikjfh mfgqhijikkfiiimhkn o o o n n o o 90-(>-;@) V V V V |
  1
<0:;8: {rn {h {g {rn {f 90-(>-; {k {rn |
  1
<0:;8: {rn {no {i {rn {nn 90-(>-; {k {rn |
  1
<0:;8: {rn {i {nm {rn {nl 90-(>-; {k {rn |
  1
:;8: {rn {nk {nj {i {ni 90-(>-; |
  1
<0:;8: {rn {nh {h {rn {ng 90-(>-; {k {rn |
  1
:;8: {rn {nj {nf {h {mo 90-(>-; |
  1
<0:;8: {rn {g {mn {rn {mm 90-(>-; {k {rn |
  1
:;8: {rn {ml {nk {g {mk 90-(>-; |
  1
):-+:' {rn {f {mj |
  1
):-+:' {rn {f {mi |
  1
:336/,:r<*-): {rn hmhqkmgfimghhikjfh rfqmofjniilmkfmoigl o o o n joo o o n V V |
  1
<0:;8: {rn {mh {no {rn {mg 90-(>-; {k {rn |
  1
:;8: {rn {nf {mf {no {lo 90-(>-; |
  1
):-+:' {rn {nn {ln |
  1
:336/,:r<*-): {rn hnhqkmgfimghhikjfh lioqijjlmljkjikihj o o o n nlo o o n V V |
  1
<0:;8: {rn {nm {mh {rn {lm 90-(>-; {k {rn |
  1
:;8: {rn {ll {ml {nm {lk 90-(>-; |
  1
):-+:' {rn {mm {lj |
  1
:336/,:r<*-): {rn hlhqkmgfimghhikjfh lioqijjlmljkjikihj o o o n nlo o o n V V |
  1
/061+ {rn hkoqfkmkhilfnnjfmf kfoqiohglkfjfjghln o |
  1
/061+ {rn hnlqfnjkkfliknlmii kfoqiohglkfjfjghln o |
  1
<0:;8: {rn {mn {nh {rn {li 90-(>-; {k {rn |
  1
:;8: {rn {mf {lh {nh {lg 90-(>-; |
  1
):-+:' {rn {ng {lf |
  1
,+->687+r<*-): {rn jghqkmgfimghhikjfh lioqijjlmljkjikihj o o rn o V V |
  1
/061+ {rn jghqkmgfimghhikjfh lioqijjlmljkjikihj o |
  1
:;8: {rn {ko {ll {mn {kn 90-(>-; |
  1
):-+:' {rn {lm {km |
  1
,+->687+r<*-): {rn gihqkmgfimghhikjfh mohqhfokgllihjohfl o rmqfhkglmgihhjhhjgj:ronj n o V V |
  1
/061+ {rn gihqkmgfimghhikjfh lioqijjlmljkjikihj o |
  1
:;8: {rn {lh {ko {mh {kl 90-(>-; |
  1
):-+:' {rn {mg {kk |
  1
:336/,:r<*-): {rn ihmqkmgfimghhikjfh mohqhfokgllihjohfl o o o n gj o o n V V |
  1
/061+ {rn jghqkmgfimghhikjfh mohqhfokgllihjohfl o |
  1
):-+:' {rn {li {kj |
  1
:336/,:r<*-): {rn hgmqkmgfimghhikjfh mohqhfokgllihjohfl o o o n gj o o n V V |
  1
/061+ {rn gihqkmgfimghhikjfh mohqhfokgllihjohfl o |
  1
,+->687+r<*-): {rn ihmqkmgfimghhikjfh nmmqhfokgllihjohfl o n o o V V |
  1
/061+ {rn ihmqkmgfimghhikjfh nmmqhfokgllihjohfl o |
  1
/061+ {rn hgmqkmgfimghhikjfh nmmqhfokgllihjohfl o |
  0
REGION
  5
E1B8
102
{ACAD_REACTORS
330
E1C3
330
E1C9
330
E1D2
330
E1D5
102
}
330
E187
100
AcDbEntity
  8
0
100
AcDbModelerGeometry
 70
     1
  1
koo ki n o          
  1
ni ^ *+0;:,4 ^ *+0\^ [ nh ^ LR iqoqjqhook QK mk K7* R>- mi njejheni moof 
  1
n fqfffffffffffffffj:rooh n:rono 
  1
=0;& {rn {n {rn {rn |
  1
3*2/ {rn {rn {m {o |
  1
,7:33 {rn {rn {rn {l {rn {n |
  1
9><: {rn {rn {k {m {rn {j 90-(>-; ;0*=3: 0*+ |
  1
300/ {rn {rn {i {l |
  1
/3>1:r,*-9><: {rn lkjqkmgfimghhikjfh lmgqnkfmfmjlkokkmn o o o n n o o 90-(>-;@) V V V V |
  1
<0:;8: {rn {h {g {rn {f 90-(>-; {k {rn |
  1
<0:;8: {rn {no {i {rn {nn 90-(>-; {k {rn |
  1
<0:;8: {rn {i {nm {rn {nl 90-(>-; {k {rn |
  1
:;8: {rn {nk {nj {i {ni 90-(>-; |
  1
<0:;8: {rn {nh {h {rn {ng 90-(>-; {k {rn |
  1
:;8: {rn {nj {nf {h {mo 90-(>-; |
  1
<0:;8: {rn {g {mn {rn {mm 90-(>-; {k {rn |
  1
:;8: {rn {ml {nk {g {mk 90-(>-; |
  1
):-+:' {rn {f {mj |
  1
):-+:' {rn {f {mi |
  1
:336/,:r<*-): {rn khoqkmgfimghhikjfh mohqhfokgllihjohfl o o o n gj o o n V V |
  1
<0:;8: {rn {mh {no {rn {mg 90-(>-; {k {rn |
  1
:;8: {rn {nf {mf {no {lo 90-(>-; |
  1
):-+:' {rn {nn {ln |
  1
,+->687+r<*-): {rn jjjqkmgfimghhikjfh mohqhfokgllihjohfl o rmqigjngjjookmikjkg:ronj n o V V |
  1
<0:;8: {rn {nm {mh {rn {lm 90-(>-; {k {rn |
  1
:;8: {rn {ll {ml {nm {lk 90-(>-; |
  1
):-+:' {rn {mm {lj |
  1
,+->687+r<*-): {rn mmoqkmgfimghhikjfh nmmqhfokgllihjohfl o n o o V V |
  1
/061+ {rn khoqkmgfimghhikjfh nmmqhfokgllihjohfl o |
  1
/061+ {rn jjjqkmgfimghhikjfh mohqhfokgllihjohfl o |
  1
<0:;8: {rn {mn {nh {rn {li 90-(>-; {k {rn |
  1
:;8: {rn {mf {lh {nh {lg 90-(>-; |
  1
):-+:' {rn {ng {lf |
  1
:336/,:r<*-): {rn lijqkmgfimghhikjfh lhhqnkkikfllmiigkj o o o n nfo o o n V V |
  1
/061+ {rn jjjqkmgfimghhikjfh lhhqnkkikfllmiigkj o |
  1
:;8: {rn {ko {ll {mn {kn 90-(>-; |
  1
):-+:' {rn {lm {km |
  1
:336/,:r<*-): {rn mmoqkmgfimghhikjfh mohqhfokgllihjohfl o o o n gj o o n V V |
  1
/061+ {rn mmoqkmgfimghhikjfh nmmqhfokgllihjohfl o |
  1
:;8: {rn {lh {ko {mh {kl 90-(>-; |
  1
):-+:' {rn {mg {kk |
  1
:336/,:r<*-): {rn lkjqkmgfimghhikjfh ihqhfokgllihjohflm o o o n joo o o n V V |
  1
/061+ {rn lhhqighomhlflhhkhh jiiqhkggnjjiflhfjl o |
  1
):-+:' {rn {li {kj |
  1
,+->687+r<*-): {rn nljqkmgfimghhikjfh lhhqnkkikfllmiigkj o rnqlkmjfmhjomnlmmhk:ronj rn o V V |
  1
/061+ {rn nljqkmgfimghhikjfh mohqhfokgllihjohfl o |
  1
:336/,:r<*-): {rn lmjqkmgfimghhikjfh lhhqnkkikfllmiigkj o o o n nfo o o n V V |
  1
/061+ {rn lnlqnhogfglinjnhnh jiiqhkggnjjiflhfjl o |
  1
/061+ {rn nljqkmgfimghhikjfh lhhqnkkikfllmiigkj o |
  0
MTEXT
  5
E1B9
330
E187
100
AcDbEntity
  8
0
100
AcDbMText
 10
267.2931939689151
 20
178.5113878851534
 30
0.0
 40
20.0
 41
78.13576890872719
 71
     1
 72
     5
  1
C016
 73
     1
 44
1.0
1001
ACAD
1000
MTEXTBEGIN
1070
    73
1070
     1
1070
    44
1040
1.0
1070
    74
1070
     0
1000
MTEXTEND
  0
MTEXT
  5
E1BA
330
E187
100
AcDbEntity
  8
0
100
AcDbMText
 10
686.1997780421877
 20
178.5113878851534
 30
0.0
 40
20.0
 41
78.13576890872719
 71
     1
 72
     5
  1
C017
 73
     1
 44
1.0
1001
ACAD
1000
MTEXTBEGIN
1070
    73
1070
     1
1070
    44
1040
1.0
1070
    74
1070
     0
1000
MTEXTEND
  0
DIMENSION
  5
E1BB
102
{ACAD_XDICTIONARY
360
E1BC
102
}
102
{ACAD_REACTORS
330
E1BD
102
}
330
E187
100
AcDbEntity
  8
0
100
AcDbDimension
  2
*D14
 10
975.4208020223339
 20
90.79048336750792
 30
0.0
 11
960.4208020223339
 21
306.790483367509
 31
0.0
 12
-4129.395262036173
 22
727.6091913900418
 32
0.0
 71
     5
 42
432.0000000000002
  3
副本ISO-25
100
AcDbAlignedDimension
 13
811.4289628776457
 23
522.7904833675084
 33
0.0
 14
826.428962877646
 24
90.79048336750792
 34
0.0
 50
90.0
100
AcDbRotatedDimension
  0
DIMENSION
  5
E1BE
102
{ACAD_XDICTIONARY
360
E1BF
102
}
102
{ACAD_REACTORS
330
E1C0
102
}
330
E187
100
AcDbEntity
  8
0
100
AcDbDimension
  2
*D15
 10
940.0645989154799
 20
122.7904833675078
 30
0.0
 11
925.0645989154801
 21
306.6991591635483
 31
0.0
 12
-4129.395262036173
 22
727.6091913900418
 32
0.0
 71
     5
 42
367.8173515920792
  3
副本ISO-25
100
AcDbAlignedDimension
 13
727.4289628776458
 23
490.6078349595871
 33
0.0
 14
727.4289628776458
 24
122.7904833675079
 34
0.0
 50
90.0
100
AcDbRotatedDimension
  0
DIMENSION
  5
E1C1
102
{ACAD_XDICTIONARY
360
E1C2
102
}
102
{ACAD_REACTORS
330
E1C3
102
}
330
E187
100
AcDbEntity
  8
0
100
AcDbDimension
  2
*D16
 10
54.93539831177256
 20
122.790483367508
 30
0.0
 11
39.9353983117726
 21
345.2904833675087
 31
0.0
 12
-4129.395262036173
 22
727.6091913900418
 32
0.0
 71
     5
 42
445.0
  3
副本ISO-25
100
AcDbAlignedDimension
 13
345.428962877646
 23
567.7904833675078
 33
0.0
 14
345.428962877646
 24
122.7904833675079
 34
0.0
 50
90.0
100
AcDbRotatedDimension
  0
DIMENSION
  5
E1C4
102
{ACAD_XDICTIONARY
360
E1C5
102
}
102
{ACAD_REACTORS
330
E1C6
102
}
330
E187
100
AcDbEntity
  8
0
100
AcDbDimension
  2
*D17
 10
25.00001247740329
 20
90.79048336750805
 30
0.0
 11
10.00001247740329
 21
345.2904833675087
 31
0.0
 12
-4129.395262036173
 22
727.6091913900418
 32
0.0
 71
     5
 42
509.0
  3
副本ISO-25
100
AcDbAlignedDimension
 13
334.1938734325359
 23
599.7904833675078
 33
0.0
 14
334.1938734325359
 24
90.79048336750792
 34
0.0
 50
90.0
100
AcDbRotatedDimension
  0
DIMENSION
  5
E1C7
102
{ACAD_XDICTIONARY
360
E1C8
102
}
102
{ACAD_REACTORS
330
E1C9
102
}
330
E187
100
AcDbEntity
  8
0
100
AcDbDimension
  2
*D18
 10
555.428962877646
 20
44.96487039928513
 30
0.0
 11
345.428962877646
 21
59.96487039928513
 31
0.0
 12
-4129.395262036173
 22
727.6091913900418
 32
0.0
 71
     5
 42
420.0
  3
副本ISO-25
100
AcDbAlignedDimension
 13
135.4289628776459
 23
207.7904833675079
 33
0.0
 14
555.428962877646
 24
207.7904833675091
 34
0.0
100
AcDbRotatedDimension
  0
DIMENSION
  5
E1CA
102
{ACAD_XDICTIONARY
360
E1CB
102
}
102
{ACAD_REACTORS
330
E1CC
102
}
330
E187
100
AcDbEntity
  8
0
100
AcDbDimension
  2
*D19
 10
867.428962877646
 20
44.96487039928523
 30
0.0
 11
727.4289628776458
 21
59.96487039928524
 31
0.0
 12
-4129.395262036173
 22
727.6091913900418
 32
0.0
 71
     5
 42
280.0
  3
副本ISO-25
100
AcDbAlignedDimension
 13
587.4289628776457
 23
207.7904833675079
 33
0.0
 14
867.428962877646
 24
207.7904833675079
 34
0.0
100
AcDbRotatedDimension
  0
DIMENSION
  5
E1CD
102
{ACAD_XDICTIONARY
360
E1CE
102
}
102
{ACAD_REACTORS
330
E1CF
102
}
330
E187
100
AcDbEntity
  8
0
100
AcDbDimension
  2
*D20
 10
901.428962877646
 20
2.500004677232936
 30
0.0
 11
501.428962877646
 21
17.50000467723294
 31
0.0
 12
-4129.395262036173
 22
727.6091913900418
 32
0.0
 71
     5
 42
800.0
  3
副本ISO-25
100
AcDbAlignedDimension
 13
101.428962877646
 23
207.1654833675081
 33
0.0
 14
901.428962877646
 24
819.0399852711548
 34
0.0
100
AcDbRotatedDimension
  0
DIMENSION
  5
E1D0
102
{ACAD_XDICTIONARY
360
E1D1
102
}
102
{ACAD_REACTORS
330
E1D2
102
}
330
E187
100
AcDbEntity
  8
0
100
AcDbDimension
  2
*D21
 10
101.428962877646
 20
44.96487039928502
 30
0.0
 11
49.762296210979
 21
59.96487039928502
 31
0.0
 12
-4129.395262036173
 22
727.6091913900418
 32
0.0
 71
     5
 42
34.0
  3
副本ISO-25
100
AcDbAlignedDimension
 13
135.4289628776459
 23
207.790483367508
 33
0.0
 14
101.428962877646
 24
207.790483367508
 34
0.0
100
AcDbRotatedDimension
  0
DIMENSION
  5
E1D3
102
{ACAD_XDICTIONARY
360
E1D4
102
}
102
{ACAD_REACTORS
330
E1D5
102
}
330
E187
100
AcDbEntity
  8
0
100
AcDbDimension
  2
*D22
 10
587.4289628776457
 20
237.8712826872688
 30
0.0
 11
492.7080724666883
 21
237.8712826872688
 31
0.0
 12
-4129.395262036173
 22
727.6091913900418
 32
0.0
 70
   128
 71
     5
 42
32.0
  3
副本ISO-25
100
AcDbAlignedDimension
 13
555.428962877646
 23
207.7904833675079
 33
0.0
 14
587.4289628776457
 24
207.1654833675079
 34
0.0
100
AcDbRotatedDimension
  0
DIMENSION
  5
E1D6
102
{ACAD_XDICTIONARY
360
E1D7
102
}
102
{ACAD_REACTORS
330
E1D8
102
}
330
E187
100
AcDbEntity
  8
0
100
AcDbDimension
  2
*D23
 10
92.13526887433909
 20
956.3314979231316
 30
0.0
 11
77.13526887433909
 21
842.0326149019652
 31
0.0
 12
-4129.395262036173
 22
727.6091913900418
 32
0.0
 71
     5
 42
228.5977660423339
  3
副本ISO-25
100
AcDbAlignedDimension
 13
186.5246848438546
 23
727.7337318807979
 33
0.0
 14
101.4289628776423
 24
956.3314979231316
 34
0.0
 50
90.0
100
AcDbRotatedDimension
  0
DIMENSION
  5
E1D9
102
{ACAD_XDICTIONARY
360
E1DA
102
}
102
{ACAD_REACTORS
330
E1DB
102
}
330
E187
100
AcDbEntity
  8
0
100
AcDbDimension
  2
*D24
 10
943.227739821803
 20
753.1299279603246
 30
0.0
 11
928.2277398218027
 21
854.7307129417317
 31
0.0
 12
-4129.395262036173
 22
727.6091913900418
 32
0.0
 71
     5
 42
203.2015699628126
  3
副本ISO-25
100
AcDbAlignedDimension
 13
901.428962877646
 23
956.3314979231373
 33
0.0
 14
815.8590309158244
 24
753.1299279603246
 34
0.0
 50
90.0
100
AcDbRotatedDimension
  0
ARC
  5
E1DC
330
E187
100
AcDbEntity
  8
0
370
    70
100
AcDbCircle
 10
194.1799538890918
 20
785.4489161038617
 30
0.0
 40
50.0
100
AcDbArc
 50
183.288155393091
 51
260.8389852134068
  0
ARC
  5
E1DD
330
E187
100
AcDbEntity
  8
0
370
    70
100
AcDbCircle
 10
496.6779718662
 20
785.4489161038618
 30
0.0
 40
50.0
100
AcDbArc
 50
279.1610147865932
 51
356.7118446069089
  0
ENDBLK
  5
E1E1
330
E187
100
AcDbEntity
  8
0
100
AcDbBlockEnd
  0
BLOCK
  5
12BBA
330
12BB4
100
AcDbEntity
  8
0
100
AcDbBlockBegin
  2
*D26
 70
     1
 10
0.0
 20
0.0
 30
0.0
  3
*D26
  1

  0
LINE
  5
14E36
330
12BB4
100
AcDbEntity
  8
标注
 62
     0
370
    -2
100
AcDbLine
 10
13783.3038918041
 20
404.6452294873525
 30
0.0
 11
13847.28211968251
 21
470.7571524478852
 31
0.0
  0
MTEXT
  5
14E37
330
12BB4
100
AcDbEntity
  8
标注
 62
     0
100
AcDbMText
 10
13802.13791439247
 20
442.0822378232341
 30
0.0
 40
15.0
 41
0.0
 71
     5
 72
     1
  1
4-R74
 11
0.6954155204174284
 21
0.718607858266633
 31
0.0
 73
     1
 44
1.0
1001
ACAD
1000
MTEXTBEGIN
1070
    73
1070
     1
1070
    44
1040
1.0
1070
    74
1070
     0
1000
MTEXTEND
  0
SOLID
  5
14E38
330
12BB4
100
AcDbEntity
  8
标注
 62
     0
100
AcDbTrace
 10
13845.84490396598
 20
472.1479834887204
 30
0.0
 11
13848.71933539904
 21
469.3663214070501
 31
0.0
 12
13855.62710592752
 22
479.3804467470844
 32
0.0
 13
13855.62710592752
 23
479.3804467470844
 33
0.0
  0
POINT
  5
14E39
330
12BB4
100
AcDbEntity
  8
Defpoints
 62
     0
100
AcDbPoint
 10
13855.62710592752
 20
479.3804467470844
 30
0.0
  0
POINT
  5
14E3A
330
12BB4
100
AcDbEntity
  8
Defpoints
 62
     0
100
AcDbPoint
 10
13804.16635741662
 20
426.2034652353458
 30
0.0
  0
ENDBLK
  5
12BBB
330
12BB4
100
AcDbEntity
  8
0
100
AcDbBlockEnd
  0
BLOCK
  5
12BC6
330
12BBC
100
AcDbEntity
  8
0
100
AcDbBlockBegin
  2
*D27
 70
     1
 10
0.0
 20
0.0
 30
0.0
  3
*D27
  1

  0
LINE
  5
14E4D
330
12BBC
100
AcDbEntity
  8
标注
 62
     0
370
    -2
100
AcDbLine
 10
13811.16635741662
 20
500.2034652353462
 30
0.0
 11
13983.13138862993
 21
500.2034652353462
 31
0.0
  0
LINE
  5
14E4E
330
12BBC
100
AcDbEntity
  8
标注
 62
     0
370
    -2
100
AcDbLine
 10
13811.16635741662
 20
84.20346523534636
 30
0.0
 11
13983.13138862993
 21
84.20346523534631
 31
0.0
  0
LINE
  5
14E4F
330
12BBC
100
AcDbEntity
  8
标注
 62
     0
370
    -2
100
AcDbLine
 10
13981.88138862993
 20
488.2034652353462
 30
0.0
 11
13981.88138862993
 21
96.20346523534632
 31
0.0
  0
SOLID
  5
14E50
330
12BBC
100
AcDbEntity
  8
标注
 62
     0
100
AcDbTrace
 10
13979.88138862993
 20
488.2034652353462
 30
0.0
 11
13983.88138862993
 21
488.2034652353462
 31
0.0
 12
13981.88138862993
 22
500.2034652353462
 32
0.0
 13
13981.88138862993
 23
500.2034652353462
 33
0.0
  0
SOLID
  5
14E51
330
12BBC
100
AcDbEntity
  8
标注
 62
     0
100
AcDbTrace
 10
13979.88138862993
 20
96.20346523534632
 30
0.0
 11
13983.88138862993
 21
96.20346523534632
 31
0.0
 12
13981.88138862993
 22
84.20346523534631
 32
0.0
 13
13981.88138862993
 23
84.20346523534631
 33
0.0
  0
MTEXT
  5
14E52
330
12BBC
100
AcDbEntity
  8
标注
 62
     0
100
AcDbMText
 10
13969.38138862993
 20
292.2034652353485
 30
0.0
 40
15.0
 41
0.0
 71
     5
 72
     1
  1
416
 11
0.0000000000000001
 21
1.0
 31
0.0
 73
     1
 44
1.0
1001
ACAD
1000
MTEXTBEGIN
1070
    73
1070
     1
1070
    44
1040
1.0
1070
    74
1070
     0
1000
MTEXTEND
  0
POINT
  5
14E53
330
12BBC
100
AcDbEntity
  8
Defpoints
 62
     0
100
AcDbPoint
 10
13804.16635741662
 20
500.2034652353462
 30
0.0
  0
POINT
  5
14E54
330
12BBC
100
AcDbEntity
  8
Defpoints
 62
     0
100
AcDbPoint
 10
13804.16635741662
 20
84.20346523534636
 30
0.0
  0
POINT
  5
14E55
330
12BBC
100
AcDbEntity
  8
Defpoints
 62
     0
100
AcDbPoint
 10
13981.88138862993
 20
84.20346523534631
 30
0.0
  0
ENDBLK
  5
12BC7
330
12BBC
100
AcDbEntity
  8
0
100
AcDbBlockEnd
  0
BLOCK
  5
12BD2
330
12BC8
100
AcDbEntity
  8
0
100
AcDbBlockBegin
  2
*D28
 70
     1
 10
0.0
 20
0.0
 30
0.0
  3
*D28
  1

  0
LINE
  5
13D46
330
12BC8
100
AcDbEntity
  8
标注
 62
     0
370
    -2
100
AcDbLine
 10
13880.66635741662
 20
151.2034652353463
 30
0.0
 11
13880.66635741662
 21
2.719001393719735
 31
0.0
  0
LINE
  5
13D47
330
12BC8
100
AcDbEntity
  8
标注
 62
     0
370
    -2
100
AcDbLine
 10
13158.66635741662
 20
151.2034652353463
 30
0.0
 11
13158.66635741662
 21
2.719001393719735
 31
0.0
  0
LINE
  5
13D48
330
12BC8
100
AcDbEntity
  8
标注
 62
     0
370
    -2
100
AcDbLine
 10
13868.66635741662
 20
3.969001393719736
 30
0.0
 11
13170.66635741662
 21
3.969001393719736
 31
0.0
  0
SOLID
  5
13D49
330
12BC8
100
AcDbEntity
  8
标注
 62
     0
100
AcDbTrace
 10
13868.66635741662
 20
5.969001393719736
 30
0.0
 11
13868.66635741662
 21
1.969001393719734
 31
0.0
 12
13880.66635741662
 22
3.969001393719736
 32
0.0
 13
13880.66635741662
 23
3.969001393719736
 33
0.0
  0
SOLID
  5
13D4A
330
12BC8
100
AcDbEntity
  8
标注
 62
     0
100
AcDbTrace
 10
13170.66635741662
 20
5.969001393719736
 30
0.0
 11
13170.66635741662
 21
1.969001393719734
 31
0.0
 12
13158.66635741662
 22
3.969001393719736
 32
0.0
 13
13158.66635741662
 23
3.969001393719736
 33
0.0
  0
MTEXT
  5
13D4B
330
12BC8
100
AcDbEntity
  8
标注
 62
     0
100
AcDbMText
 10
13519.66635741662
 20
16.46900139371973
 30
0.0
 40
15.0
 41
0.0
 71
     5
 72
     1
  1
722
 73
     1
 44
1.0
1001
ACAD
1000
MTEXTBEGIN
1070
    73
1070
     1
1070
    44
1040
1.0
1070
    74
1070
     0
1000
MTEXTEND
  0
POINT
  5
13D4C
330
12BC8
100
AcDbEntity
  8
Defpoints
 62
     0
100
AcDbPoint
 10
13880.66635741662
 20
158.2034652353463
 30
0.0
  0
POINT
  5
13D4D
330
12BC8
100
AcDbEntity
  8
Defpoints
 62
     0
100
AcDbPoint
 10
13158.66635741662
 20
158.2034652353463
 30
0.0
  0
POINT
  5
13D4E
330
12BC8
100
AcDbEntity
  8
Defpoints
 62
     0
100
AcDbPoint
 10
13158.66635741662
 20
3.969001393719736
 30
0.0
  0
ENDBLK
  5
12BD3
330
12BC8
100
AcDbEntity
  8
0
100
AcDbBlockEnd
  0
BLOCK
  5
14881
330
14875
100
AcDbEntity
  8
0
100
AcDbBlockBegin
  2
*D29
 70
     1
 10
0.0
 20
0.0
 30
0.0
  3
*D29
  1

  0
LINE
  5
14884
330
14875
100
AcDbEntity
  8
标注
 62
     0
370
    -2
100
AcDbLine
 10
13512.66635741662
 20
77.20346523534636
 30
0.0
 11
13481.29221176775
 21
77.20346523534636
 31
0.0
  0
LINE
  5
14885
330
14875
100
AcDbEntity
  8
标注
 62
     0
370
    -2
100
AcDbLine
 10
13512.66635741662
 20
84.20346523534636
 30
0.0
 11
13481.29221176775
 21
84.20346523534636
 31
0.0
  0
LINE
  5
14886
330
14875
100
AcDbEntity
  8
标注
 62
     0
370
    -2
100
AcDbLine
 10
13482.54221176775
 20
65.20346523534636
 30
0.0
 11
13482.54221176775
 21
53.20346523534635
 31
0.0
  0
LINE
  5
14887
330
14875
100
AcDbEntity
  8
标注
 62
     0
370
    -2
100
AcDbLine
 10
13482.54221176775
 20
96.20346523534635
 30
0.0
 11
13482.54221176775
 21
128.2034652353464
 31
0.0
  0
LINE
  5
14888
330
14875
100
AcDbEntity
  8
标注
 62
     0
370
    -2
100
AcDbLine
 10
13482.54221176775
 20
77.20346523534636
 30
0.0
 11
13482.54221176775
 21
84.20346523534636
 31
0.0
  0
SOLID
  5
14889
330
14875
100
AcDbEntity
  8
标注
 62
     0
100
AcDbTrace
 10
13480.54221176775
 20
65.20346523534636
 30
0.0
 11
13484.54221176775
 21
65.20346523534636
 31
0.0
 12
13482.54221176775
 22
77.20346523534636
 32
0.0
 13
13482.54221176775
 23
77.20346523534636
 33
0.0
  0
SOLID
  5
1488A
330
14875
100
AcDbEntity
  8
标注
 62
     0
100
AcDbTrace
 10
13480.54221176775
 20
96.20346523534635
 30
0.0
 11
13484.54221176775
 21
96.20346523534635
 31
0.0
 12
13482.54221176775
 22
84.20346523534636
 32
0.0
 13
13482.54221176775
 23
84.20346523534636
 33
0.0
  0
MTEXT
  5
1488B
330
14875
100
AcDbEntity
  8
标注
 62
     0
100
AcDbMText
 10
13470.04221176775
 20
118.2034652353485
 30
0.0
 40
15.0
 41
0.0
 71
     5
 72
     1
  1
7
 11
0.0000000000000001
 21
1.0
 31
0.0
 73
     1
 44
1.0
1001
ACAD
1000
MTEXTBEGIN
1070
    73
1070
     1
1070
    44
1040
1.0
1070
    74
1070
     0
1000
MTEXTEND
  0
POINT
  5
1488C
330
14875
100
AcDbEntity
  8
Defpoints
 62
     0
100
AcDbPoint
 10
13519.66635741662
 20
77.20346523534636
 30
0.0
  0
POINT
  5
1488D
330
14875
100
AcDbEntity
  8
Defpoints
 62
     0
100
AcDbPoint
 10
13519.66635741662
 20
84.20346523534636
 30
0.0
  0
POINT
  5
1488E
330
14875
100
AcDbEntity
  8
Defpoints
 62
     0
100
AcDbPoint
 10
13482.54221176775
 20
84.20346523534636
 30
0.0
  0
ENDBLK
  5
14882
330
14875
100
AcDbEntity
  8
0
100
AcDbBlockEnd
  0
BLOCK
  5
1489B
330
14891
100
AcDbEntity
  8
0
100
AcDbBlockBegin
  2
*D30
 70
     1
 10
0.0
 20
0.0
 30
0.0
  3
*D30
  1

  0
LINE
  5
14E44
330
14891
100
AcDbEntity
  8
标注
 62
     0
370
    -2
100
AcDbLine
 10
13811.16635741662
 20
507.2034652353464
 30
0.0
 11
14032.79071339042
 21
507.2034652353463
 31
0.0
  0
LINE
  5
14E45
330
14891
100
AcDbEntity
  8
标注
 62
     0
370
    -2
100
AcDbLine
 10
13811.16635741662
 20
77.20346523534636
 30
0.0
 11
14032.79071339042
 21
77.2034652353463
 31
0.0
  0
LINE
  5
14E46
330
14891
100
AcDbEntity
  8
标注
 62
     0
370
    -2
100
AcDbLine
 10
14031.54071339042
 20
495.2034652353463
 30
0.0
 11
14031.54071339042
 21
89.20346523534631
 31
0.0
  0
SOLID
  5
14E47
330
14891
100
AcDbEntity
  8
标注
 62
     0
100
AcDbTrace
 10
14029.54071339042
 20
495.2034652353463
 30
0.0
 11
14033.54071339042
 21
495.2034652353463
 31
0.0
 12
14031.54071339042
 22
507.2034652353463
 32
0.0
 13
14031.54071339042
 23
507.2034652353463
 33
0.0
  0
SOLID
  5
14E48
330
14891
100
AcDbEntity
  8
标注
 62
     0
100
AcDbTrace
 10
14029.54071339042
 20
89.20346523534631
 30
0.0
 11
14033.54071339042
 21
89.20346523534631
 31
0.0
 12
14031.54071339042
 22
77.2034652353463
 32
0.0
 13
14031.54071339042
 23
77.2034652353463
 33
0.0
  0
MTEXT
  5
14E49
330
14891
100
AcDbEntity
  8
标注
 62
     0
100
AcDbMText
 10
14019.04071339042
 20
292.2034652353486
 30
0.0
 40
15.0
 41
0.0
 71
     5
 72
     1
  1
430
 11
0.0000000000000001
 21
1.0
 31
0.0
 73
     1
 44
1.0
1001
ACAD
1000
MTEXTBEGIN
1070
    73
1070
     1
1070
    44
1040
1.0
1070
    74
1070
     0
1000
MTEXTEND
  0
POINT
  5
14E4A
330
14891
100
AcDbEntity
  8
Defpoints
 62
     0
100
AcDbPoint
 10
13804.16635741662
 20
507.2034652353464
 30
0.0
  0
POINT
  5
14E4B
330
14891
100
AcDbEntity
  8
Defpoints
 62
     0
100
AcDbPoint
 10
13804.16635741662
 20
77.20346523534636
 30
0.0
  0
POINT
  5
14E4C
330
14891
100
AcDbEntity
  8
Defpoints
 62
     0
100
AcDbPoint
 10
14031.54071339042
 20
77.2034652353463
 30
0.0
  0
ENDBLK
  5
1489C
330
14891
100
AcDbEntity
  8
0
100
AcDbBlockEnd
  0
BLOCK
  5
148B3
330
148A9
100
AcDbEntity
  8
0
100
AcDbBlockBegin
  2
*D31
 70
     1
 10
0.0
 20
0.0
 30
0.0
  3
*D31
  1

  0
LINE
  5
148B6
330
148A9
100
AcDbEntity
  8
标注
 62
     0
370
    -2
100
AcDbLine
 10
13151.66635741662
 20
151.2034652353463
 30
0.0
 11
13151.66635741662
 21
-39.12370292675041
 31
0.0
  0
LINE
  5
148B7
330
148A9
100
AcDbEntity
  8
标注
 62
     0
370
    -2
100
AcDbLine
 10
13887.66635741662
 20
151.2034652353463
 30
0.0
 11
13887.66635741662
 21
-39.12370292675041
 31
0.0
  0
LINE
  5
148B8
330
148A9
100
AcDbEntity
  8
标注
 62
     0
370
    -2
100
AcDbLine
 10
13163.66635741662
 20
-37.87370292675041
 30
0.0
 11
13875.66635741662
 21
-37.87370292675041
 31
0.0
  0
SOLID
  5
148B9
330
148A9
100
AcDbEntity
  8
标注
 62
     0
100
AcDbTrace
 10
13163.66635741662
 20
-35.87370292675041
 30
0.0
 11
13163.66635741662
 21
-39.8737029267504
 31
0.0
 12
13151.66635741662
 22
-37.87370292675041
 32
0.0
 13
13151.66635741662
 23
-37.87370292675041
 33
0.0
  0
SOLID
  5
148BA
330
148A9
100
AcDbEntity
  8
标注
 62
     0
100
AcDbTrace
 10
13875.66635741662
 20
-35.87370292675041
 30
0.0
 11
13875.66635741662
 21
-39.8737029267504
 31
0.0
 12
13887.66635741662
 22
-37.87370292675041
 32
0.0
 13
13887.66635741662
 23
-37.87370292675041
 33
0.0
  0
MTEXT
  5
148BB
330
148A9
100
AcDbEntity
  8
标注
 62
     0
100
AcDbMText
 10
13519.66635741662
 20
-25.37370292675041
 30
0.0
 40
15.0
 41
0.0
 71
     5
 72
     1
  1
736
 73
     1
 44
1.0
1001
ACAD
1000
MTEXTBEGIN
1070
    73
1070
     1
1070
    44
1040
1.0
1070
    74
1070
     0
1000
MTEXTEND
  0
POINT
  5
148BC
330
148A9
100
AcDbEntity
  8
Defpoints
 62
     0
100
AcDbPoint
 10
13151.66635741662
 20
158.2034652353463
 30
0.0
  0
POINT
  5
148BD
330
148A9
100
AcDbEntity
  8
Defpoints
 62
     0
100
AcDbPoint
 10
13887.66635741662
 20
158.2034652353463
 30
0.0
  0
POINT
  5
148BE
330
148A9
100
AcDbEntity
  8
Defpoints
 62
     0
100
AcDbPoint
 10
13887.66635741662
 20
-37.87370292675041
 30
0.0
  0
ENDBLK
  5
148B4
330
148A9
100
AcDbEntity
  8
0
100
AcDbBlockEnd
  0
BLOCK
  5
14E6A
330
14E60
100
AcDbEntity
  8
0
100
AcDbBlockBegin
  2
*D32
 70
     1
 10
0.0
 20
0.0
 30
0.0
  3
*D32
  1

  0
LINE
  5
14E6D
330
14E60
100
AcDbEntity
  8
标注
 62
     0
370
    -2
100
AcDbLine
 10
13161.16635741662
 20
150.2034652353463
 30
0.0
 11
13161.16635741662
 21
15.71349526676795
 31
0.0
  0
LINE
  5
14E6E
330
14E60
100
AcDbEntity
  8
标注
 62
     0
370
    -2
100
AcDbLine
 10
13878.16635741662
 20
150.2034652353463
 30
0.0
 11
13878.16635741662
 21
15.71349526676795
 31
0.0
  0
LINE
  5
14E6F
330
14E60
100
AcDbEntity
  8
标注
 62
     0
370
    -2
100
AcDbLine
 10
13173.16635741662
 20
16.96349526676795
 30
0.0
 11
13866.16635741662
 21
16.96349526676795
 31
0.0
  0
SOLID
  5
14E70
330
14E60
100
AcDbEntity
  8
标注
 62
     0
100
AcDbTrace
 10
13173.16635741662
 20
18.96349526676795
 30
0.0
 11
13173.16635741662
 21
14.96349526676795
 31
0.0
 12
13161.16635741662
 22
16.96349526676795
 32
0.0
 13
13161.16635741662
 23
16.96349526676795
 33
0.0
  0
SOLID
  5
14E71
330
14E60
100
AcDbEntity
  8
标注
 62
     0
100
AcDbTrace
 10
13866.16635741662
 20
18.96349526676795
 30
0.0
 11
13866.16635741662
 21
14.96349526676795
 31
0.0
 12
13878.16635741662
 22
16.96349526676795
 32
0.0
 13
13878.16635741662
 23
16.96349526676795
 33
0.0
  0
MTEXT
  5
14E72
330
14E60
100
AcDbEntity
  8
标注
 62
     0
100
AcDbMText
 10
13519.66635741662
 20
29.46349526676795
 30
0.0
 40
15.0
 41
0.0
 71
     5
 72
     1
  1
717
 73
     1
 44
1.0
1001
ACAD
1000
MTEXTBEGIN
1070
    73
1070
     1
1070
    44
1040
1.0
1070
    74
1070
     0
1000
MTEXTEND
  0
POINT
  5
14E73
330
14E60
100
AcDbEntity
  8
Defpoints
 62
     0
100
AcDbPoint
 10
13161.16635741662
 20
157.2034652353463
 30
0.0
  0
POINT
  5
14E74
330
14E60
100
AcDbEntity
  8
Defpoints
 62
     0
100
AcDbPoint
 10
13878.16635741662
 20
157.2034652353463
 30
0.0
  0
POINT
  5
14E75
330
14E60
100
AcDbEntity
  8
Defpoints
 62
     0
100
AcDbPoint
 10
13878.16635741662
 20
16.96349526676795
 30
0.0
  0
ENDBLK
  5
14E6B
330
14E60
100
AcDbEntity
  8
0
100
AcDbBlockEnd
  0
BLOCK
  5
14E82
330
14E78
100
AcDbEntity
  8
0
100
AcDbBlockBegin
  2
*D33
 70
     1
 10
0.0
 20
0.0
 30
0.0
  3
*D33
  1

  0
LINE
  5
14E85
330
14E78
100
AcDbEntity
  8
标注
 62
     0
370
    -2
100
AcDbLine
 10
13154.16635741662
 20
150.2034652353463
 30
0.0
 11
13154.16635741662
 21
-27.25947763651038
 31
0.0
  0
LINE
  5
14E86
330
14E78
100
AcDbEntity
  8
标注
 62
     0
370
    -2
100
AcDbLine
 10
13885.16635741662
 20
150.2034652353562
 30
0.0
 11
13885.16635741662
 21
-27.25947763651038
 31
0.0
  0
LINE
  5
14E87
330
14E78
100
AcDbEntity
  8
标注
 62
     0
370
    -2
100
AcDbLine
 10
13166.16635741662
 20
-26.00947763651038
 30
0.0
 11
13873.16635741662
 21
-26.00947763651038
 31
0.0
  0
SOLID
  5
14E88
330
14E78
100
AcDbEntity
  8
标注
 62
     0
100
AcDbTrace
 10
13166.16635741662
 20
-24.00947763651038
 30
0.0
 11
13166.16635741662
 21
-28.00947763651038
 31
0.0
 12
13154.16635741662
 22
-26.00947763651038
 32
0.0
 13
13154.16635741662
 23
-26.00947763651038
 33
0.0
  0
SOLID
  5
14E89
330
14E78
100
AcDbEntity
  8
标注
 62
     0
100
AcDbTrace
 10
13873.16635741662
 20
-24.00947763651038
 30
0.0
 11
13873.16635741662
 21
-28.00947763651038
 31
0.0
 12
13885.16635741662
 22
-26.00947763651038
 32
0.0
 13
13885.16635741662
 23
-26.00947763651038
 33
0.0
  0
MTEXT
  5
14E8A
330
14E78
100
AcDbEntity
  8
标注
 62
     0
100
AcDbMText
 10
13519.66635741662
 20
-13.50947763651038
 30
0.0
 40
15.0
 41
0.0
 71
     5
 72
     1
  1
731
 73
     1
 44
1.0
1001
ACAD
1000
MTEXTBEGIN
1070
    73
1070
     1
1070
    44
1040
1.0
1070
    74
1070
     0
1000
MTEXTEND
  0
POINT
  5
14E8B
330
14E78
100
AcDbEntity
  8
Defpoints
 62
     0
100
AcDbPoint
 10
13154.16635741662
 20
157.2034652353463
 30
0.0
  0
POINT
  5
14E8C
330
14E78
100
AcDbEntity
  8
Defpoints
 62
     0
100
AcDbPoint
 10
13885.16635741662
 20
157.2034652353562
 30
0.0
  0
POINT
  5
14E8D
330
14E78
100
AcDbEntity
  8
Defpoints
 62
     0
100
AcDbPoint
 10
13885.16635741662
 20
-26.00947763651038
 30
0.0
  0
ENDBLK
  5
14E83
330
14E78
100
AcDbEntity
  8
0
100
AcDbBlockEnd
  0
BLOCK
  5
14F27
330
14F21
100
AcDbEntity
  8
0
100
AcDbBlockBegin
  2
*D34
 70
     1
 10
0.0
 20
0.0
 30
0.0
  3
*D34
  1

  0
LINE
  5
14F30
330
14F21
100
AcDbEntity
  8
标注
 62
     0
370
    -2
100
AcDbLine
 10
13256.43600654593
 20
405.6381521688136
 30
0.0
 11
13190.34543493636
 21
469.6384361081863
 31
0.0
  0
MTEXT
  5
14F31
330
14F21
100
AcDbEntity
  8
标注
 62
     0
100
AcDbMText
 10
13236.39666616396
 20
442.4440598067985
 30
0.0
 40
15.0
 41
0.0
 71
     5
 72
     1
  1
4-R73
 11
0.7183757783648962
 21
-0.6956552602105655
 31
0.0
 73
     1
 44
1.0
1001
ACAD
1000
MTEXTBEGIN
1070
    73
1070
     1
1070
    44
1040
1.0
1070
    74
1070
     0
1000
MTEXTEND
  0
SOLID
  5
14F32
330
14F21
100
AcDbEntity
  8
标注
 62
     0
100
AcDbTrace
 10
13191.73674545678
 20
471.0751876649164
 30
0.0
 11
13188.95412441593
 21
468.2016845514563
 31
0.0
 12
13181.72492559598
 22
477.9862992307124
 32
0.0
 13
13181.72492559598
 23
477.9862992307124
 33
0.0
  0
POINT
  5
14F33
330
14F21
100
AcDbEntity
  8
Defpoints
 62
     0
100
AcDbPoint
 10
13181.72492559598
 20
477.9862992307124
 30
0.0
  0
POINT
  5
14F34
330
14F21
100
AcDbEntity
  8
Defpoints
 62
     0
100
AcDbPoint
 10
13234.16635741661
 20
427.2034652353458
 30
0.0
  0
ENDBLK
  5
14F28
330
14F21
100
AcDbEntity
  8
0
100
AcDbBlockEnd
  0
BLOCK
  5
14F9F
330
14F9E
100
AcDbEntity
  8
0
100
AcDbBlockBegin
  2
*D35
 70
     1
 10
0.0
 20
0.0
 30
0.0
  3
*D35
  1

  0
LINE
  5
14FA0
330
14F9E
100
AcDbEntity
  8
标注
 62
     0
370
    -2
100
AcDbLine
 10
13811.16635741662
 20
500.2034652353462
 30
0.0
 11
13983.13138862993
 21
500.2034652353462
 31
0.0
  0
LINE
  5
14FA1
330
14F9E
100
AcDbEntity
  8
标注
 62
     0
370
    -2
100
AcDbLine
 10
13811.16635741662
 20
84.20346523534636
 30
0.0
 11
13983.13138862993
 21
84.20346523534631
 31
0.0
  0
LINE
  5
14FA2
330
14F9E
100
AcDbEntity
  8
标注
 62
     0
370
    -2
100
AcDbLine
 10
13981.88138862993
 20
488.2034652353462
 30
0.0
 11
13981.88138862993
 21
96.20346523534632
 31
0.0
  0
SOLID
  5
14FA3
330
14F9E
100
AcDbEntity
  8
标注
 62
     0
100
AcDbTrace
 10
13979.88138862993
 20
488.2034652353462
 30
0.0
 11
13983.88138862993
 21
488.2034652353462
 31
0.0
 12
13981.88138862993
 22
500.2034652353462
 32
0.0
 13
13981.88138862993
 23
500.2034652353462
 33
0.0
  0
SOLID
  5
14FA4
330
14F9E
100
AcDbEntity
  8
标注
 62
     0
100
AcDbTrace
 10
13979.88138862993
 20
96.20346523534632
 30
0.0
 11
13983.88138862993
 21
96.20346523534632
 31
0.0
 12
13981.88138862993
 22
84.20346523534631
 32
0.0
 13
13981.88138862993
 23
84.20346523534631
 33
0.0
  0
MTEXT
  5
14FA5
330
14F9E
100
AcDbEntity
  8
标注
 62
     0
100
AcDbMText
 10
13969.38138862993
 20
292.2034652353485
 30
0.0
 40
15.0
 41
0.0
 71
     5
 72
     1
  1
416
 11
0.0000000000000001
 21
1.0
 31
0.0
 73
     1
 44
1.0
1001
ACAD
1000
MTEXTBEGIN
1070
    73
1070
     1
1070
    44
1040
1.0
1070
    74
1070
     0
1000
MTEXTEND
  0
POINT
  5
14FA6
330
14F9E
100
AcDbEntity
  8
Defpoints
 62
     0
100
AcDbPoint
 10
13804.16635741662
 20
500.2034652353462
 30
0.0
  0
POINT
  5
14FA7
330
14F9E
100
AcDbEntity
  8
Defpoints
 62
     0
100
AcDbPoint
 10
13804.16635741662
 20
84.20346523534636
 30
0.0
  0
POINT
  5
14FA8
330
14F9E
100
AcDbEntity
  8
Defpoints
 62
     0
100
AcDbPoint
 10
13981.88138862993
 20
84.20346523534631
 30
0.0
  0
ENDBLK
  5
14FA9
330
14F9E
100
AcDbEntity
  8
0
100
AcDbBlockEnd
  0
BLOCK
  5
14FAB
330
14FAA
100
AcDbEntity
  8
0
100
AcDbBlockBegin
  2
*D36
 70
     1
 10
0.0
 20
0.0
 30
0.0
  3
*D36
  1

  0
LINE
  5
14FAC
330
14FAA
100
AcDbEntity
  8
标注
 62
     0
370
    -2
100
AcDbLine
 10
13512.66635741662
 20
77.20346523534636
 30
0.0
 11
13481.29221176775
 21
77.20346523534636
 31
0.0
  0
LINE
  5
14FAD
330
14FAA
100
AcDbEntity
  8
标注
 62
     0
370
    -2
100
AcDbLine
 10
13512.66635741662
 20
84.20346523534636
 30
0.0
 11
13481.29221176775
 21
84.20346523534636
 31
0.0
  0
LINE
  5
14FAE
330
14FAA
100
AcDbEntity
  8
标注
 62
     0
370
    -2
100
AcDbLine
 10
13482.54221176775
 20
65.20346523534636
 30
0.0
 11
13482.54221176775
 21
53.20346523534635
 31
0.0
  0
LINE
  5
14FAF
330
14FAA
100
AcDbEntity
  8
标注
 62
     0
370
    -2
100
AcDbLine
 10
13482.54221176775
 20
96.20346523534635
 30
0.0
 11
13482.54221176775
 21
128.2034652353464
 31
0.0
  0
LINE
  5
14FB0
330
14FAA
100
AcDbEntity
  8
标注
 62
     0
370
    -2
100
AcDbLine
 10
13482.54221176775
 20
77.20346523534636
 30
0.0
 11
13482.54221176775
 21
84.20346523534636
 31
0.0
  0
SOLID
  5
14FB1
330
14FAA
100
AcDbEntity
  8
标注
 62
     0
100
AcDbTrace
 10
13480.54221176775
 20
65.20346523534636
 30
0.0
 11
13484.54221176775
 21
65.20346523534636
 31
0.0
 12
13482.54221176775
 22
77.20346523534636
 32
0.0
 13
13482.54221176775
 23
77.20346523534636
 33
0.0
  0
SOLID
  5
14FB2
330
14FAA
100
AcDbEntity
  8
标注
 62
     0
100
AcDbTrace
 10
13480.54221176775
 20
96.20346523534635
 30
0.0
 11
13484.54221176775
 21
96.20346523534635
 31
0.0
 12
13482.54221176775
 22
84.20346523534636
 32
0.0
 13
13482.54221176775
 23
84.20346523534636
 33
0.0
  0
MTEXT
  5
14FB3
330
14FAA
100
AcDbEntity
  8
标注
 62
     0
100
AcDbMText
 10
13470.04221176775
 20
118.2034652353485
 30
0.0
 40
15.0
 41
0.0
 71
     5
 72
     1
  1
7
 11
0.0000000000000001
 21
1.0
 31
0.0
 73
     1
 44
1.0
1001
ACAD
1000
MTEXTBEGIN
1070
    73
1070
     1
1070
    44
1040
1.0
1070
    74
1070
     0
1000
MTEXTEND
  0
POINT
  5
14FB4
330
14FAA
100
AcDbEntity
  8
Defpoints
 62
     0
100
AcDbPoint
 10
13519.66635741662
 20
77.20346523534636
 30
0.0
  0
POINT
  5
14FB5
330
14FAA
100
AcDbEntity
  8
Defpoints
 62
     0
100
AcDbPoint
 10
13519.66635741662
 20
84.20346523534636
 30
0.0
  0
POINT
  5
14FB6
330
14FAA
100
AcDbEntity
  8
Defpoints
 62
     0
100
AcDbPoint
 10
13482.54221176775
 20
84.20346523534636
 30
0.0
  0
ENDBLK
  5
14FB7
330
14FAA
100
AcDbEntity
  8
0
100
AcDbBlockEnd
  0
BLOCK
  5
14FB9
330
14FB8
100
AcDbEntity
  8
0
100
AcDbBlockBegin
  2
*D37
 70
     1
 10
0.0
 20
0.0
 30
0.0
  3
*D37
  1

  0
LINE
  5
14FBA
330
14FB8
100
AcDbEntity
  8
标注
 62
     0
370
    -2
100
AcDbLine
 10
13811.16635741662
 20
507.2034652353464
 30
0.0
 11
14032.79071339042
 21
507.2034652353463
 31
0.0
  0
LINE
  5
14FBB
330
14FB8
100
AcDbEntity
  8
标注
 62
     0
370
    -2
100
AcDbLine
 10
13811.16635741662
 20
77.20346523534636
 30
0.0
 11
14032.79071339042
 21
77.2034652353463
 31
0.0
  0
LINE
  5
14FBC
330
14FB8
100
AcDbEntity
  8
标注
 62
     0
370
    -2
100
AcDbLine
 10
14031.54071339042
 20
495.2034652353463
 30
0.0
 11
14031.54071339042
 21
89.20346523534631
 31
0.0
  0
SOLID
  5
14FBD
330
14FB8
100
AcDbEntity
  8
标注
 62
     0
100
AcDbTrace
 10
14029.54071339042
 20
495.2034652353463
 30
0.0
 11
14033.54071339042
 21
495.2034652353463
 31
0.0
 12
14031.54071339042
 22
507.2034652353463
 32
0.0
 13
14031.54071339042
 23
507.2034652353463
 33
0.0
  0
SOLID
  5
14FBE
330
14FB8
100
AcDbEntity
  8
标注
 62
     0
100
AcDbTrace
 10
14029.54071339042
 20
89.20346523534631
 30
0.0
 11
14033.54071339042
 21
89.20346523534631
 31
0.0
 12
14031.54071339042
 22
77.2034652353463
 32
0.0
 13
14031.54071339042
 23
77.2034652353463
 33
0.0
  0
MTEXT
  5
14FBF
330
14FB8
100
AcDbEntity
  8
标注
 62
     0
100
AcDbMText
 10
14019.04071339042
 20
292.2034652353486
 30
0.0
 40
15.0
 41
0.0
 71
     5
 72
     1
  1
430
 11
0.0000000000000001
 21
1.0
 31
0.0
 73
     1
 44
1.0
1001
ACAD
1000
MTEXTBEGIN
1070
    73
1070
     1
1070
    44
1040
1.0
1070
    74
1070
     0
1000
MTEXTEND
  0
POINT
  5
14FC0
330
14FB8
100
AcDbEntity
  8
Defpoints
 62
     0
100
AcDbPoint
 10
13804.16635741662
 20
507.2034652353464
 30
0.0
  0
POINT
  5
14FC1
330
14FB8
100
AcDbEntity
  8
Defpoints
 62
     0
100
AcDbPoint
 10
13804.16635741662
 20
77.20346523534636
 30
0.0
  0
POINT
  5
14FC2
330
14FB8
100
AcDbEntity
  8
Defpoints
 62
     0
100
AcDbPoint
 10
14031.54071339042
 20
77.2034652353463
 30
0.0
  0
ENDBLK
  5
14FC3
330
14FB8
100
AcDbEntity
  8
0
100
AcDbBlockEnd
  0
BLOCK
  5
14FC5
330
14FC4
100
AcDbEntity
  8
0
100
AcDbBlockBegin
  2
*D38
 70
     1
 10
0.0
 20
0.0
 30
0.0
  3
*D38
  1

  0
LINE
  5
14FC6
330
14FC4
100
AcDbEntity
  8
标注
 62
     0
370
    -2
100
AcDbLine
 10
13161.16635741662
 20
150.2034652353463
 30
0.0
 11
13161.16635741662
 21
15.71349526676795
 31
0.0
  0
LINE
  5
14FC7
330
14FC4
100
AcDbEntity
  8
标注
 62
     0
370
    -2
100
AcDbLine
 10
13878.16635741662
 20
150.2034652353463
 30
0.0
 11
13878.16635741662
 21
15.71349526676795
 31
0.0
  0
LINE
  5
14FC8
330
14FC4
100
AcDbEntity
  8
标注
 62
     0
370
    -2
100
AcDbLine
 10
13173.16635741662
 20
16.96349526676795
 30
0.0
 11
13866.16635741662
 21
16.96349526676795
 31
0.0
  0
SOLID
  5
14FC9
330
14FC4
100
AcDbEntity
  8
标注
 62
     0
100
AcDbTrace
 10
13173.16635741662
 20
18.96349526676795
 30
0.0
 11
13173.16635741662
 21
14.96349526676795
 31
0.0
 12
13161.16635741662
 22
16.96349526676795
 32
0.0
 13
13161.16635741662
 23
16.96349526676795
 33
0.0
  0
SOLID
  5
14FCA
330
14FC4
100
AcDbEntity
  8
标注
 62
     0
100
AcDbTrace
 10
13866.16635741662
 20
18.96349526676795
 30
0.0
 11
13866.16635741662
 21
14.96349526676795
 31
0.0
 12
13878.16635741662
 22
16.96349526676795
 32
0.0
 13
13878.16635741662
 23
16.96349526676795
 33
0.0
  0
MTEXT
  5
14FCB
330
14FC4
100
AcDbEntity
  8
标注
 62
     0
100
AcDbMText
 10
13519.66635741662
 20
29.46349526676795
 30
0.0
 40
15.0
 41
0.0
 71
     5
 72
     1
  1
717
 73
     1
 44
1.0
1001
ACAD
1000
MTEXTBEGIN
1070
    73
1070
     1
1070
    44
1040
1.0
1070
    74
1070
     0
1000
MTEXTEND
  0
POINT
  5
14FCC
330
14FC4
100
AcDbEntity
  8
Defpoints
 62
     0
100
AcDbPoint
 10
13161.16635741662
 20
157.2034652353463
 30
0.0
  0
POINT
  5
14FCD
330
14FC4
100
AcDbEntity
  8
Defpoints
 62
     0
100
AcDbPoint
 10
13878.16635741662
 20
157.2034652353463
 30
0.0
  0
POINT
  5
14FCE
330
14FC4
100
AcDbEntity
  8
Defpoints
 62
     0
100
AcDbPoint
 10
13878.16635741662
 20
16.96349526676795
 30
0.0
  0
ENDBLK
  5
14FCF
330
14FC4
100
AcDbEntity
  8
0
100
AcDbBlockEnd
  0
BLOCK
  5
14FD1
330
14FD0
100
AcDbEntity
  8
0
100
AcDbBlockBegin
  2
*D39
 70
     1
 10
0.0
 20
0.0
 30
0.0
  3
*D39
  1

  0
LINE
  5
14FD2
330
14FD0
100
AcDbEntity
  8
标注
 62
     0
370
    -2
100
AcDbLine
 10
13154.16635741662
 20
150.2034652353463
 30
0.0
 11
13154.16635741662
 21
-27.25947763651038
 31
0.0
  0
LINE
  5
14FD3
330
14FD0
100
AcDbEntity
  8
标注
 62
     0
370
    -2
100
AcDbLine
 10
13885.16635741662
 20
150.2034652353562
 30
0.0
 11
13885.16635741662
 21
-27.25947763651038
 31
0.0
  0
LINE
  5
14FD4
330
14FD0
100
AcDbEntity
  8
标注
 62
     0
370
    -2
100
AcDbLine
 10
13166.16635741662
 20
-26.00947763651038
 30
0.0
 11
13873.16635741662
 21
-26.00947763651038
 31
0.0
  0
SOLID
  5
14FD5
330
14FD0
100
AcDbEntity
  8
标注
 62
     0
100
AcDbTrace
 10
13166.16635741662
 20
-24.00947763651038
 30
0.0
 11
13166.16635741662
 21
-28.00947763651038
 31
0.0
 12
13154.16635741662
 22
-26.00947763651038
 32
0.0
 13
13154.16635741662
 23
-26.00947763651038
 33
0.0
  0
SOLID
  5
14FD6
330
14FD0
100
AcDbEntity
  8
标注
 62
     0
100
AcDbTrace
 10
13873.16635741662
 20
-24.00947763651038
 30
0.0
 11
13873.16635741662
 21
-28.00947763651038
 31
0.0
 12
13885.16635741662
 22
-26.00947763651038
 32
0.0
 13
13885.16635741662
 23
-26.00947763651038
 33
0.0
  0
MTEXT
  5
14FD7
330
14FD0
100
AcDbEntity
  8
标注
 62
     0
100
AcDbMText
 10
13519.66635741662
 20
-13.50947763651038
 30
0.0
 40
15.0
 41
0.0
 71
     5
 72
     1
  1
731
 73
     1
 44
1.0
1001
ACAD
1000
MTEXTBEGIN
1070
    73
1070
     1
1070
    44
1040
1.0
1070
    74
1070
     0
1000
MTEXTEND
  0
POINT
  5
14FD8
330
14FD0
100
AcDbEntity
  8
Defpoints
 62
     0
100
AcDbPoint
 10
13154.16635741662
 20
157.2034652353463
 30
0.0
  0
POINT
  5
14FD9
330
14FD0
100
AcDbEntity
  8
Defpoints
 62
     0
100
AcDbPoint
 10
13885.16635741662
 20
157.2034652353562
 30
0.0
  0
POINT
  5
14FDA
330
14FD0
100
AcDbEntity
  8
Defpoints
 62
     0
100
AcDbPoint
 10
13885.16635741662
 20
-26.00947763651038
 30
0.0
  0
ENDBLK
  5
14FDB
330
14FD0
100
AcDbEntity
  8
0
100
AcDbBlockEnd
  0
BLOCK
  5
14FDD
330
14FDC
100
AcDbEntity
  8
0
100
AcDbBlockBegin
  2
*D40
 70
     1
 10
0.0
 20
0.0
 30
0.0
  3
*D40
  1

  0
LINE
  5
14FDE
330
14FDC
100
AcDbEntity
  8
标注
 62
     0
370
    -2
100
AcDbLine
 10
13256.43600654593
 20
405.6381521688136
 30
0.0
 11
13190.34543493636
 21
469.6384361081863
 31
0.0
  0
MTEXT
  5
14FDF
330
14FDC
100
AcDbEntity
  8
标注
 62
     0
100
AcDbMText
 10
13236.39666616396
 20
442.4440598067985
 30
0.0
 40
15.0
 41
0.0
 71
     5
 72
     1
  1
4-R73
 11
0.7183757783648962
 21
-0.6956552602105655
 31
0.0
 73
     1
 44
1.0
1001
ACAD
1000
MTEXTBEGIN
1070
    73
1070
     1
1070
    44
1040
1.0
1070
    74
1070
     0
1000
MTEXTEND
  0
SOLID
  5
14FE0
330
14FDC
100
AcDbEntity
  8
标注
 62
     0
100
AcDbTrace
 10
13191.73674545678
 20
471.0751876649164
 30
0.0
 11
13188.95412441593
 21
468.2016845514563
 31
0.0
 12
13181.72492559598
 22
477.9862992307124
 32
0.0
 13
13181.72492559598
 23
477.9862992307124
 33
0.0
  0
POINT
  5
14FE1
330
14FDC
100
AcDbEntity
  8
Defpoints
 62
     0
100
AcDbPoint
 10
13181.72492559598
 20
477.9862992307124
 30
0.0
  0
POINT
  5
14FE2
330
14FDC
100
AcDbEntity
  8
Defpoints
 62
     0
100
AcDbPoint
 10
13234.16635741661
 20
427.2034652353458
 30
0.0
  0
ENDBLK
  5
14FE3
330
14FDC
100
AcDbEntity
  8
0
100
AcDbBlockEnd
  0
BLOCK
  5
1509A
330
15090
100
AcDbEntity
  8
0
100
AcDbBlockBegin
  2
*D41
 70
     1
 10
0.0
 20
0.0
 30
0.0
  3
*D41
  1

  0
LINE
  5
150A8
330
15090
100
AcDbEntity
  8
标注
 62
     0
370
    -2
100
AcDbLine
 10
15842.60341673006
 20
478.8489408972166
 30
0.0
 11
16014.56844794337
 21
478.8489408972164
 31
0.0
  0
LINE
  5
150A9
330
15090
100
AcDbEntity
  8
标注
 62
     0
370
    -2
100
AcDbLine
 10
15842.60341673006
 20
62.8489408972166
 30
0.0
 11
16014.56844794337
 21
62.84894089721656
 31
0.0
  0
LINE
  5
150AA
330
15090
100
AcDbEntity
  8
标注
 62
     0
370
    -2
100
AcDbLine
 10
16013.31844794337
 20
466.8489408972164
 30
0.0
 11
16013.31844794337
 21
74.84894089721655
 31
0.0
  0
SOLID
  5
150AB
330
15090
100
AcDbEntity
  8
标注
 62
     0
100
AcDbTrace
 10
16011.31844794337
 20
466.8489408972164
 30
0.0
 11
16015.31844794337
 21
466.8489408972164
 31
0.0
 12
16013.31844794337
 22
478.8489408972164
 32
0.0
 13
16013.31844794337
 23
478.8489408972164
 33
0.0
  0
SOLID
  5
150AC
330
15090
100
AcDbEntity
  8
标注
 62
     0
100
AcDbTrace
 10
16011.31844794337
 20
74.84894089721655
 30
0.0
 11
16015.31844794337
 21
74.84894089721655
 31
0.0
 12
16013.31844794337
 22
62.84894089721656
 32
0.0
 13
16013.31844794337
 23
62.84894089721656
 33
0.0
  0
MTEXT
  5
150AD
330
15090
100
AcDbEntity
  8
标注
 62
     0
100
AcDbMText
 10
16000.81844794337
 20
270.8489408972192
 30
0.0
 40
15.0
 41
0.0
 71
     5
 72
     1
  1
416
 11
0.0000000000000001
 21
1.0
 31
0.0
 73
     1
 44
1.0
1001
ACAD
1000
MTEXTBEGIN
1070
    73
1070
     1
1070
    44
1040
1.0
1070
    74
1070
     0
1000
MTEXTEND
  0
POINT
  5
150AE
330
15090
100
AcDbEntity
  8
Defpoints
 62
     0
100
AcDbPoint
 10
15835.60341673006
 20
478.8489408972166
 30
0.0
  0
POINT
  5
150AF
330
15090
100
AcDbEntity
  8
Defpoints
 62
     0
100
AcDbPoint
 10
15835.60341673006
 20
62.8489408972166
 30
0.0
  0
POINT
  5
150B0
330
15090
100
AcDbEntity
  8
Defpoints
 62
     0
100
AcDbPoint
 10
16013.31844794337
 20
62.84894089721656
 30
0.0
  0
ENDBLK
  5
1509B
330
15090
100
AcDbEntity
  8
0
100
AcDbBlockEnd
  0
BLOCK
  5
150A6
330
1509C
100
AcDbEntity
  8
0
100
AcDbBlockBegin
  2
*D42
 70
     1
 10
0.0
 20
0.0
 30
0.0
  3
*D42
  1

  0
LINE
  5
150BF
330
1509C
100
AcDbEntity
  8
标注
 62
     0
370
    -2
100
AcDbLine
 10
15842.60341673006
 20
485.8489408972165
 30
0.0
 11
16064.22777270386
 21
485.8489408972165
 31
0.0
  0
LINE
  5
150C0
330
1509C
100
AcDbEntity
  8
标注
 62
     0
370
    -2
100
AcDbLine
 10
15842.60341673006
 20
55.84894089721661
 30
0.0
 11
16064.22777270386
 21
55.84894089721654
 31
0.0
  0
LINE
  5
150C1
330
1509C
100
AcDbEntity
  8
标注
 62
     0
370
    -2
100
AcDbLine
 10
16062.97777270386
 20
473.8489408972164
 30
0.0
 11
16062.97777270386
 21
67.84894089721653
 31
0.0
  0
SOLID
  5
150C2
330
1509C
100
AcDbEntity
  8
标注
 62
     0
100
AcDbTrace
 10
16060.97777270386
 20
473.8489408972164
 30
0.0
 11
16064.97777270386
 21
473.8489408972164
 31
0.0
 12
16062.97777270386
 22
485.8489408972165
 32
0.0
 13
16062.97777270386
 23
485.8489408972165
 33
0.0
  0
SOLID
  5
150C3
330
1509C
100
AcDbEntity
  8
标注
 62
     0
100
AcDbTrace
 10
16060.97777270386
 20
67.84894089721653
 30
0.0
 11
16064.97777270386
 21
67.84894089721653
 31
0.0
 12
16062.97777270386
 22
55.84894089721654
 32
0.0
 13
16062.97777270386
 23
55.84894089721654
 33
0.0
  0
MTEXT
  5
150C4
330
1509C
100
AcDbEntity
  8
标注
 62
     0
100
AcDbMText
 10
16050.47777270386
 20
270.8489408972192
 30
0.0
 40
15.0
 41
0.0
 71
     5
 72
     1
  1
430
 11
0.0000000000000001
 21
1.0
 31
0.0
 73
     1
 44
1.0
1001
ACAD
1000
MTEXTBEGIN
1070
    73
1070
     1
1070
    44
1040
1.0
1070
    74
1070
     0
1000
MTEXTEND
  0
POINT
  5
150C5
330
1509C
100
AcDbEntity
  8
Defpoints
 62
     0
100
AcDbPoint
 10
15835.60341673006
 20
485.8489408972165
 30
0.0
  0
POINT
  5
150C6
330
1509C
100
AcDbEntity
  8
Defpoints
 62
     0
100
AcDbPoint
 10
15835.60341673006
 20
55.84894089721661
 30
0.0
  0
POINT
  5
150C7
330
1509C
100
AcDbEntity
  8
Defpoints
 62
     0
100
AcDbPoint
 10
16062.97777270386
 20
55.84894089721654
 30
0.0
  0
ENDBLK
  5
150A7
330
1509C
100
AcDbEntity
  8
0
100
AcDbBlockEnd
  0
BLOCK
  5
150BD
330
150B1
100
AcDbEntity
  8
0
100
AcDbBlockBegin
  2
*D43
 70
     1
 10
0.0
 20
0.0
 30
0.0
  3
*D43
  1

  0
LINE
  5
15200
330
150B1
100
AcDbEntity
  8
标注
 62
     0
370
    -2
100
AcDbLine
 10
15544.10341673006
 20
54.8489408972166
 30
0.0
 11
15512.72927108119
 21
54.84894089721661
 31
0.0
  0
LINE
  5
15201
330
150B1
100
AcDbEntity
  8
标注
 62
     0
370
    -2
100
AcDbLine
 10
15544.10341673006
 20
61.84894089721661
 30
0.0
 11
15512.72927108119
 21
61.84894089721661
 31
0.0
  0
LINE
  5
15202
330
150B1
100
AcDbEntity
  8
标注
 62
     0
370
    -2
100
AcDbLine
 10
15513.97927108119
 20
42.84894089721661
 30
0.0
 11
15513.97927108119
 21
30.84894089721661
 31
0.0
  0
LINE
  5
15203
330
150B1
100
AcDbEntity
  8
标注
 62
     0
370
    -2
100
AcDbLine
 10
15513.97927108119
 20
73.84894089721662
 30
0.0
 11
15513.97927108119
 21
105.8489408972166
 31
0.0
  0
LINE
  5
15204
330
150B1
100
AcDbEntity
  8
标注
 62
     0
370
    -2
100
AcDbLine
 10
15513.97927108119
 20
54.84894089721661
 30
0.0
 11
15513.97927108119
 21
61.84894089721661
 31
0.0
  0
SOLID
  5
15205
330
150B1
100
AcDbEntity
  8
标注
 62
     0
100
AcDbTrace
 10
15511.97927108119
 20
42.84894089721661
 30
0.0
 11
15515.97927108119
 21
42.84894089721661
 31
0.0
 12
15513.97927108119
 22
54.84894089721661
 32
0.0
 13
15513.97927108119
 23
54.84894089721661
 33
0.0
  0
SOLID
  5
15206
330
150B1
100
AcDbEntity
  8
标注
 62
     0
100
AcDbTrace
 10
15511.97927108119
 20
73.84894089721662
 30
0.0
 11
15515.97927108119
 21
73.84894089721662
 31
0.0
 12
15513.97927108119
 22
61.84894089721661
 32
0.0
 13
15513.97927108119
 23
61.84894089721661
 33
0.0
  0
MTEXT
  5
15207
330
150B1
100
AcDbEntity
  8
标注
 62
     0
100
AcDbMText
 10
15501.47927108119
 20
95.84894089721911
 30
0.0
 40
15.0
 41
0.0
 71
     5
 72
     1
  1
7
 11
0.0000000000000001
 21
1.0
 31
0.0
 73
     1
 44
1.0
1001
ACAD
1000
MTEXTBEGIN
1070
    73
1070
     1
1070
    44
1040
1.0
1070
    74
1070
     0
1000
MTEXTEND
  0
POINT
  5
15208
330
150B1
100
AcDbEntity
  8
Defpoints
 62
     0
100
AcDbPoint
 10
15551.10341673006
 20
54.8489408972166
 30
0.0
  0
POINT
  5
15209
330
150B1
100
AcDbEntity
  8
Defpoints
 62
     0
100
AcDbPoint
 10
15551.10341673006
 20
61.84894089721661
 30
0.0
  0
POINT
  5
1520A
330
150B1
100
AcDbEntity
  8
Defpoints
 62
     0
100
AcDbPoint
 10
15513.97927108119
 20
61.84894089721661
 30
0.0
  0
ENDBLK
  5
150BE
330
150B1
100
AcDbEntity
  8
0
100
AcDbBlockEnd
  0
BLOCK
  5
150D2
330
150C8
100
AcDbEntity
  8
0
100
AcDbBlockBegin
  2
*D44
 70
     1
 10
0.0
 20
0.0
 30
0.0
  3
*D44
  1

  0
LINE
  5
150F6
330
150C8
100
AcDbEntity
  8
标注
 62
     0
370
    -2
100
AcDbLine
 10
15192.60341673006
 20
128.8489408972166
 30
0.0
 11
15192.60341673006
 21
-5.641029071361799
 31
0.0
  0
LINE
  5
150F7
330
150C8
100
AcDbEntity
  8
标注
 62
     0
370
    -2
100
AcDbLine
 10
15909.60341673006
 20
128.8489408972166
 30
0.0
 11
15909.60341673006
 21
-5.641029071361799
 31
0.0
  0
LINE
  5
150F8
330
150C8
100
AcDbEntity
  8
标注
 62
     0
370
    -2
100
AcDbLine
 10
15204.60341673006
 20
-4.391029071361798
 30
0.0
 11
15897.60341673006
 21
-4.391029071361798
 31
0.0
  0
SOLID
  5
150F9
330
150C8
100
AcDbEntity
  8
标注
 62
     0
100
AcDbTrace
 10
15204.60341673006
 20
-2.391029071361798
 30
0.0
 11
15204.60341673006
 21
-6.391029071361799
 31
0.0
 12
15192.60341673006
 22
-4.391029071361798
 32
0.0
 13
15192.60341673006
 23
-4.391029071361798
 33
0.0
  0
SOLID
  5
150FA
330
150C8
100
AcDbEntity
  8
标注
 62
     0
100
AcDbTrace
 10
15897.60341673006
 20
-2.391029071361798
 30
0.0
 11
15897.60341673006
 21
-6.391029071361799
 31
0.0
 12
15909.60341673006
 22
-4.391029071361798
 32
0.0
 13
15909.60341673006
 23
-4.391029071361798
 33
0.0
  0
MTEXT
  5
150FB
330
150C8
100
AcDbEntity
  8
标注
 62
     0
100
AcDbMText
 10
15551.10341673006
 20
8.1089709286382
 30
0.0
 40
15.0
 41
0.0
 71
     5
 72
     1
  1
717
 73
     1
 44
1.0
1001
ACAD
1000
MTEXTBEGIN
1070
    73
1070
     1
1070
    44
1040
1.0
1070
    74
1070
     0
1000
MTEXTEND
  0
POINT
  5
150FC
330
150C8
100
AcDbEntity
  8
Defpoints
 62
     0
100
AcDbPoint
 10
15192.60341673006
 20
135.8489408972165
 30
0.0
  0
POINT
  5
150FD
330
150C8
100
AcDbEntity
  8
Defpoints
 62
     0
100
AcDbPoint
 10
15909.60341673006
 20
135.8489408972165
 30
0.0
  0
POINT
  5
150FE
330
150C8
100
AcDbEntity
  8
Defpoints
 62
     0
100
AcDbPoint
 10
15909.60341673006
 20
-4.391029071361798
 30
0.0
  0
ENDBLK
  5
150D3
330
150C8
100
AcDbEntity
  8
0
100
AcDbBlockEnd
  0
BLOCK
  5
150DE
330
150D4
100
AcDbEntity
  8
0
100
AcDbBlockBegin
  2
*D45
 70
     1
 10
0.0
 20
0.0
 30
0.0
  3
*D45
  1

  0
LINE
  5
150ED
330
150D4
100
AcDbEntity
  8
标注
 62
     0
370
    -2
100
AcDbLine
 10
15185.60341673006
 20
128.8489408972166
 30
0.0
 11
15185.60341673006
 21
-48.61400197464013
 31
0.0
  0
LINE
  5
150EE
330
150D4
100
AcDbEntity
  8
标注
 62
     0
370
    -2
100
AcDbLine
 10
15916.60341673006
 20
128.8489408972264
 30
0.0
 11
15916.60341673006
 21
-48.61400197464013
 31
0.0
  0
LINE
  5
150EF
330
150D4
100
AcDbEntity
  8
标注
 62
     0
370
    -2
100
AcDbLine
 10
15197.60341673006
 20
-47.36400197464013
 30
0.0
 11
15904.60341673006
 21
-47.36400197464013
 31
0.0
  0
SOLID
  5
150F0
330
150D4
100
AcDbEntity
  8
标注
 62
     0
100
AcDbTrace
 10
15197.60341673006
 20
-45.36400197464013
 30
0.0
 11
15197.60341673006
 21
-49.36400197464013
 31
0.0
 12
15185.60341673006
 22
-47.36400197464013
 32
0.0
 13
15185.60341673006
 23
-47.36400197464013
 33
0.0
  0
SOLID
  5
150F1
330
150D4
100
AcDbEntity
  8
标注
 62
     0
100
AcDbTrace
 10
15904.60341673006
 20
-45.36400197464013
 30
0.0
 11
15904.60341673006
 21
-49.36400197464013
 31
0.0
 12
15916.60341673006
 22
-47.36400197464013
 32
0.0
 13
15916.60341673006
 23
-47.36400197464013
 33
0.0
  0
MTEXT
  5
150F2
330
150D4
100
AcDbEntity
  8
标注
 62
     0
100
AcDbMText
 10
15551.10341673006
 20
-34.86400197464013
 30
0.0
 40
15.0
 41
0.0
 71
     5
 72
     1
  1
731
 73
     1
 44
1.0
1001
ACAD
1000
MTEXTBEGIN
1070
    73
1070
     1
1070
    44
1040
1.0
1070
    74
1070
     0
1000
MTEXTEND
  0
POINT
  5
150F3
330
150D4
100
AcDbEntity
  8
Defpoints
 62
     0
100
AcDbPoint
 10
15185.60341673006
 20
135.8489408972165
 30
0.0
  0
POINT
  5
150F4
330
150D4
100
AcDbEntity
  8
Defpoints
 62
     0
100
AcDbPoint
 10
15916.60341673006
 20
135.8489408972264
 30
0.0
  0
POINT
  5
150F5
330
150D4
100
AcDbEntity
  8
Defpoints
 62
     0
100
AcDbPoint
 10
15916.60341673006
 20
-47.36400197464013
 30
0.0
  0
ENDBLK
  5
150DF
330
150D4
100
AcDbEntity
  8
0
100
AcDbBlockEnd
  0
BLOCK
  5
150E6
330
150E0
100
AcDbEntity
  8
0
100
AcDbBlockBegin
  2
*D46
 70
     1
 10
0.0
 20
0.0
 30
0.0
  3
*D46
  1

  0
LINE
  5
150E8
330
150E0
100
AcDbEntity
  8
标注
 62
     0
370
    -2
100
AcDbLine
 10
15287.87306585938
 20
384.2836278306859
 30
0.0
 11
15221.7824942498
 21
448.2839117700558
 31
0.0
  0
MTEXT
  5
150E9
330
150E0
100
AcDbEntity
  8
标注
 62
     0
100
AcDbMText
 10
15267.83372547741
 20
421.0895354686681
 30
0.0
 40
15.0
 41
0.0
 71
     5
 72
     1
  1
4-R73
 11
0.7183757783649333
 21
-0.6956552602105272
 31
0.0
 73
     1
 44
1.0
1001
ACAD
1000
MTEXTBEGIN
1070
    73
1070
     1
1070
    44
1040
1.0
1070
    74
1070
     0
1000
MTEXTEND
  0
SOLID
  5
150EA
330
150E0
100
AcDbEntity
  8
标注
 62
     0
100
AcDbTrace
 10
15223.17380477023
 20
449.7206633267859
 30
0.0
 11
15220.39118372938
 21
446.8471602133258
 31
0.0
 12
15213.16198490943
 22
456.631774892582
 32
0.0
 13
15213.16198490943
 23
456.631774892582
 33
0.0
  0
POINT
  5
150EB
330
150E0
100
AcDbEntity
  8
Defpoints
 62
     0
100
AcDbPoint
 10
15213.16198490943
 20
456.631774892582
 30
0.0
  0
POINT
  5
150EC
330
150E0
100
AcDbEntity
  8
Defpoints
 62
     0
100
AcDbPoint
 10
15265.60341673006
 20
405.8489408972173
 30
0.0
  0
ENDBLK
  5
150E7
330
150E0
100
AcDbEntity
  8
0
100
AcDbBlockEnd
  0
BLOCK
  5
1511E
330
15114
100
AcDbEntity
  8
0
100
AcDbBlockBegin
  2
*D47
 70
     1
 10
0.0
 20
0.0
 30
0.0
  3
*D47
  1

  0
LINE
  5
15121
330
15114
100
AcDbEntity
  8
标注
 62
     0
370
    -2
100
AcDbLine
 10
15813.60341673006
 20
479.8489408972163
 30
0.0
 11
16009.59266785085
 21
479.8489408972163
 31
0.0
  0
LINE
  5
15122
330
15114
100
AcDbEntity
  8
标注
 62
     0
370
    -2
100
AcDbLine
 10
15813.60341673006
 20
61.84894089721664
 30
0.0
 11
16009.59266785085
 21
61.84894089721659
 31
0.0
  0
LINE
  5
15123
330
15114
100
AcDbEntity
  8
标注
 62
     0
370
    -2
100
AcDbLine
 10
16008.34266785085
 20
467.8489408972163
 30
0.0
 11
16008.34266785085
 21
73.84894089721658
 31
0.0
  0
SOLID
  5
15124
330
15114
100
AcDbEntity
  8
标注
 62
     0
100
AcDbTrace
 10
16006.34266785085
 20
467.8489408972163
 30
0.0
 11
16010.34266785084
 21
467.8489408972163
 31
0.0
 12
16008.34266785085
 22
479.8489408972163
 32
0.0
 13
16008.34266785085
 23
479.8489408972163
 33
0.0
  0
SOLID
  5
15125
330
15114
100
AcDbEntity
  8
标注
 62
     0
100
AcDbTrace
 10
16006.34266785085
 20
73.84894089721658
 30
0.0
 11
16010.34266785084
 21
73.84894089721658
 31
0.0
 12
16008.34266785085
 22
61.84894089721659
 32
0.0
 13
16008.34266785085
 23
61.84894089721659
 33
0.0
  0
MTEXT
  5
15126
330
15114
100
AcDbEntity
  8
标注
 62
     0
100
AcDbMText
 10
15995.84266785084
 20
270.848940897219
 30
0.0
 40
15.0
 41
0.0
 71
     5
 72
     1
  1
418
 11
0.0000000000000001
 21
1.0
 31
0.0
 73
     1
 44
1.0
1001
ACAD
1000
MTEXTBEGIN
1070
    73
1070
     1
1070
    44
1040
1.0
1070
    74
1070
     0
1000
MTEXTEND
  0
POINT
  5
15127
330
15114
100
AcDbEntity
  8
Defpoints
 62
     0
100
AcDbPoint
 10
15806.60341673006
 20
479.8489408972163
 30
0.0
  0
POINT
  5
15128
330
15114
100
AcDbEntity
  8
Defpoints
 62
     0
100
AcDbPoint
 10
15806.60341673006
 20
61.84894089721664
 30
0.0
  0
POINT
  5
15129
330
15114
100
AcDbEntity
  8
Defpoints
 62
     0
100
AcDbPoint
 10
16008.34266785085
 20
61.84894089721659
 30
0.0
  0
ENDBLK
  5
1511F
330
15114
100
AcDbEntity
  8
0
100
AcDbBlockEnd
  0
BLOCK
  5
15136
330
1512C
100
AcDbEntity
  8
0
100
AcDbBlockBegin
  2
*D48
 70
     1
 10
0.0
 20
0.0
 30
0.0
  3
*D48
  1

  0
LINE
  5
15139
330
1512C
100
AcDbEntity
  8
标注
 62
     0
370
    -2
100
AcDbLine
 10
15813.60341673006
 20
486.8489408972163
 30
0.0
 11
16055.08588618282
 21
486.8489408972163
 31
0.0
  0
LINE
  5
1513A
330
1512C
100
AcDbEntity
  8
标注
 62
     0
370
    -2
100
AcDbLine
 10
15813.60341673006
 20
54.8489408972166
 30
0.0
 11
16055.08588618282
 21
54.84894089721652
 31
0.0
  0
LINE
  5
1513B
330
1512C
100
AcDbEntity
  8
标注
 62
     0
370
    -2
100
AcDbLine
 10
16053.83588618282
 20
474.8489408972162
 30
0.0
 11
16053.83588618282
 21
66.84894089721653
 31
0.0
  0
SOLID
  5
1513C
330
1512C
100
AcDbEntity
  8
标注
 62
     0
100
AcDbTrace
 10
16051.83588618282
 20
474.8489408972162
 30
0.0
 11
16055.83588618282
 21
474.8489408972162
 31
0.0
 12
16053.83588618282
 22
486.8489408972163
 32
0.0
 13
16053.83588618282
 23
486.8489408972163
 33
0.0
  0
SOLID
  5
1513D
330
1512C
100
AcDbEntity
  8
标注
 62
     0
100
AcDbTrace
 10
16051.83588618282
 20
66.84894089721653
 30
0.0
 11
16055.83588618282
 21
66.84894089721653
 31
0.0
 12
16053.83588618282
 22
54.84894089721652
 32
0.0
 13
16053.83588618282
 23
54.84894089721652
 33
0.0
  0
MTEXT
  5
1513E
330
1512C
100
AcDbEntity
  8
标注
 62
     0
100
AcDbMText
 10
16041.33588618282
 20
270.8489408972191
 30
0.0
 40
15.0
 41
0.0
 71
     5
 72
     1
  1
432
 11
0.0000000000000001
 21
1.0
 31
0.0
 73
     1
 44
1.0
1001
ACAD
1000
MTEXTBEGIN
1070
    73
1070
     1
1070
    44
1040
1.0
1070
    74
1070
     0
1000
MTEXTEND
  0
POINT
  5
1513F
330
1512C
100
AcDbEntity
  8
Defpoints
 62
     0
100
AcDbPoint
 10
15806.60341673006
 20
486.8489408972163
 30
0.0
  0
POINT
  5
15140
330
1512C
100
AcDbEntity
  8
Defpoints
 62
     0
100
AcDbPoint
 10
15806.60341673006
 20
54.8489408972166
 30
0.0
  0
POINT
  5
15141
330
1512C
100
AcDbEntity
  8
Defpoints
 62
     0
100
AcDbPoint
 10
16053.83588618282
 20
54.84894089721652
 30
0.0
  0
ENDBLK
  5
15137
330
1512C
100
AcDbEntity
  8
0
100
AcDbBlockEnd
  0
BLOCK
  5
1514A
330
15144
100
AcDbEntity
  8
0
100
AcDbBlockBegin
  2
*D49
 70
     1
 10
0.0
 20
0.0
 30
0.0
  3
*D49
  1

  0
LINE
  5
15153
330
15144
100
AcDbEntity
  8
标注
 62
     0
370
    -2
100
AcDbLine
 10
15301.53834953862
 20
370.7639945081382
 30
0.0
 11
15232.06472430918
 21
441.9936610627408
 31
0.0
  0
MTEXT
  5
15154
330
15144
100
AcDbEntity
  8
标注
 62
     0
100
AcDbMText
 10
15279.93935183153
 20
410.8114138762975
 30
0.0
 40
15.0
 41
0.0
 71
     5
 72
     1
  1
4-R103
 11
0.6982273892405609
 21
-0.7158760457749027
 31
0.0
 73
     1
 44
1.0
1001
ACAD
1000
MTEXTBEGIN
1070
    73
1070
     1
1070
    44
1040
1.0
1070
    74
1070
     0
1000
MTEXTEND
  0
SOLID
  5
15155
330
15144
100
AcDbEntity
  8
标注
 62
     0
100
AcDbTrace
 10
15233.49647640073
 20
443.3901158412226
 30
0.0
 11
15230.63297221763
 21
440.5972062842601
 31
0.0
 12
15223.68599563829
 22
450.5841736120401
 32
0.0
 13
15223.68599563829
 23
450.5841736120401
 33
0.0
  0
POINT
  5
15156
330
15144
100
AcDbEntity
  8
Defpoints
 62
     0
100
AcDbPoint
 10
15223.68599563829
 20
450.5841736120401
 30
0.0
  0
POINT
  5
15157
330
15144
100
AcDbEntity
  8
Defpoints
 62
     0
100
AcDbPoint
 10
15295.60341673008
 20
376.8489408972163
 30
0.0
  0
ENDBLK
  5
1514B
330
15144
100
AcDbEntity
  8
0
100
AcDbBlockEnd
  0
ENDSEC
  0
SECTION
  2
ENTITIES
  0
MTEXT
  5
510
330
1F
100
AcDbEntity
  8
标注
100
AcDbMText
 10
282.0899361677383
 20
240.138807296873
 30
0.0
 40
5.0
 41
0.0
 71
     9
 72
     1
  1

 73
     1
 44
1.0
1001
ACAD
1000
MTEXTBEGIN
1070
    73
1070
     1
1070
    44
1040
1.0
1070
    74
1070
     0
1000
MTEXTEND
  0
MTEXT
  5
51D
330
1F
100
AcDbEntity
  8
标注
100
AcDbMText
 10
280.9125566270059
 20
147.5978824274616
 30
0.0
 40
5.0
 41
0.0
 71
     9
 72
     1
  1

 73
     1
 44
1.0
1001
ACAD
1000
MTEXTBEGIN
1070
    73
1070
     1
1070
    44
1040
1.0
1070
    74
1070
     0
1000
MTEXTEND
  0
MTEXT
  5
521
330
1F
100
AcDbEntity
  8
标注
100
AcDbMText
 10
626.3569615510268
 20
229.9097588881082
 30
0.0
 40
5.0
 41
0.0
 71
     9
 72
     1
  1
   
 73
     1
 44
1.0
1001
ACAD
1000
ACAD_MTEXT_DEFINED_HEIGHT_BEGIN
1070
    46
1040
0.0
1000
ACAD_MTEXT_DEFINED_HEIGHT_END
1000
MTEXTBEGIN
1070
    73
1070
     1
1070
    44
1040
1.0
1070
    74
1070
     0
1000
MTEXTEND
  0
MTEXT
  5
6FC
330
1F
100
AcDbEntity
  8
标注
100
AcDbMText
 10
1403.125593661934
 20
-487.2618478318454
 30
0.0
 40
5.0
 41
0.0
 71
     9
 72
     1
  1

 73
     1
 44
1.0
1001
ACAD
1000
MTEXTBEGIN
1070
    73
1070
     1
1070
    44
1040
1.0
1070
    74
1070
     0
1000
MTEXTEND
  0
MTEXT
  5
6FF
330
1F
100
AcDbEntity
  8
标注
100
AcDbMText
 10
1401.948214121202
 20
-579.8027727012566
 30
0.0
 40
5.0
 41
0.0
 71
     9
 72
     1
  1

 73
     1
 44
1.0
1001
ACAD
1000
MTEXTBEGIN
1070
    73
1070
     1
1070
    44
1040
1.0
1070
    74
1070
     0
1000
MTEXTEND
  0
MTEXT
  5
703
330
1F
100
AcDbEntity
  8
标注
100
AcDbMText
 10
628.2308568545297
 20
-319.8888468286898
 30
0.0
 40
5.0
 41
0.0
 71
     9
 72
     1
  1
 
 73
     1
 44
1.0
1001
ACAD
1000
ACAD_MTEXT_DEFINED_HEIGHT_BEGIN
1070
    46
1040
0.0
1000
ACAD_MTEXT_DEFINED_HEIGHT_END
1000
MTEXTBEGIN
1070
    73
1070
     1
1070
    44
1040
1.0
1070
    74
1070
     0
1000
MTEXTEND
  0
MTEXT
  5
881
330
1F
100
AcDbEntity
  8
标注
100
AcDbMText
 10
720.1646065995658
 20
-489.9779003373106
 30
0.0
 40
5.0
 41
0.0
 71
     9
 72
     1
  1
 
 73
     1
 44
1.0
1001
ACAD
1000
ACAD_MTEXT_DEFINED_HEIGHT_BEGIN
1070
    46
1040
0.0
1000
ACAD_MTEXT_DEFINED_HEIGHT_END
1000
MTEXTBEGIN
1070
    73
1070
     1
1070
    44
1040
1.0
1070
    74
1070
     0
1000
MTEXTEND
  0
MTEXT
  5
90E
330
1F
100
AcDbEntity
  8
标注
100
AcDbMText
 10
628.2884368172481
 20
-492.4204033921362
 30
0.0
 40
5.0
 41
0.0
 71
     9
 72
     1
  1
 
 73
     1
 44
1.0
1001
ACAD
1000
ACAD_MTEXT_DEFINED_HEIGHT_BEGIN
1070
    46
1040
0.0
1000
ACAD_MTEXT_DEFINED_HEIGHT_END
1000
MTEXTBEGIN
1070
    73
1070
     1
1070
    44
1040
1.0
1070
    74
1070
     0
1000
MTEXTEND
  0
MTEXT
  5
E64
330
1F
100
AcDbEntity
  8
标注
100
AcDbMText
 10
337.6685302551534
 20
-323.3693333124115
 30
0.0
 40
5.0
 41
0.0
 71
     9
 72
     1
  1
 
 73
     1
 44
1.0
1001
ACAD
1000
ACAD_MTEXT_DEFINED_HEIGHT_BEGIN
1070
    46
1040
0.0
1000
ACAD_MTEXT_DEFINED_HEIGHT_END
1000
MTEXTBEGIN
1070
    73
1070
     1
1070
    44
1040
1.0
1070
    74
1070
     0
1000
MTEXTEND
  0
MTEXT
  5
E7B
330
1F
100
AcDbEntity
  8
标注
100
AcDbMText
 10
680.5470246982342
 20
-710.4545210541657
 30
0.0
 40
5.0
 41
0.0
 71
     9
 72
     1
  1
 
 73
     1
 44
1.0
1001
ACAD
1000
ACAD_MTEXT_DEFINED_HEIGHT_BEGIN
1070
    46
1040
0.0
1000
ACAD_MTEXT_DEFINED_HEIGHT_END
1000
MTEXTBEGIN
1070
    73
1070
     1
1070
    44
1040
1.0
1070
    74
1070
     0
1000
MTEXTEND
  0
MTEXT
  5
17CE
330
1F
100
AcDbEntity
  8
标注
100
AcDbMText
 10
1877.649281574908
 20
650.6812675273122
 30
0.0
 40
5.0
 41
0.0
 71
     9
 72
     1
  1

 73
     1
 44
1.0
1001
ACAD
1000
MTEXTBEGIN
1070
    73
1070
     1
1070
    44
1040
1.0
1070
    74
1070
     0
1000
MTEXTEND
  0
MTEXT
  5
17D1
330
1F
100
AcDbEntity
  8
标注
100
AcDbMText
 10
1876.471902034175
 20
558.1403426579008
 30
0.0
 40
5.0
 41
0.0
 71
     9
 72
     1
  1

 73
     1
 44
1.0
1001
ACAD
1000
MTEXTBEGIN
1070
    73
1070
     1
1070
    44
1040
1.0
1070
    74
1070
     0
1000
MTEXTEND
  0
MTEXT
  5
17D5
330
1F
100
AcDbEntity
  8
标注
100
AcDbMText
 10
2221.916306958196
 20
640.4522191185474
 30
0.0
 40
5.0
 41
0.0
 71
     9
 72
     1
  1
   
 73
     1
 44
1.0
1001
ACAD
1000
ACAD_MTEXT_DEFINED_HEIGHT_BEGIN
1070
    46
1040
0.0
1000
ACAD_MTEXT_DEFINED_HEIGHT_END
1000
MTEXTBEGIN
1070
    73
1070
     1
1070
    44
1040
1.0
1070
    74
1070
     0
1000
MTEXTEND
  0
MTEXT
  5
19DC
330
1F
100
AcDbEntity
  8
0
100
AcDbMText
 10
2585.17258365122
 20
1117.830636119619
 30
0.0
 40
41.3946489528
 41
481.8248223073598
 71
     1
 72
     5
  1
 
 73
     1
 44
1.0
1001
ACAD
1000
ACAD_MTEXT_DEFINED_HEIGHT_BEGIN
1070
    46
1040
0.0
1000
ACAD_MTEXT_DEFINED_HEIGHT_END
1000
MTEXTBEGIN
1070
    73
1070
     1
1070
    44
1040
1.0
1070
    74
1070
     0
1000
MTEXTEND
  0
MTEXT
  5
1D46
330
1F
100
AcDbEntity
  8
标注
100
AcDbMText
 10
2910.473603813818
 20
532.2145264034807
 30
0.0
 40
5.0
 41
0.0
 71
     9
 72
     1
  1

 73
     1
 44
1.0
1001
ACAD
1000
MTEXTBEGIN
1070
    73
1070
     1
1070
    44
1040
1.0
1070
    74
1070
     0
1000
MTEXTEND
  0
MTEXT
  5
1D49
330
1F
100
AcDbEntity
  8
标注
100
AcDbMText
 10
2909.296224273086
 20
439.6736015340692
 30
0.0
 40
5.0
 41
0.0
 71
     9
 72
     1
  1

 73
     1
 44
1.0
1001
ACAD
1000
MTEXTBEGIN
1070
    73
1070
     1
1070
    44
1040
1.0
1070
    74
1070
     0
1000
MTEXTEND
  0
MTEXT
  5
1D4D
330
1F
100
AcDbEntity
  8
标注
100
AcDbMText
 10
3254.740629197107
 20
521.9854779947159
 30
0.0
 40
5.0
 41
0.0
 71
     9
 72
     1
  1
   
 73
     1
 44
1.0
1001
ACAD
1000
ACAD_MTEXT_DEFINED_HEIGHT_BEGIN
1070
    46
1040
0.0
1000
ACAD_MTEXT_DEFINED_HEIGHT_END
1000
MTEXTBEGIN
1070
    73
1070
     1
1070
    44
1040
1.0
1070
    74
1070
     0
1000
MTEXTEND
  0
MTEXT
  5
23BB
330
1F
100
AcDbEntity
  8
标注
100
AcDbMText
 10
3116.036673296511
 20
1511.465196282233
 30
0.0
 40
5.0
 41
0.0
 71
     9
 72
     1
  1

 73
     1
 44
1.0
1001
ACAD
1000
MTEXTBEGIN
1070
    73
1070
     1
1070
    44
1040
1.0
1070
    74
1070
     0
1000
MTEXTEND
  0
MTEXT
  5
23BE
330
1F
100
AcDbEntity
  8
标注
100
AcDbMText
 10
3114.859293755778
 20
1418.924271412822
 30
0.0
 40
5.0
 41
0.0
 71
     9
 72
     1
  1

 73
     1
 44
1.0
1001
ACAD
1000
MTEXTBEGIN
1070
    73
1070
     1
1070
    44
1040
1.0
1070
    74
1070
     0
1000
MTEXTEND
  0
MTEXT
  5
23C2
330
1F
100
AcDbEntity
  8
标注
100
AcDbMText
 10
3460.3036986798
 20
1501.236147873468
 30
0.0
 40
5.0
 41
0.0
 71
     9
 72
     1
  1
   
 73
     1
 44
1.0
1001
ACAD
1000
ACAD_MTEXT_DEFINED_HEIGHT_BEGIN
1070
    46
1040
0.0
1000
ACAD_MTEXT_DEFINED_HEIGHT_END
1000
MTEXTBEGIN
1070
    73
1070
     1
1070
    44
1040
1.0
1070
    74
1070
     0
1000
MTEXTEND
  0
MTEXT
  5
283F
330
1F
100
AcDbEntity
  8
标注
100
AcDbMText
 10
4304.339002184541
 20
-287.5323618107095
 30
0.0
 40
5.0
 41
0.0
 71
     9
 72
     1
  1

 73
     1
 44
1.0
1001
ACAD
1000
MTEXTBEGIN
1070
    73
1070
     1
1070
    44
1040
1.0
1070
    74
1070
     0
1000
MTEXTEND
  0
MTEXT
  5
2842
330
1F
100
AcDbEntity
  8
标注
100
AcDbMText
 10
4303.161622643808
 20
-380.0732866801208
 30
0.0
 40
5.0
 41
0.0
 71
     9
 72
     1
  1

 73
     1
 44
1.0
1001
ACAD
1000
MTEXTBEGIN
1070
    73
1070
     1
1070
    44
1040
1.0
1070
    74
1070
     0
1000
MTEXTEND
  0
MTEXT
  5
2846
330
1F
100
AcDbEntity
  8
标注
100
AcDbMText
 10
3529.444265377136
 20
-120.1593608075538
 30
0.0
 40
5.0
 41
0.0
 71
     9
 72
     1
  1
 
 73
     1
 44
1.0
1001
ACAD
1000
ACAD_MTEXT_DEFINED_HEIGHT_BEGIN
1070
    46
1040
0.0
1000
ACAD_MTEXT_DEFINED_HEIGHT_END
1000
MTEXTBEGIN
1070
    73
1070
     1
1070
    44
1040
1.0
1070
    74
1070
     0
1000
MTEXTEND
  0
MTEXT
  5
2889
330
1F
100
AcDbEntity
  8
标注
100
AcDbMText
 10
3238.88193877776
 20
-123.6398472912756
 30
0.0
 40
5.0
 41
0.0
 71
     9
 72
     1
  1
 
 73
     1
 44
1.0
1001
ACAD
1000
ACAD_MTEXT_DEFINED_HEIGHT_BEGIN
1070
    46
1040
0.0
1000
ACAD_MTEXT_DEFINED_HEIGHT_END
1000
MTEXTBEGIN
1070
    73
1070
     1
1070
    44
1040
1.0
1070
    74
1070
     0
1000
MTEXTEND
  0
MTEXT
  5
2BAB
330
1F
100
AcDbEntity
  8
标注
100
AcDbMText
 10
6066.520550622712
 20
-19.9534122301302
 30
0.0
 40
5.0
 41
0.0
 71
     9
 72
     1
  1

 73
     1
 44
1.0
1001
ACAD
1000
MTEXTBEGIN
1070
    73
1070
     1
1070
    44
1040
1.0
1070
    74
1070
     0
1000
MTEXTEND
  0
MTEXT
  5
2BAE
330
1F
100
AcDbEntity
  8
标注
100
AcDbMText
 10
6065.34317108198
 20
-112.4943370995415
 30
0.0
 40
5.0
 41
0.0
 71
     9
 72
     1
  1

 73
     1
 44
1.0
1001
ACAD
1000
MTEXTBEGIN
1070
    73
1070
     1
1070
    44
1040
1.0
1070
    74
1070
     0
1000
MTEXTEND
  0
MTEXT
  5
2BB2
330
1F
100
AcDbEntity
  8
标注
100
AcDbMText
 10
5291.625813815307
 20
147.4195887730254
 30
0.0
 40
5.0
 41
0.0
 71
     9
 72
     1
  1
 
 73
     1
 44
1.0
1001
ACAD
1000
ACAD_MTEXT_DEFINED_HEIGHT_BEGIN
1070
    46
1040
0.0
1000
ACAD_MTEXT_DEFINED_HEIGHT_END
1000
MTEXTBEGIN
1070
    73
1070
     1
1070
    44
1040
1.0
1070
    74
1070
     0
1000
MTEXTEND
  0
MTEXT
  5
2BF5
330
1F
100
AcDbEntity
  8
标注
100
AcDbMText
 10
5001.06348721593
 20
143.9391022893037
 30
0.0
 40
5.0
 41
0.0
 71
     9
 72
     1
  1
 
 73
     1
 44
1.0
1001
ACAD
1000
ACAD_MTEXT_DEFINED_HEIGHT_BEGIN
1070
    46
1040
0.0
1000
ACAD_MTEXT_DEFINED_HEIGHT_END
1000
MTEXTBEGIN
1070
    73
1070
     1
1070
    44
1040
1.0
1070
    74
1070
     0
1000
MTEXTEND
  0
MTEXT
  5
3046
330
1F
100
AcDbEntity
  8
标注
100
AcDbMText
 10
1015.444447121705
 20
-600.3157535292248
 30
0.0
 40
5.0
 41
0.0
 71
     9
 72
     1
  1

 73
     1
 44
1.0
1001
ACAD
1000
MTEXTBEGIN
1070
    73
1070
     1
1070
    44
1040
1.0
1070
    74
1070
     0
1000
MTEXTEND
  0
MTEXT
  5
3050
330
1F
100
AcDbEntity
  8
标注
100
AcDbMText
 10
1064.152296274431
 20
-1253.862579405419
 30
0.0
 40
5.0
 41
0.0
 71
     9
 72
     1
  1

 73
     1
 44
1.0
1001
ACAD
1000
MTEXTBEGIN
1070
    73
1070
     1
1070
    44
1040
1.0
1070
    74
1070
     0
1000
MTEXTEND
  0
MTEXT
  5
305C
330
1F
100
AcDbEntity
  8
标注
100
AcDbMText
 10
1003.283203238649
 20
-589.5729540541087
 30
0.0
 40
5.0
 41
0.0
 71
     9
 72
     1
  1

 73
     1
 44
1.0
1001
ACAD
1000
MTEXTBEGIN
1070
    73
1070
     1
1070
    44
1040
1.0
1070
    74
1070
     0
1000
MTEXTEND
  0
MTEXT
  5
547E
330
1F
100
AcDbEntity
  8
0
100
AcDbMText
 10
6223.058562618327
 20
1095.766656553162
 30
0.0
 40
41.3946489528
 41
481.8248223073598
 71
     1
 72
     5
  1
 
 73
     1
 44
1.0
1001
ACAD
1000
ACAD_MTEXT_DEFINED_HEIGHT_BEGIN
1070
    46
1040
0.0
1000
ACAD_MTEXT_DEFINED_HEIGHT_END
1000
MTEXTBEGIN
1070
    73
1070
     1
1070
    44
1040
1.0
1070
    74
1070
     0
1000
MTEXTEND
  0
MTEXT
  5
6738
330
1F
100
AcDbEntity
  8
0
100
AcDbMText
 10
9457.08540508879
 20
1063.785595938522
 30
0.0
 40
41.3946489528
 41
481.8248223073598
 71
     1
 72
     5
  1
  
 73
     1
 44
1.0
1001
ACAD
1000
ACAD_MTEXT_DEFINED_HEIGHT_BEGIN
1070
    46
1040
0.0
1000
ACAD_MTEXT_DEFINED_HEIGHT_END
1000
MTEXTBEGIN
1070
    73
1070
     1
1070
    44
1040
1.0
1070
    74
1070
     0
1000
MTEXTEND
  0
MTEXT
  5
932C
330
1F
100
AcDbEntity
  8
标注
100
AcDbMText
 10
5887.541165992261
 20
-2926.132199290157
 30
0.0
 40
24.0
 41
0.0
 71
     1
 72
     1
  1

 73
     1
 44
1.0
1001
ACAD
1000
MTEXTBEGIN
1070
    73
1070
     1
1070
    44
1040
1.0
1070
    74
1070
     0
1000
MTEXTEND
  0
MTEXT
  5
BF67
330
1F
100
AcDbEntity
  8
0
100
AcDbMText
 10
7635.99043928493
 20
531.7267205580264
 30
0.0
 40
24.0
 41
0.0
 71
     9
 72
     1
  1

 73
     1
 44
1.0
1001
ACAD
1000
MTEXTBEGIN
1070
    73
1070
     1
1070
    44
1040
1.0
1070
    74
1070
     0
1000
MTEXTEND
  0
MTEXT
  5
BF99
330
1F
100
AcDbEntity
  8
0
100
AcDbMText
 10
7040.041352028719
 20
3359.932095572536
 30
0.0
 40
24.0
 41
0.0
 71
     9
 72
     1
  1

 73
     1
 44
1.0
1001
ACAD
1000
MTEXTBEGIN
1070
    73
1070
     1
1070
    44
1040
1.0
1070
    74
1070
     0
1000
MTEXTEND
  0
MTEXT
  5
BFBC
330
1F
100
AcDbEntity
  8
0
100
AcDbMText
 10
6802.78716598269
 20
592.770837084361
 30
0.0
 40
24.0
 41
0.0
 71
     9
 72
     1
  1

 73
     1
 44
1.0
1001
ACAD
1000
MTEXTBEGIN
1070
    73
1070
     1
1070
    44
1040
1.0
1070
    74
1070
     0
1000
MTEXTEND
  0
MTEXT
  5
BFFB
330
1F
100
AcDbEntity
  8
0
100
AcDbMText
 10
7064.427983663954
 20
537.0148232769422
 30
0.0
 40
24.0
 41
0.0
 71
     9
 72
     1
  1

 73
     1
 44
1.0
1001
ACAD
1000
MTEXTBEGIN
1070
    73
1070
     1
1070
    44
1040
1.0
1070
    74
1070
     0
1000
MTEXTEND
  0
MTEXT
  5
C661
330
1F
100
AcDbEntity
  8
0
100
AcDbMText
 10
10630.52996123567
 20
512.8535462744021
 30
0.0
 40
24.0
 41
0.0
 71
     9
 72
     1
  1

 73
     1
 44
1.0
1001
ACAD
1000
MTEXTBEGIN
1070
    73
1070
     1
1070
    44
1040
1.0
1070
    74
1070
     0
1000
MTEXTEND
  0
MTEXT
  5
C668
330
1F
100
AcDbEntity
  8
0
100
AcDbMText
 10
10034.58087397946
 20
3341.058921288912
 30
0.0
 40
24.0
 41
0.0
 71
     9
 72
     1
  1

 73
     1
 44
1.0
1001
ACAD
1000
MTEXTBEGIN
1070
    73
1070
     1
1070
    44
1040
1.0
1070
    74
1070
     0
1000
MTEXTEND
  0
LINE
  5
15072
330
1F
100
AcDbEntity
  8
虚线
100
AcDbLine
 10
15909.60341673006
 20
376.8489408972171
 30
0.0
 11
15909.60341673006
 21
164.8489408972174
 31
0.0
  0
LINE
  5
15073
330
1F
100
AcDbEntity
  8
0
100
AcDbLine
 10
15916.60341673006
 20
376.848940897218
 30
0.0
 11
15916.60341673006
 21
164.8489408972174
 31
0.0
  0
LINE
  5
15074
102
{ACAD_REACTORS
330
1512A
102
}
330
1F
100
AcDbEntity
  8
虚线
100
AcDbLine
 10
15806.60341673006
 20
61.84894089721663
 30
0.0
 11
15295.60341673006
 21
61.84894089721661
 31
0.0
  0
LINE
  5
15075
330
1F
100
AcDbEntity
  8
0
100
AcDbLine
 10
15806.60341673006
 20
54.8489408972166
 30
0.0
 11
15295.60341673006
 21
54.8489408972166
 31
0.0
  0
LINE
  5
15076
330
1F
100
AcDbEntity
  8
虚线
100
AcDbLine
 10
15192.60341673006
 20
164.8489408972166
 30
0.0
 11
15192.60341673006
 21
376.8489408972163
 31
0.0
  0
LINE
  5
15077
330
1F
100
AcDbEntity
  8
0
100
AcDbLine
 10
15185.60341673006
 20
164.8489408972166
 30
0.0
 11
15185.60341673006
 21
376.8489408972166
 31
0.0
  0
LINE
  5
15078
330
1F
100
AcDbEntity
  8
虚线
100
AcDbLine
 10
15295.60341673006
 20
479.8489408972163
 30
0.0
 11
15806.60341673006
 21
479.8489408972163
 31
0.0
  0
LINE
  5
15079
330
1F
100
AcDbEntity
  8
0
100
AcDbLine
 10
15295.60341673006
 20
486.8489408972164
 30
0.0
 11
15806.60341673006
 21
486.8489408972163
 31
0.0
  0
DIMENSION
  5
1507B
330
1F
100
AcDbEntity
  8
标注
100
AcDbDimension
  2
*D43
 10
15513.97927108119
 20
61.84894089721661
 30
0.0
 11
15501.47927108119
 21
95.84894089721911
 31
0.0
 70
    32
 71
     5
 42
7.0
  3
mav
100
AcDbAlignedDimension
 13
15551.10341673006
 23
54.8489408972166
 33
0.0
 14
15551.10341673006
 24
61.84894089721661
 34
0.0
 50
90.0
100
AcDbRotatedDimension
  0
DIMENSION
  5
15087
330
1F
100
AcDbEntity
  8
标注
100
AcDbDimension
  2
*D44
 10
15909.60341673006
 20
-4.391029071361798
 30
0.0
 11
15551.10341673006
 21
8.1089709286382
 31
0.0
 70
    32
 71
     5
 42
717.0
  3
mav
100
AcDbAlignedDimension
 13
15192.60341673006
 23
135.8489408972165
 33
0.0
 14
15909.60341673006
 24
135.8489408972165
 34
0.0
100
AcDbRotatedDimension
  0
DIMENSION
  5
1508A
330
1F
100
AcDbEntity
  8
标注
100
AcDbDimension
  2
*D45
 10
15916.60341673006
 20
-47.36400197464013
 30
0.0
 11
15551.10341673006
 21
-34.86400197464013
 31
0.0
 70
    32
 71
     5
 42
731.0000000000017
  3
mav
100
AcDbAlignedDimension
 13
15185.60341673006
 23
135.8489408972165
 33
0.0
 14
15916.60341673006
 24
135.8489408972264
 34
0.0
100
AcDbRotatedDimension
  0
ARC
  5
1510A
330
1F
100
AcDbEntity
  8
虚线
100
AcDbCircle
 10
15295.60341673006
 20
164.8489408972166
 30
0.0
 40
103.0
100
AcDbArc
 50
180.0
 51
270.0
  0
ARC
  5
1510B
102
{ACAD_REACTORS
330
15152
102
}
330
1F
100
AcDbEntity
  8
虚线
100
AcDbCircle
 10
15295.60341673006
 20
376.8489408972163
 30
0.0
 40
103.0
100
AcDbArc
 50
90.0
 51
180.0
  0
ARC
  5
1510D
102
{ACAD_REACTORS
330
1512A
102
}
330
1F
100
AcDbEntity
  8
虚线
100
AcDbCircle
 10
15806.60341673006
 20
376.8489408972163
 30
0.0
 40
103.0
100
AcDbArc
 50
0.0000000000003817
 51
90.0
  0
ARC
  5
1510E
330
1F
100
AcDbEntity
  8
虚线
100
AcDbCircle
 10
15806.60341673006
 20
164.8489408972166
 30
0.0
 40
103.0
100
AcDbArc
 50
270.0
 51
0.0000000000004326
  0
ARC
  5
1510F
330
1F
100
AcDbEntity
  8
0
100
AcDbCircle
 10
15295.60341673006
 20
164.8489408972166
 30
0.0
 40
110.0
100
AcDbArc
 50
180.0
 51
270.0
  0
ARC
  5
15110
330
1F
100
AcDbEntity
  8
0
100
AcDbCircle
 10
15295.60341673006
 20
376.8489408972166
 30
0.0
 40
110.0
100
AcDbArc
 50
90.0
 51
180.0
  0
ARC
  5
15111
102
{ACAD_REACTORS
330
15142
102
}
330
1F
100
AcDbEntity
  8
0
100
AcDbCircle
 10
15806.60341673006
 20
376.8489408972165
 30
0.0
 40
110.0
100
AcDbArc
 50
0.0000000000007633
 51
90.0
  0
ARC
  5
15112
102
{ACAD_REACTORS
330
15142
102
}
330
1F
100
AcDbEntity
  8
0
100
AcDbCircle
 10
15806.60341673006
 20
164.8489408972166
 30
0.0
 40
110.0
100
AcDbArc
 50
270.0
 51
0.0000000000004326
  0
DIMENSION
  5
15113
102
{ACAD_XDICTIONARY
360
15120
102
}
102
{ACAD_REACTORS
330
1512A
102
}
330
1F
100
AcDbEntity
  8
标注
100
AcDbDimension
  2
*D47
 10
16008.34266785085
 20
61.84894089721659
 30
0.0
 11
15995.84266785084
 21
270.848940897219
 31
0.0
 70
    32
 71
     5
 42
417.9999999999997
  3
mav
100
AcDbAlignedDimension
 13
15806.60341673006
 23
479.8489408972163
 33
0.0
 14
15806.60341673006
 24
61.84894089721664
 34
0.0
 50
90.0
100
AcDbRotatedDimension
  0
DIMENSION
  5
1512B
102
{ACAD_XDICTIONARY
360
15138
102
}
102
{ACAD_REACTORS
330
15142
102
}
330
1F
100
AcDbEntity
  8
标注
100
AcDbDimension
  2
*D48
 10
16053.83588618282
 20
54.84894089721652
 30
0.0
 11
16041.33588618282
 21
270.8489408972191
 31
0.0
 70
    32
 71
     5
 42
431.9999999999998
  3
mav
100
AcDbAlignedDimension
 13
15806.60341673006
 23
486.8489408972163
 33
0.0
 14
15806.60341673006
 24
54.8489408972166
 34
0.0
 50
90.0
100
AcDbRotatedDimension
  0
DIMENSION
  5
15143
102
{ACAD_XDICTIONARY
360
1514C
102
}
102
{ACAD_REACTORS
330
15152
102
}
330
1F
100
AcDbEntity
  8
标注
100
AcDbDimension
  2
*D49
 10
15295.60341673008
 20
376.8489408972163
 30
0.0
 11
15270.99090125934
 21
402.0835715107905
 31
0.0
 70
   164
  1
4-<>
 71
     5
 42
103.0000000000127
  3
mav
100
AcDbRadialDimension
 15
15223.68599563829
 25
450.5841736120401
 35
0.0
 40
0.0
1001
ACAD
1000
DSTYLE
1002
{
1070
   288
1070
     1
1002
}
  0
ENDSEC
  0
SECTION
  2
OBJECTS
  0
DICTIONARY
  5
C
330
0
100
AcDbDictionary
281
     1
  3
ACAD_COLOR
350
6B
  3
ACAD_GROUP
350
D
  3
ACAD_LAYOUT
350
1A
  3
ACAD_MATERIAL
350
6A
  3
ACAD_MLINESTYLE
350
17
  3
ACAD_PLOTSETTINGS
350
19
  3
ACAD_PLOTSTYLENAME
350
E
  3
ACAD_TABLESTYLE
350
7E
  3
AcadDim
350
9085
  3
ACDBHEADERROUNDTRIPXREC
350
1524F
  3
AcDbVariableDictionary
350
5E
  3
DWGPROPS
350
1524E
  0
DICTIONARY
  5
102
330
2
100
AcDbDictionary
280
     1
281
     1
  3
ACAD_LAYERFILTERS
360
14924
  3
ACLYDICTIONARY
360
14923
  0
DICTIONARY
  5
F9
330
1F
100
AcDbDictionary
280
     1
281
     1
  3
ACAD_SORTENTS
360
FA
  0
DICTIONARY
  5
182
330
17B
100
AcDbDictionary
280
     1
281
     1
  3
ACAD_SORTENTS
360
183
  0
DICTIONARY
  5
2500
330
24FE
100
AcDbDictionary
280
     1
281
     1
  3
ACAD_SORTENTS
360
2501
  0
DICTIONARY
  5
2DDE
330
2DD9
100
AcDbDictionary
280
     1
281
     1
  3
ACAD_SORTENTS
360
2DDF
  0
DICTIONARY
  5
317C
330
3160
100
AcDbDictionary
280
     1
281
     1
  3
ACAD_SORTENTS
360
317D
  0
DICTIONARY
  5
373E
330
371C
100
AcDbDictionary
280
     1
281
     1
  3
ACAD_SORTENTS
360
373F
  0
DICTIONARY
  5
4595
330
4574
100
AcDbDictionary
280
     1
281
     1
  3
ACAD_SORTENTS
360
4596
  0
DICTIONARY
  5
A708
330
A706
100
AcDbDictionary
280
     1
281
     1
  3
ACAD_SORTENTS
360
A709
  0
DICTIONARY
  5
A77E
330
A77A
100
AcDbDictionary
280
     1
281
     1
  3
ACAD_SORTENTS
360
A77F
  0
DICTIONARY
  5
E1DE
330
E187
100
AcDbDictionary
280
     1
281
     1
  3
ACAD_SORTENTS
360
E1DF
  0
DICTIONARY
  5
3177
330
3176
100
AcDbDictionary
280
     1
281
     1
  3
ACAD_DIMASSOC
360
3178
  0
DICTIONARY
  5
317A
330
3179
100
AcDbDictionary
280
     1
281
     1
  3
ACAD_DIMASSOC
360
317B
  0
DICTIONARY
  5
3737
330
3736
100
AcDbDictionary
280
     1
281
     1
  3
ACAD_DIMASSOC
360
3738
  0
DICTIONARY
  5
E1BC
330
E1BB
100
AcDbDictionary
280
     1
281
     1
  3
ACAD_DIMASSOC
360
E1BD
  0
DICTIONARY
  5
E1BF
330
E1BE
100
AcDbDictionary
280
     1
281
     1
  3
ACAD_DIMASSOC
360
E1C0
  0
DICTIONARY
  5
E1C2
330
E1C1
100
AcDbDictionary
280
     1
281
     1
  3
ACAD_DIMASSOC
360
E1C3
  0
DICTIONARY
  5
E1C5
330
E1C4
100
AcDbDictionary
280
     1
281
     1
  3
ACAD_DIMASSOC
360
E1C6
  0
DICTIONARY
  5
E1C8
330
E1C7
100
AcDbDictionary
280
     1
281
     1
  3
ACAD_DIMASSOC
360
E1C9
  0
DICTIONARY
  5
E1CB
330
E1CA
100
AcDbDictionary
280
     1
281
     1
  3
ACAD_DIMASSOC
360
E1CC
  0
DICTIONARY
  5
E1CE
330
E1CD
100
AcDbDictionary
280
     1
281
     1
  3
ACAD_DIMASSOC
360
E1CF
  0
DICTIONARY
  5
E1D1
330
E1D0
100
AcDbDictionary
280
     1
281
     1
  3
ACAD_DIMASSOC
360
E1D2
  0
DICTIONARY
  5
E1D4
330
E1D3
100
AcDbDictionary
280
     1
281
     1
  3
ACAD_DIMASSOC
360
E1D5
  0
DICTIONARY
  5
E1D7
330
E1D6
100
AcDbDictionary
280
     1
281
     1
  3
ACAD_DIMASSOC
360
E1D8
  0
DICTIONARY
  5
E1DA
330
E1D9
100
AcDbDictionary
280
     1
281
     1
  3
ACAD_DIMASSOC
360
E1DB
  0
DICTIONARY
  5
15120
330
15113
100
AcDbDictionary
280
     1
281
     1
  3
ACAD_DIMASSOC
360
1512A
  0
DICTIONARY
  5
15138
330
1512B
100
AcDbDictionary
280
     1
281
     1
  3
ACAD_DIMASSOC
360
15142
  0
DICTIONARY
  5
1514C
330
15143
100
AcDbDictionary
280
     1
281
     1
  3
ACAD_DIMASSOC
360
15152
  0
DICTIONARY
  5
6B
102
{ACAD_REACTORS
330
C
102
}
330
C
100
AcDbDictionary
281
     1
  0
DICTIONARY
  5
D
102
{ACAD_REACTORS
330
C
102
}
330
C
100
AcDbDictionary
281
     1
  0
DICTIONARY
  5
1A
102
{ACAD_REACTORS
330
C
102
}
330
C
100
AcDbDictionary
281
     1
  3
Model
350
22
  3
布局1
350
D3
  3
布局2
350
D7
  0
DICTIONARY
  5
6A
102
{ACAD_REACTORS
330
C
102
}
330
C
100
AcDbDictionary
281
     1
  0
DICTIONARY
  5
17
102
{ACAD_REACTORS
330
C
102
}
330
C
100
AcDbDictionary
281
     1
  3
Standard
350
18
  0
DICTIONARY
  5
19
102
{ACAD_REACTORS
330
C
102
}
330
C
100
AcDbDictionary
281
     1
  3
设置1
350
AE1
  0
ACDBDICTIONARYWDFLT
  5
E
102
{ACAD_REACTORS
330
C
102
}
330
C
100
AcDbDictionary
281
     1
  3
Normal
350
F
100
AcDbDictionaryWithDefault
340
F
  0
DICTIONARY
  5
7E
102
{ACAD_REACTORS
330
C
102
}
330
C
100
AcDbDictionary
281
     1
  3
Standard
350
7F
  0
XRECORD
  5
9085
102
{ACAD_REACTORS
330
C
102
}
330
C
100
AcDbXrecord
280
     1
 90
   990106
  3

 60
     0
 61
     0
 62
     1
 63
     3
 64
     0
 65
     0
 66
     0
 67
     3
 68
     1
 69
     0
 70
     0
 71
     0
 72
     0
 40
0.0
170
     0
340
0
  0
DICTIONARY
  5
1524F
102
{ACAD_REACTORS
330
C
102
}
330
C
100
AcDbDictionary
281
     1
  0
DICTIONARY
  5
5E
102
{ACAD_REACTORS
330
C
102
}
330
C
100
AcDbDictionary
281
     1
  3
CTABLESTYLE
350
84
  3
DIMASSOC
350
5F
  3
HIDETEXT
350
63
  3
PROJECTNAME
350
14E0A
  0
XRECORD
  5
1524E
102
{ACAD_REACTORS
330
C
102
}
330
C
100
AcDbXrecord
280
     1
  1
DWGPROPS COOKIE
  2

  3

  4

  6

  7

  8
Autodesk
  9

300
=
301
=
302
=
303
=
304
=
305
=
306
=
307
=
308
=
309
=
 40
1.592987974537036
 41
2454214.684605648
 42
2454917.664769595
  1

 90
        0
  0
DICTIONARY
  5
14924
102
{ACAD_REACTORS
330
102
102
}
330
102
100
AcDbDictionary
281
     1
  0
DICTIONARY
  5
14923
102
{ACAD_REACTORS
330
102
102
}
330
102
100
AcDbDictionary
281
     1
1001
ACAD
1000
<All
  0
SORTENTSTABLE
  5
FA
102
{ACAD_REACTORS
330
F9
102
}
330
F9
100
AcDbSortentsTable
330
1F
331
E64
  5
1429
331
BFBC
  5
BFBC
331
6FC
  5
E49
331
12B6D
  5
138E4
331
14871
  5
138DD
331
14873
  5
138E1
331
C668
  5
C668
331
BF67
  5
BF67
331
BF99
  5
BF99
331
2BAB
  5
384B
331
2BF5
  5
3A24
331
283F
  5
2E02
331
1D49
  5
237D
331
E7B
  5
1591
331
1D4D
  5
23BD
331
2889
  5
2EB0
331
703
  5
E55
331
23BB
  5
2BAB
331
12B67
  5
138E2
331
881
  5
E77
331
17D1
  5
193A
331
17D5
  5
193B
331
1486F
  5
13858
331
51D
  5
918
331
521
  5
9A4
331
BFFB
  5
BFFB
331
6FF
  5
E4F
331
C661
  5
C661
331
932C
  5
932C
331
3050
  5
3A85
331
148A8
  5
14A36
331
305C
  5
3A86
331
2BAE
  5
3851
331
23C2
  5
2BB2
331
2BB2
  5
3856
331
547E
  5
547F
331
6738
  5
6739
331
1D46
  5
237C
331
2842
  5
2E03
331
2846
  5
2E04
331
3046
  5
3A84
331
12B60
  5
12F2D
331
12B62
  5
12F72
331
17CE
  5
1939
331
23BE
  5
2BAE
331
12B64
  5
138DC
331
510
  5
914
331
12B66
  5
138E0
331
1486E
  5
12F42
331
19DC
  5
1D0A
331
90E
  5
E7D
  0
SORTENTSTABLE
  5
183
102
{ACAD_REACTORS
330
182
102
}
330
182
100
AcDbSortentsTable
330
17B
  0
SORTENTSTABLE
  5
2501
102
{ACAD_REACTORS
330
2500
102
}
330
2500
100
AcDbSortentsTable
330
24FE
  0
SORTENTSTABLE
  5
2DDF
102
{ACAD_REACTORS
330
2DDE
102
}
330
2DDE
100
AcDbSortentsTable
330
2DD9
  0
SORTENTSTABLE
  5
317D
102
{ACAD_REACTORS
330
317C
102
}
330
317C
100
AcDbSortentsTable
330
3160
  0
SORTENTSTABLE
  5
373F
102
{ACAD_REACTORS
330
373E
102
}
330
373E
100
AcDbSortentsTable
330
371C
  0
SORTENTSTABLE
  5
4596
102
{ACAD_REACTORS
330
4595
102
}
330
4595
100
AcDbSortentsTable
330
4574
  0
SORTENTSTABLE
  5
A709
102
{ACAD_REACTORS
330
A708
102
}
330
A708
100
AcDbSortentsTable
330
A706
  0
SORTENTSTABLE
  5
A77F
102
{ACAD_REACTORS
330
A77E
102
}
330
A77E
100
AcDbSortentsTable
330
A77A
  0
SORTENTSTABLE
  5
E1DF
102
{ACAD_REACTORS
330
E1DE
102
}
330
E1DE
100
AcDbSortentsTable
330
E187
  0
DIMASSOC
  5
3178
102
{ACAD_REACTORS
330
3177
102
}
330
3177
100
AcDbDimAssoc
330
3176
 90
        3
 70
     0
 71
     0
  1
AcDbOsnapPointRef
 72
    13
331
3167
 73
     2
 91
        0
 40
0.0
 10
0.0
 20
0.0
 30
2.000000000000000E+50
 75
     0
  1
AcDbOsnapPointRef
 72
     8
331
3166
 73
     2
 91
        0
 40
0.0
 10
0.0
 20
0.0
 30
0.0
 75
     1
  1
AcDbOsnapPointRef
 72
    13
331
3167
 73
     2
 91
        0
 40
0.0
 10
0.0
 20
0.0
 30
2.000000000000000E+50
 75
     0
  0
DIMASSOC
  5
317B
102
{ACAD_REACTORS
330
317A
102
}
330
317A
100
AcDbDimAssoc
330
3179
 90
        3
 70
     0
 71
     0
  1
AcDbOsnapPointRef
 72
     1
331
3170
 73
     2
 91
        0
 40
1.0
 10
0.0
 20
0.0
 30
2.000000000000000E+50
 75
     0
  1
AcDbOsnapPointRef
 72
    13
331
3170
 73
     2
 91
        0
 40
0.0
 10
0.0
 20
0.0
 30
2.000000000000000E+50
 75
     0
  0
DIMASSOC
  5
3738
102
{ACAD_REACTORS
330
3737
102
}
330
3737
100
AcDbDimAssoc
330
3736
 90
        3
 70
     0
 71
     0
  1
AcDbOsnapPointRef
 72
     1
331
372E
 73
     2
 91
        0
 40
1.0
 10
0.0
 20
0.0
 30
2.000000000000000E+50
 75
     0
  1
AcDbOsnapPointRef
 72
     1
331
3731
 73
     2
 91
        0
 40
1.0
 10
0.0
 20
0.0
 30
2.000000000000000E+50
 75
     0
  0
DIMASSOC
  5
E1BD
102
{ACAD_REACTORS
330
E1BC
102
}
330
E1BC
100
AcDbDimAssoc
330
E1BB
 90
        3
 70
     0
 71
     0
  1
AcDbOsnapPointRef
 72
    13
331
E1B3
 73
     2
 91
        0
 40
0.0
 10
0.0
 20
0.0
 30
2.000000000000000E+50
 75
     0
  1
AcDbOsnapPointRef
 72
     1
331
E1B5
 73
     2
 91
        0
 40
1.0
 10
0.0
 20
0.0
 30
2.000000000000000E+50
 75
     0
  0
DIMASSOC
  5
E1C0
102
{ACAD_REACTORS
330
E1BF
102
}
330
E1BF
100
AcDbDimAssoc
330
E1BE
 90
        2
 70
     0
 71
     0
  1
AcDbOsnapPointRef
 72
     2
331
E1B7
 73
     2
 91
        5
 40
0.5
 10
0.0
 20
0.0
 30
0.0
 75
     0
  0
DIMASSOC
  5
E1C3
102
{ACAD_REACTORS
330
E1C2
102
}
330
E1C2
100
AcDbDimAssoc
330
E1C1
 90
        3
 70
     0
 71
     0
  1
AcDbOsnapPointRef
 72
     2
331
E1B8
 73
     2
 91
        4
 40
1.570796326794896
 10
0.0
 20
0.0
 30
0.0
 75
     0
  1
AcDbOsnapPointRef
 72
     2
331
E1B8
 73
     2
 91
        8
 40
0.5
 10
0.0
 20
0.0
 30
0.0
 75
     0
  0
DIMASSOC
  5
E1C6
102
{ACAD_REACTORS
330
E1C5
102
}
330
E1C5
100
AcDbDimAssoc
330
E1C4
 90
        3
 70
     0
 71
     0
  1
AcDbOsnapPointRef
 72
     2
331
E1B2
 73
     2
 91
        0
 40
0.5
 10
0.0
 20
0.0
 30
0.0
 75
     0
  1
AcDbOsnapPointRef
 72
     8
331
E1B5
 73
     2
 91
        0
 40
0.2427152470075256
 10
0.0
 20
0.0
 30
0.0
 75
     1
  1
AcDbOsnapPointRef
 72
     2
331
E1B2
 73
     2
 91
        0
 40
0.5
 10
0.0
 20
0.0
 30
0.0
 75
     0
  0
DIMASSOC
  5
E1C9
102
{ACAD_REACTORS
330
E1C8
102
}
330
E1C8
100
AcDbDimAssoc
330
E1C7
 90
        3
 70
     0
 71
     0
  1
AcDbOsnapPointRef
 72
     6
331
E1B8
 73
     2
 91
        7
 40
3.14159265358979
 10
0.0
 20
0.0
 30
0.0
332
E1B8
 74
     2
 92
        6
 75
     0
  1
AcDbOsnapPointRef
 72
     8
331
E1B8
 73
     2
 91
        2
 40
0.0000000000000073
 10
0.0
 20
0.0
 30
0.0
 75
     1
  1
AcDbOsnapPointRef
 72
     6
331
E1B8
 73
     2
 91
        7
 40
3.14159265358979
 10
0.0
 20
0.0
 30
0.0
332
E1B8
 74
     2
 92
        6
 75
     0
  0
DIMASSOC
  5
E1CC
102
{ACAD_REACTORS
330
E1CB
102
}
330
E1CB
100
AcDbDimAssoc
330
E1CA
 90
        3
 70
     0
 71
     0
  1
AcDbOsnapPointRef
 72
     1
331
E1B7
 73
     2
 91
        3
 40
1.0
 10
0.0
 20
0.0
 30
2.000000000000000E+50
 75
     0
  1
AcDbOsnapPointRef
 72
     1
331
E1B7
 73
     2
 91
        6
 40
6.283185307179584
 10
0.0
 20
0.0
 30
2.000000000000000E+50
 75
     0
  0
DIMASSOC
  5
E1CF
102
{ACAD_REACTORS
330
E1CE
102
}
330
E1CE
100
AcDbDimAssoc
330
E1CD
 90
        2
 70
     0
 71
     0
  1
AcDbOsnapPointRef
 72
     8
331
E1B4
 73
     2
 91
        0
 40
0.1600553505535057
 10
0.0
 20
0.0
 30
0.0
 75
     1
  1
AcDbOsnapPointRef
 72
     0
 40
0.0
 10
4547.412073113593
 20
91.43079388111313
 30
0.0
 75
     0
  0
DIMASSOC
  5
E1D2
102
{ACAD_REACTORS
330
E1D1
102
}
330
E1D1
100
AcDbDimAssoc
330
E1D0
 90
        1
 70
     0
 71
     0
  1
AcDbOsnapPointRef
 72
     6
331
E1B8
 73
     2
 91
        7
 40
3.14159265358979
 10
0.0
 20
0.0
 30
0.0
332
E1B8
 74
     2
 92
        6
 75
     0
  0
DIMASSOC
  5
E1D5
102
{ACAD_REACTORS
330
E1D4
102
}
330
E1D4
100
AcDbDimAssoc
330
E1D3
 90
        1
 70
     0
 71
     0
  1
AcDbOsnapPointRef
 72
    13
331
E1B8
 73
     2
 91
        2
 40
0.0
 10
0.0
 20
0.0
 30
2.000000000000000E+50
 75
     0
  0
DIMASSOC
  5
E1D8
102
{ACAD_REACTORS
330
E1D7
102
}
330
E1D7
100
AcDbDimAssoc
330
E1D6
 90
        2
 70
     0
 71
     0
  1
AcDbOsnapPointRef
 72
    13
331
E1A6
 73
     2
 91
        0
 40
0.0
 10
0.0
 20
0.0
 30
2.000000000000000E+50
 75
     0
  0
DIMASSOC
  5
E1DB
102
{ACAD_REACTORS
330
E1DA
102
}
330
E1DA
100
AcDbDimAssoc
330
E1D9
 90
        1
 70
     0
 71
     0
  1
AcDbOsnapPointRef
 72
     1
331
E19E
 73
     2
 91
        0
 40
1.0
 10
0.0
 20
0.0
 30
2.000000000000000E+50
 75
     0
  0
DIMASSOC
  5
1512A
102
{ACAD_REACTORS
330
15120
102
}
330
15120
100
AcDbDimAssoc
330
15113
 90
        3
 70
     0
 71
     0
  1
AcDbOsnapPointRef
 72
     1
331
1510D
 73
     2
 91
        0
 40
1.570796326794896
 10
0.0
 20
0.0
 30
2.000000000000000E+50
 75
     0
  1
AcDbOsnapPointRef
 72
     8
331
15074
 73
     2
 91
        0
 40
0.0000000000000036
 10
0.0
 20
0.0
 30
0.0
 75
     1
  1
AcDbOsnapPointRef
 72
     1
331
1510D
 73
     2
 91
        0
 40
1.570796326794896
 10
0.0
 20
0.0
 30
2.000000000000000E+50
 75
     0
  0
DIMASSOC
  5
15142
102
{ACAD_REACTORS
330
15138
102
}
330
15138
100
AcDbDimAssoc
330
1512B
 90
        3
 70
     0
 71
     0
  1
AcDbOsnapPointRef
 72
     1
331
15111
 73
     2
 91
        0
 40
1.570796326794896
 10
0.0
 20
0.0
 30
2.000000000000000E+50
 75
     0
  1
AcDbOsnapPointRef
 72
    13
331
15112
 73
     2
 91
        0
 40
4.712388980384688
 10
0.0
 20
0.0
 30
2.000000000000000E+50
 75
     0
  0
DIMASSOC
  5
15152
102
{ACAD_REACTORS
330
1514C
102
}
330
1514C
100
AcDbDimAssoc
330
15143
 90
        2
 70
     0
 71
     0
  1
AcDbOsnapPointRef
 72
     3
331
1510B
 73
     2
 91
        0
 40
0.0
 10
0.0
 20
0.0
 30
0.0
 75
     0
  0
LAYOUT
  5
22
102
{ACAD_XDICTIONARY
360
15250
102
}
102
{ACAD_REACTORS
330
1A
102
}
330
1A
100
AcDbPlotSettings
  1

  2
FX DocuPrint 255-AP
  4
A4
  6

 40
4.900083065032958
 41
4.900057315826416
 42
4.90008544921875
 43
4.90008544921875
 44
210.0156707763672
 45
297.0106506347656
 46
0.0
 47
2.66
 48
1249.569850107415
 49
-2900.057674834738
140
1629.452493924677
141
-2365.216535406231
142
1.0
143
1.897368782762544
 70
 11956
 72
     1
 73
     0
 74
     4
  7
monochrome.ctb
 75
     0
147
0.5270456692894526
148
-1249.569850107415
149
2900.057674834738
100
AcDbLayout
  1
Model
 70
     1
 71
     0
 10
0.0
 20
0.0
 11
12.0
 21
9.0
 12
0.0
 22
0.0
 32
0.0
 14
0.0
 24
0.0
 34
0.0
 15
0.0
 25
0.0
 35
0.0
146
0.0
 13
0.0
 23
0.0
 33
0.0
 16
1.0
 26
0.0
 36
0.0
 17
0.0
 27
1.0
 37
0.0
 76
     0
330
1F
1001
ACAD_PSEXT
1000
None
1000
None
1000
Not applicable
1000
The layout will not be plotted unless a new plotter configuration name is selected.
1070
     0
  0
LAYOUT
  5
D3
102
{ACAD_XDICTIONARY
360
15252
102
}
102
{ACAD_REACTORS
330
1A
102
}
330
1A
100
AcDbPlotSettings
  1

  2
C:\Documents and Settings\basas\Application Data\Autodesk\AutoCAD 2005\R16.1\enu\plotters\Default Windows System Printer.pc3
  4

  6

 40
0.0
 41
0.0
 42
0.0
 43
0.0
 44
0.0
 45
0.0
 46
0.0
 47
0.0
 48
0.0
 49
0.0
140
0.0
141
0.0
142
1.0
143
1.0
 70
   688
 72
     0
 73
     0
 74
     5
  7
monochrome.ctb
 75
    16
147
1.0
148
0.0
149
0.0
100
AcDbLayout
  1
布局1
 70
     1
 71
     1
 10
0.0
 20
0.0
 11
12.0
 21
9.0
 12
0.0
 22
0.0
 32
0.0
 14
0.0
 24
0.0
 34
0.0
 15
0.0
 25
0.0
 35
0.0
146
0.0
 13
0.0
 23
0.0
 33
0.0
 16
1.0
 26
0.0
 36
0.0
 17
0.0
 27
1.0
 37
0.0
 76
     0
330
D2
  0
LAYOUT
  5
D7
102
{ACAD_XDICTIONARY
360
15254
102
}
102
{ACAD_REACTORS
330
1A
102
}
330
1A
100
AcDbPlotSettings
  1

  2
C:\Documents and Settings\basas\Application Data\Autodesk\AutoCAD 2005\R16.1\enu\plotters\Default Windows System Printer.pc3
  4

  6

 40
0.0
 41
0.0
 42
0.0
 43
0.0
 44
0.0
 45
0.0
 46
0.0
 47
0.0
 48
0.0
 49
0.0
140
0.0
141
0.0
142
1.0
143
1.0
 70
   688
 72
     0
 73
     0
 74
     5
  7
monochrome.ctb
 75
    16
147
1.0
148
0.0
149
0.0
100
AcDbLayout
  1
布局2
 70
     1
 71
     2
 10
0.0
 20
0.0
 11
12.0
 21
9.0
 12
0.0
 22
0.0
 32
0.0
 14
0.0
 24
0.0
 34
0.0
 15
0.0
 25
0.0
 35
0.0
146
0.0
 13
0.0
 23
0.0
 33
0.0
 16
1.0
 26
0.0
 36
0.0
 17
0.0
 27
1.0
 37
0.0
 76
     0
330
D6
  0
MLINESTYLE
  5
18
102
{ACAD_REACTORS
330
17
102
}
330
17
100
AcDbMlineStyle
  2
STANDARD
 70
     0
  3

 62
   256
 51
90.0
 52
90.0
 71
     2
 49
0.5
 62
   256
  6
BYLAYER
 49
-0.5
 62
   256
  6
BYLAYER
  0
PLOTSETTINGS
  5
AE1
102
{ACAD_XDICTIONARY
360
15256
102
}
102
{ACAD_REACTORS
330
19
102
}
330
19
100
AcDbPlotSettings
  1
设置1
  2
\\design\FX DocuPrint 255-AP
  4
A4
  6

 40
4.900083065032958
 41
4.900057315826416
 42
4.90008544921875
 43
4.90008544921875
 44
210.0156707763672
 45
297.0106506347656
 46
0.0
 47
92.50858929504952
 48
0.0
 49
0.0
140
0.0
141
0.0
142
1.0
143
10.6920136448412
 70
 11956
 72
     1
 73
     0
 74
     0
  7

 75
     0
147
0.0935277519480618
148
743.5700631611799
149
655.5865154701149
1001
ACAD_PSEXT
1000
\\design\FX DocuPrint 255-AP
1000
FX DocuPrint 255-AP
1000
\\design
1000

1070
     0
  0
ACDBPLACEHOLDER
  5
F
102
{ACAD_REACTORS
330
E
102
}
330
E
  0
TABLESTYLE
  5
7F
102
{ACAD_REACTORS
330
7E
102
}
330
7E
100
AcDbTableStyle
  3
Standard
 70
     0
 71
     0
 40
1.5
 41
1.5
280
     0
281
     0
  7
Standard
140
4.5
170
     2
 62
     0
 63
     7
283
     0
274
    -2
284
     1
 64
     0
275
    -2
285
     1
 65
     0
276
    -2
286
     1
 66
     0
277
    -2
287
     1
 67
     0
278
    -2
288
     1
 68
     0
279
    -2
289
     1
 69
     0
  7
Standard
140
6.0
170
     5
 62
     0
 63
     7
283
     0
274
    -2
284
     1
 64
     0
275
    -2
285
     1
 65
     0
276
    -2
286
     1
 66
     0
277
    -2
287
     1
 67
     0
278
    -2
288
     1
 68
     0
279
    -2
289
     1
 69
     0
  7
Standard
140
4.5
170
     5
 62
     0
 63
     7
283
     0
274
    -2
284
     1
 64
     0
275
    -2
285
     1
 65
     0
276
    -2
286
     1
 66
     0
277
    -2
287
     1
 67
     0
278
    -2
288
     1
 68
     0
279
    -2
289
     1
 69
     0
1001
ACAD
1000
AcRTDxfName
1000
TABLESTYLE
1000
AcRTDxfName
1000
TABLESTYLE
  0
DICTIONARYVAR
  5
84
102
{ACAD_REACTORS
330
5E
102
}
330
5E
100
DictionaryVariables
280
     0
  1
STANDARD
  0
DICTIONARYVAR
  5
5F
102
{ACAD_REACTORS
330
5E
102
}
330
5E
100
DictionaryVariables
280
     0
  1
2
  0
DICTIONARYVAR
  5
63
102
{ACAD_REACTORS
330
5E
102
}
330
5E
100
DictionaryVariables
280
     0
  1
1
  0
DICTIONARYVAR
  5
14E0A
102
{ACAD_REACTORS
330
5E
102
}
330
5E
100
DictionaryVariables
280
     0
  1

  0
DICTIONARY
  5
15250
330
22
100
AcDbDictionary
280
     1
281
     1
  3
ACAD_XREC_ROUNDTRIP
360
15251
  0
DICTIONARY
  5
15252
330
D3
100
AcDbDictionary
280
     1
281
     1
  3
ACAD_XREC_ROUNDTRIP
360
15253
  0
DICTIONARY
  5
15254
330
D7
100
AcDbDictionary
280
     1
281
     1
  3
ACAD_XREC_ROUNDTRIP
360
15255
  0
DICTIONARY
  5
15256
330
AE1
100
AcDbDictionary
280
     1
281
     1
  3
ACAD_XREC_ROUNDTRIP
360
15257
  0
XRECORD
  5
15251
102
{ACAD_REACTORS
330
15250
102
}
330
15250
100
AcDbXrecord
280
     1
102
SHADEPLOT
 70
     0
102
SHADEPLOTRESLEVEL
 70
     2
102
SHADEPLOTCUSTOMDPI
 70
   300
  0
XRECORD
  5
15253
102
{ACAD_REACTORS
330
15252
102
}
330
15252
100
AcDbXrecord
280
     1
102
SHADEPLOT
 70
     0
102
SHADEPLOTRESLEVEL
 70
     2
102
SHADEPLOTCUSTOMDPI
 70
   300
  0
XRECORD
  5
15255
102
{ACAD_REACTORS
330
15254
102
}
330
15254
100
AcDbXrecord
280
     1
102
SHADEPLOT
 70
     0
102
SHADEPLOTRESLEVEL
 70
     2
102
SHADEPLOTCUSTOMDPI
 70
   300
  0
XRECORD
  5
15257
102
{ACAD_REACTORS
330
15256
102
}
330
15256
100
AcDbXrecord
280
     1
102
SHADEPLOT
 70
     0
102
SHADEPLOTRESLEVEL
 70
     2
102
SHADEPLOTCUSTOMDPI
 70
   300
  0
ENDSEC
  0
EOF
