  0
SECTION
  2
HEADER
  9
$ACADVER
  1
AC1015
  9
$ACADMAINTVER
 70
    20
  9
$DWGCODEPAGE
  3
ANSI_936
  9
$INSBASE
 10
0.0
 20
0.0
 30
0.0
  9
$EXTMIN
 10
4666.905238758142
 20
1274.655945709517
 30
-0.0015258207003583
  9
$EXTMAX
 10
6995.030121888125
 20
3391.002855112411
 30
0.0000000349246037
  9
$LIMMIN
 10
0.0
 20
0.0
  9
$LIMMAX
 10
12.0
 20
9.0
  9
$ORTHOMODE
 70
     1
  9
$REGENMODE
 70
     1
  9
$FILLMODE
 70
     1
  9
$QTEXTMODE
 70
     0
  9
$MIRRTEXT
 70
     0
  9
$LTSCALE
 40
1.0
  9
$ATTMODE
 70
     1
  9
$TEXTSIZE
 40
0.2
  9
$TRACEWID
 40
0.05
  9
$TEXTSTYLE
  7
Standard
  9
$CLAYER
  8
图层2
  9
$CELTYPE
  6
ByLayer
  9
$CECOLOR
 62
   256
  9
$CELTSCALE
 40
1.0
  9
$DISPSILH
 70
     0
  9
$DIMSCALE
 40
1.0
  9
$DIMASZ
 40
25.0
  9
$DIMEXO
 40
0.0
  9
$DIMDLI
 40
3.75
  9
$DIMRND
 40
0.0
  9
$DIMDLE
 40
0.0
  9
$DIMEXE
 40
1.25
  9
$DIMTP
 40
0.0
  9
$DIMTM
 40
0.0
  9
$DIMTXT
 40
25.0
  9
$DIMCEN
 40
12.0
  9
$DIMTSZ
 40
0.0
  9
$DIMTOL
 70
     0
  9
$DIMLIM
 70
     0
  9
$DIMTIH
 70
     0
  9
$DIMTOH
 70
     0
  9
$DIMSE1
 70
     0
  9
$DIMSE2
 70
     0
  9
$DIMTAD
 70
     1
  9
$DIMZIN
 70
     8
  9
$DIMBLK
  1

  9
$DIMASO
 70
     1
  9
$DIMSHO
 70
     1
  9
$DIMPOST
  1

  9
$DIMAPOST
  1

  9
$DIMALT
 70
     0
  9
$DIMALTD
 70
     3
  9
$DIMALTF
 40
0.03937007874016
  9
$DIMLFAC
 40
1.0
  9
$DIMTOFL
 70
     1
  9
$DIMTVP
 40
0.0
  9
$DIMTIX
 70
     0
  9
$DIMSOXD
 70
     0
  9
$DIMSAH
 70
     0
  9
$DIMBLK1
  1

  9
$DIMBLK2
  1

  9
$DIMSTYLE
  2
ISO-25
  9
$DIMCLRD
 70
     6
  9
$DIMCLRE
 70
     6
  9
$DIMCLRT
 70
     6
  9
$DIMTFAC
 40
1.0
  9
$DIMGAP
 40
3.0
  9
$DIMJUST
 70
     0
  9
$DIMSD1
 70
     0
  9
$DIMSD2
 70
     0
  9
$DIMTOLJ
 70
     0
  9
$DIMTZIN
 70
     8
  9
$DIMALTZ
 70
     0
  9
$DIMALTTZ
 70
     0
  9
$DIMUPT
 70
     0
  9
$DIMDEC
 70
     2
  9
$DIMTDEC
 70
     2
  9
$DIMALTU
 70
     2
  9
$DIMALTTD
 70
     3
  9
$DIMTXSTY
  7
Standard
  9
$DIMAUNIT
 70
     0
  9
$DIMADEC
 70
     0
  9
$DIMALTRND
 40
0.0
  9
$DIMAZIN
 70
     0
  9
$DIMDSEP
 70
    44
  9
$DIMATFIT
 70
     3
  9
$DIMFRAC
 70
     0
  9
$DIMLDRBLK
  1

  9
$DIMLUNIT
 70
     2
  9
$DIMLWD
 70
     9
  9
$DIMLWE
 70
     9
  9
$DIMTMOVE
 70
     0
  9
$LUNITS
 70
     2
  9
$LUPREC
 70
     4
  9
$SKETCHINC
 40
0.1
  9
$FILLETRAD
 40
13.0
  9
$AUNITS
 70
     0
  9
$AUPREC
 70
     0
  9
$MENU
  1
.
  9
$ELEVATION
 40
0.0
  9
$PELEVATION
 40
0.0
  9
$THICKNESS
 40
0.0
  9
$LIMCHECK
 70
     0
  9
$CHAMFERA
 40
0.0
  9
$CHAMFERB
 40
0.0
  9
$CHAMFERC
 40
0.0
  9
$CHAMFERD
 40
0.0
  9
$SKPOLY
 70
     0
  9
$TDCREATE
 40
2453580.365318461
  9
$TDUCREATE
 40
2453580.031985127
  9
$TDUPDATE
 40
2454917.661289236
  9
$TDUUPDATE
 40
2454917.327955903
  9
$TDINDWG
 40
0.4836839583
  9
$TDUSRTIMER
 40
0.4836785185
  9
$USRTIMER
 70
     1
  9
$ANGBASE
 50
0.0
  9
$ANGDIR
 70
     0
  9
$PDMODE
 70
     0
  9
$PDSIZE
 40
0.0
  9
$PLINEWID
 40
0.0
  9
$SPLFRAME
 70
     0
  9
$SPLINETYPE
 70
     6
  9
$SPLINESEGS
 70
     8
  9
$HANDSEED
  5
2981
  9
$SURFTAB1
 70
     6
  9
$SURFTAB2
 70
     6
  9
$SURFTYPE
 70
     6
  9
$SURFU
 70
     6
  9
$SURFV
 70
     6
  9
$UCSBASE
  2

  9
$UCSNAME
  2

  9
$UCSORG
 10
0.0
 20
0.0
 30
0.0
  9
$UCSXDIR
 10
1.0
 20
0.0
 30
0.0
  9
$UCSYDIR
 10
0.0
 20
1.0
 30
0.0
  9
$UCSORTHOREF
  2

  9
$UCSORTHOVIEW
 70
     1
  9
$UCSORGTOP
 10
0.0
 20
0.0
 30
0.0
  9
$UCSORGBOTTOM
 10
0.0
 20
0.0
 30
0.0
  9
$UCSORGLEFT
 10
0.0
 20
0.0
 30
0.0
  9
$UCSORGRIGHT
 10
0.0
 20
0.0
 30
0.0
  9
$UCSORGFRONT
 10
0.0
 20
0.0
 30
0.0
  9
$UCSORGBACK
 10
0.0
 20
0.0
 30
0.0
  9
$PUCSBASE
  2

  9
$PUCSNAME
  2

  9
$PUCSORG
 10
0.0
 20
0.0
 30
0.0
  9
$PUCSXDIR
 10
1.0
 20
0.0
 30
0.0
  9
$PUCSYDIR
 10
0.0
 20
1.0
 30
0.0
  9
$PUCSORTHOREF
  2

  9
$PUCSORTHOVIEW
 70
     0
  9
$PUCSORGTOP
 10
0.0
 20
0.0
 30
0.0
  9
$PUCSORGBOTTOM
 10
0.0
 20
0.0
 30
0.0
  9
$PUCSORGLEFT
 10
0.0
 20
0.0
 30
0.0
  9
$PUCSORGRIGHT
 10
0.0
 20
0.0
 30
0.0
  9
$PUCSORGFRONT
 10
0.0
 20
0.0
 30
0.0
  9
$PUCSORGBACK
 10
0.0
 20
0.0
 30
0.0
  9
$USERI1
 70
     0
  9
$USERI2
 70
     0
  9
$USERI3
 70
     0
  9
$USERI4
 70
     0
  9
$USERI5
 70
     0
  9
$USERR1
 40
0.0
  9
$USERR2
 40
0.0
  9
$USERR3
 40
0.0
  9
$USERR4
 40
0.0
  9
$USERR5
 40
0.0
  9
$WORLDVIEW
 70
     1
  9
$SHADEDGE
 70
     3
  9
$SHADEDIF
 70
    70
  9
$TILEMODE
 70
     1
  9
$MAXACTVP
 70
    64
  9
$PINSBASE
 10
0.0
 20
0.0
 30
0.0
  9
$PLIMCHECK
 70
     0
  9
$PEXTMIN
 10
0.0
 20
0.0
 30
0.0
  9
$PEXTMAX
 10
0.0
 20
0.0
 30
0.0
  9
$PLIMMIN
 10
0.0
 20
0.0
  9
$PLIMMAX
 10
12.0
 20
9.0
  9
$UNITMODE
 70
     0
  9
$VISRETAIN
 70
     1
  9
$PLINEGEN
 70
     0
  9
$PSLTSCALE
 70
     1
  9
$TREEDEPTH
 70
  3020
  9
$CMLSTYLE
  2
Standard
  9
$CMLJUST
 70
     0
  9
$CMLSCALE
 40
1.0
  9
$PROXYGRAPHICS
 70
     1
  9
$MEASUREMENT
 70
     0
  9
$CELWEIGHT
370
    -1
  9
$ENDCAPS
280
     0
  9
$JOINSTYLE
280
     0
  9
$LWDISPLAY
290
     0
  9
$INSUNITS
 70
     1
  9
$HYPERLINKBASE
  1

  9
$STYLESHEET
  1
ACAD.CTB
  9
$XEDIT
290
     1
  9
$CEPSNTYPE
380
     0
  9
$PSTYLEMODE
290
     1
  9
$FINGERPRINTGUID
  2
{FDEAD576-A652-11D2-9A35-0060089B3A3F}
  9
$VERSIONGUID
  2
{7A94F90A-4670-419B-B9C2-C3F748F63658}
  9
$EXTNAMES
290
     1
  9
$PSVPSCALE
 40
0.0
  9
$OLESTARTUP
290
     0
  0
ENDSEC
  0
SECTION
  2
CLASSES
  0
CLASS
  1
ACDBDICTIONARYWDFLT
  2
AcDbDictionaryWithDefault
  3
ObjectDBX Classes
 90
        0
280
     0
281
     0
  0
CLASS
  1
ACDBPLACEHOLDER
  2
AcDbPlaceHolder
  3
ObjectDBX Classes
 90
        0
280
     0
281
     0
  0
CLASS
  1
LAYOUT
  2
AcDbLayout
  3
ObjectDBX Classes
 90
        0
280
     0
281
     0
  0
CLASS
  1
DICTIONARYVAR
  2
AcDbDictionaryVar
  3
ObjectDBX Classes
 90
        0
280
     0
281
     0
  0
CLASS
  1
DIMASSOC
  2
AcDbDimAssoc
  3
"AcDbDimAssoc|Product Desc:     AcDim ARX App For Dimension|Company:          Autodesk, Inc.|WEB Address:      www.autodesk.com"
 90
        0
280
     0
281
     0
  0
CLASS
  1
TABLESTYLE
  2
AcDbTableStyle
  3
ObjectDBX Classes
 90
     2047
280
     0
281
     0
  0
ENDSEC
  0
SECTION
  2
TABLES
  0
TABLE
  2
VPORT
  5
8
330
0
100
AcDbSymbolTable
 70
     2
  0
VPORT
  5
2979
330
8
100
AcDbSymbolTableRecord
100
AcDbViewportTableRecord
  2
*Active
 70
     0
 10
0.0
 20
0.0
 11
1.0
 21
1.0
 12
5584.83596515855
 22
2331.945080146097
 13
0.0
 23
0.0
 14
0.5
 24
0.5
 15
0.5
 25
0.5
 16
0.0
 26
0.0
 36
1.0
 17
0.0
 27
0.0
 37
0.0
 40
1050.110323000892
 41
1.586251621271076
 42
50.0
 43
0.0
 44
0.0
 50
0.0
 51
0.0
 71
     0
 72
  1000
 73
     1
 74
     3
 75
     0
 76
     0
 77
     0
 78
     0
281
     0
 65
     1
110
0.0
120
0.0
130
0.0
111
1.0
121
0.0
131
0.0
112
0.0
122
1.0
132
0.0
 79
     1
146
0.0
  0
ENDTAB
  0
TABLE
  2
LTYPE
  5
5
330
0
100
AcDbSymbolTable
 70
     2
  0
LTYPE
  5
14
330
5
100
AcDbSymbolTableRecord
100
AcDbLinetypeTableRecord
  2
ByBlock
 70
     0
  3

 72
    65
 73
     0
 40
0.0
  0
LTYPE
  5
15
330
5
100
AcDbSymbolTableRecord
100
AcDbLinetypeTableRecord
  2
ByLayer
 70
     0
  3

 72
    65
 73
     0
 40
0.0
  0
LTYPE
  5
16
330
5
100
AcDbSymbolTableRecord
100
AcDbLinetypeTableRecord
  2
Continuous
 70
     0
  3
Solid line
 72
    65
 73
     0
 40
0.0
  0
LTYPE
  5
AD0
330
5
100
AcDbSymbolTableRecord
100
AcDbLinetypeTableRecord
  2
HIDDEN2
 70
     0
  3
Hidden (.5x) _ _ _ _ _ _ _ _ _ _ _ _ _ _ _ _ _
 72
    65
 73
     2
 40
0.1875
 49
0.125
 74
     0
 49
-0.0625
 74
     0
  0
ENDTAB
  0
TABLE
  2
LAYER
  5
2
330
0
100
AcDbSymbolTable
 70
     5
  0
LAYER
  5
10
330
2
100
AcDbSymbolTableRecord
100
AcDbLayerTableRecord
  2
0
 70
     0
 62
     7
  6
Continuous
370
    -3
390
F
  0
LAYER
  5
167
330
2
100
AcDbSymbolTableRecord
100
AcDbLayerTableRecord
  2
Defpoints
 70
     0
 62
     7
  6
Continuous
290
     0
370
    -3
390
F
  0
LAYER
  5
168
330
2
100
AcDbSymbolTableRecord
100
AcDbLayerTableRecord
  2
Title Block
 70
     0
 62
     7
  6
Continuous
370
    -3
390
F
  0
LAYER
  5
AD1
330
2
100
AcDbSymbolTableRecord
100
AcDbLayerTableRecord
  2
图层1
 70
     0
 62
     7
  6
HIDDEN2
370
    -3
390
F
  0
LAYER
  5
AD2
330
2
100
AcDbSymbolTableRecord
100
AcDbLayerTableRecord
  2
图层2
 70
     0
 62
     7
  6
Continuous
370
    -3
390
F
  0
ENDTAB
  0
TABLE
  2
STYLE
  5
3
330
0
100
AcDbSymbolTable
 70
     3
  0
STYLE
  5
11
330
3
100
AcDbSymbolTableRecord
100
AcDbTextStyleTableRecord
  2
Standard
 70
     0
 40
0.0
 41
1.0
 50
0.0
 71
     0
 42
0.2
  3
TIMES.TTF
  4

1001
ACAD
1000
Times New Roman
1071
       18
  0
STYLE
  5
169
330
3
100
AcDbSymbolTableRecord
100
AcDbTextStyleTableRecord
  2
Roman
 70
     0
 40
0.0
 41
1.0
 50
0.0
 71
     0
 42
0.065
  3
romans
  4

  0
STYLE
  5
ACF
330
3
100
AcDbSymbolTableRecord
100
AcDbTextStyleTableRecord
  2

 70
     1
 40
0.0
 41
1.0
 50
0.0
 71
     0
 42
0.2
  3
ltypeshp.shx
  4

  0
ENDTAB
  0
TABLE
  2
VIEW
  5
6
330
0
100
AcDbSymbolTable
 70
     0
  0
ENDTAB
  0
TABLE
  2
UCS
  5
7
330
0
100
AcDbSymbolTable
 70
     0
  0
ENDTAB
  0
TABLE
  2
APPID
  5
9
330
0
100
AcDbSymbolTable
 70
     2
  0
APPID
  5
12
330
9
100
AcDbSymbolTableRecord
100
AcDbRegAppTableRecord
  2
ACAD
 70
     0
  0
APPID
  5
28EB
330
9
100
AcDbSymbolTableRecord
100
AcDbRegAppTableRecord
  2
DCO15
 70
     0
  0
ENDTAB
  0
TABLE
  2
DIMSTYLE
  5
A
330
0
100
AcDbSymbolTable
 70
     2
100
AcDbDimStyleTable
 71
     2
340
16A
340
27
  0
DIMSTYLE
105
27
330
A
100
AcDbSymbolTableRecord
100
AcDbDimStyleTableRecord
  2
Standard
 70
     0
340
11
  0
DIMSTYLE
105
16A
102
{ACAD_REACTORS
330
15F5
330
160D
330
1625
330
163D
330
164D
330
165D
330
166D
330
167D
330
168D
330
169D
330
16AD
330
16BD
330
16CD
330
16DD
330
190C
330
1924
330
193C
330
198D
330
199C
330
19AB
102
}
330
A
100
AcDbSymbolTableRecord
100
AcDbDimStyleTableRecord
  2
ISO-25
 70
     0
 41
25.0
 42
0.0
 43
3.75
 44
1.25
 73
     0
 74
     0
 77
     1
 78
     8
140
25.0
141
12.0
143
0.03937007874016
147
3.0
171
     3
172
     1
176
     6
177
     6
178
     6
271
     2
272
     2
274
     3
278
    44
283
     0
284
     8
340
11
371
     9
372
     9
  0
ENDTAB
  0
TABLE
  2
BLOCK_RECORD
  5
1
330
0
100
AcDbSymbolTable
 70
    95
  0
BLOCK_RECORD
  5
1F
330
1
100
AcDbSymbolTableRecord
100
AcDbBlockTableRecord
  2
*Model_Space
340
22
  0
BLOCK_RECORD
  5
58
330
1
100
AcDbSymbolTableRecord
100
AcDbBlockTableRecord
  2
*Paper_Space
340
59
  0
BLOCK_RECORD
  5
5D
330
1
100
AcDbSymbolTableRecord
100
AcDbBlockTableRecord
  2
*Paper_Space0
340
5E
  0
BLOCK_RECORD
  5
15F6
330
1
100
AcDbSymbolTableRecord
100
AcDbBlockTableRecord
  2
*D1
340
0
  0
BLOCK_RECORD
  5
160E
330
1
100
AcDbSymbolTableRecord
100
AcDbBlockTableRecord
  2
*D2
340
0
  0
BLOCK_RECORD
  5
1626
330
1
100
AcDbSymbolTableRecord
100
AcDbBlockTableRecord
  2
*D3
340
0
  0
BLOCK_RECORD
  5
163E
330
1
100
AcDbSymbolTableRecord
100
AcDbBlockTableRecord
  2
*D4
340
0
  0
BLOCK_RECORD
  5
164E
330
1
100
AcDbSymbolTableRecord
100
AcDbBlockTableRecord
  2
*D5
340
0
  0
BLOCK_RECORD
  5
165E
330
1
100
AcDbSymbolTableRecord
100
AcDbBlockTableRecord
  2
*D6
340
0
  0
BLOCK_RECORD
  5
166E
330
1
100
AcDbSymbolTableRecord
100
AcDbBlockTableRecord
  2
*D7
340
0
  0
BLOCK_RECORD
  5
167E
330
1
100
AcDbSymbolTableRecord
100
AcDbBlockTableRecord
  2
*D8
340
0
  0
BLOCK_RECORD
  5
168E
330
1
100
AcDbSymbolTableRecord
100
AcDbBlockTableRecord
  2
*D9
340
0
  0
BLOCK_RECORD
  5
169E
330
1
100
AcDbSymbolTableRecord
100
AcDbBlockTableRecord
  2
*D10
340
0
  0
BLOCK_RECORD
  5
16AE
330
1
100
AcDbSymbolTableRecord
100
AcDbBlockTableRecord
  2
*D11
340
0
  0
BLOCK_RECORD
  5
16BE
330
1
100
AcDbSymbolTableRecord
100
AcDbBlockTableRecord
  2
*D12
340
0
  0
BLOCK_RECORD
  5
16CE
330
1
100
AcDbSymbolTableRecord
100
AcDbBlockTableRecord
  2
*D13
340
0
  0
BLOCK_RECORD
  5
16DE
330
1
100
AcDbSymbolTableRecord
100
AcDbBlockTableRecord
  2
*D14
340
0
  0
BLOCK_RECORD
  5
16F2
330
1
100
AcDbSymbolTableRecord
100
AcDbBlockTableRecord
  2
*D15
340
0
  0
BLOCK_RECORD
  5
17B6
330
1
100
AcDbSymbolTableRecord
100
AcDbBlockTableRecord
  2
*D16
340
0
  0
BLOCK_RECORD
  5
17C2
330
1
100
AcDbSymbolTableRecord
100
AcDbBlockTableRecord
  2
*D17
340
0
  0
BLOCK_RECORD
  5
17CE
330
1
100
AcDbSymbolTableRecord
100
AcDbBlockTableRecord
  2
*D18
340
0
  0
BLOCK_RECORD
  5
17DA
330
1
100
AcDbSymbolTableRecord
100
AcDbBlockTableRecord
  2
*D19
340
0
  0
BLOCK_RECORD
  5
17E2
330
1
100
AcDbSymbolTableRecord
100
AcDbBlockTableRecord
  2
*D20
340
0
  0
BLOCK_RECORD
  5
17EA
330
1
100
AcDbSymbolTableRecord
100
AcDbBlockTableRecord
  2
*D21
340
0
  0
BLOCK_RECORD
  5
17F2
330
1
100
AcDbSymbolTableRecord
100
AcDbBlockTableRecord
  2
*D22
340
0
  0
BLOCK_RECORD
  5
17FA
330
1
100
AcDbSymbolTableRecord
100
AcDbBlockTableRecord
  2
*D23
340
0
  0
BLOCK_RECORD
  5
1802
330
1
100
AcDbSymbolTableRecord
100
AcDbBlockTableRecord
  2
*D24
340
0
  0
BLOCK_RECORD
  5
180A
330
1
100
AcDbSymbolTableRecord
100
AcDbBlockTableRecord
  2
*D25
340
0
  0
BLOCK_RECORD
  5
1812
330
1
100
AcDbSymbolTableRecord
100
AcDbBlockTableRecord
  2
*D26
340
0
  0
BLOCK_RECORD
  5
181A
330
1
100
AcDbSymbolTableRecord
100
AcDbBlockTableRecord
  2
*D27
340
0
  0
BLOCK_RECORD
  5
1822
330
1
100
AcDbSymbolTableRecord
100
AcDbBlockTableRecord
  2
*D28
340
0
  0
BLOCK_RECORD
  5
182A
330
1
100
AcDbSymbolTableRecord
100
AcDbBlockTableRecord
  2
*D29
340
0
  0
BLOCK_RECORD
  5
1832
330
1
100
AcDbSymbolTableRecord
100
AcDbBlockTableRecord
  2
*D30
340
0
  0
BLOCK_RECORD
  5
190D
330
1
100
AcDbSymbolTableRecord
100
AcDbBlockTableRecord
  2
*D31
340
0
  0
BLOCK_RECORD
  5
1925
330
1
100
AcDbSymbolTableRecord
100
AcDbBlockTableRecord
  2
*D32
340
0
  0
BLOCK_RECORD
  5
193D
330
1
100
AcDbSymbolTableRecord
100
AcDbBlockTableRecord
  2
*D33
340
0
  0
BLOCK_RECORD
  5
198E
330
1
100
AcDbSymbolTableRecord
100
AcDbBlockTableRecord
  2
*D34
340
0
  0
BLOCK_RECORD
  5
199D
330
1
100
AcDbSymbolTableRecord
100
AcDbBlockTableRecord
  2
*D35
340
0
  0
BLOCK_RECORD
  5
19AC
330
1
100
AcDbSymbolTableRecord
100
AcDbBlockTableRecord
  2
*D36
340
0
  0
BLOCK_RECORD
  5
19C0
330
1
100
AcDbSymbolTableRecord
100
AcDbBlockTableRecord
  2
*D37
340
0
  0
BLOCK_RECORD
  5
19D8
330
1
100
AcDbSymbolTableRecord
100
AcDbBlockTableRecord
  2
*D38
340
0
  0
BLOCK_RECORD
  5
19F0
330
1
100
AcDbSymbolTableRecord
100
AcDbBlockTableRecord
  2
*D39
340
0
  0
BLOCK_RECORD
  5
1A0E
330
1
100
AcDbSymbolTableRecord
100
AcDbBlockTableRecord
  2
*D40
340
0
  0
BLOCK_RECORD
  5
1A1D
330
1
100
AcDbSymbolTableRecord
100
AcDbBlockTableRecord
  2
*D41
340
0
  0
BLOCK_RECORD
  5
1A2C
330
1
100
AcDbSymbolTableRecord
100
AcDbBlockTableRecord
  2
*D42
340
0
  0
BLOCK_RECORD
  5
1B57
330
1
100
AcDbSymbolTableRecord
100
AcDbBlockTableRecord
  2
*D43
340
0
  0
BLOCK_RECORD
  5
1B63
330
1
100
AcDbSymbolTableRecord
100
AcDbBlockTableRecord
  2
*D44
340
0
  0
BLOCK_RECORD
  5
1B6F
330
1
100
AcDbSymbolTableRecord
100
AcDbBlockTableRecord
  2
*D45
340
0
  0
BLOCK_RECORD
  5
1B7B
330
1
100
AcDbSymbolTableRecord
100
AcDbBlockTableRecord
  2
*D46
340
0
  0
BLOCK_RECORD
  5
1B83
330
1
100
AcDbSymbolTableRecord
100
AcDbBlockTableRecord
  2
*D47
340
0
  0
BLOCK_RECORD
  5
1B8B
330
1
100
AcDbSymbolTableRecord
100
AcDbBlockTableRecord
  2
*D48
340
0
  0
BLOCK_RECORD
  5
1B93
330
1
100
AcDbSymbolTableRecord
100
AcDbBlockTableRecord
  2
*D49
340
0
  0
BLOCK_RECORD
  5
1B9B
330
1
100
AcDbSymbolTableRecord
100
AcDbBlockTableRecord
  2
*D50
340
0
  0
BLOCK_RECORD
  5
1BA3
330
1
100
AcDbSymbolTableRecord
100
AcDbBlockTableRecord
  2
*D51
340
0
  0
BLOCK_RECORD
  5
1BAB
330
1
100
AcDbSymbolTableRecord
100
AcDbBlockTableRecord
  2
*D52
340
0
  0
BLOCK_RECORD
  5
1BB3
330
1
100
AcDbSymbolTableRecord
100
AcDbBlockTableRecord
  2
*D53
340
0
  0
BLOCK_RECORD
  5
1BBB
330
1
100
AcDbSymbolTableRecord
100
AcDbBlockTableRecord
  2
*D54
340
0
  0
BLOCK_RECORD
  5
1BC3
330
1
100
AcDbSymbolTableRecord
100
AcDbBlockTableRecord
  2
*D55
340
0
  0
BLOCK_RECORD
  5
1BCB
330
1
100
AcDbSymbolTableRecord
100
AcDbBlockTableRecord
  2
*D56
340
0
  0
BLOCK_RECORD
  5
1BD3
330
1
100
AcDbSymbolTableRecord
100
AcDbBlockTableRecord
  2
*D57
340
0
  0
BLOCK_RECORD
  5
1BDF
330
1
100
AcDbSymbolTableRecord
100
AcDbBlockTableRecord
  2
*D58
340
0
  0
BLOCK_RECORD
  5
1BEB
330
1
100
AcDbSymbolTableRecord
100
AcDbBlockTableRecord
  2
*D59
340
0
  0
BLOCK_RECORD
  5
1BF7
330
1
100
AcDbSymbolTableRecord
100
AcDbBlockTableRecord
  2
*D60
340
0
  0
BLOCK_RECORD
  5
1C05
330
1
100
AcDbSymbolTableRecord
100
AcDbBlockTableRecord
  2
*D61
340
0
  0
BLOCK_RECORD
  5
1C13
330
1
100
AcDbSymbolTableRecord
100
AcDbBlockTableRecord
  2
*D62
340
0
  0
BLOCK_RECORD
  5
1D33
330
1
100
AcDbSymbolTableRecord
100
AcDbBlockTableRecord
  2
*D63
340
0
  0
BLOCK_RECORD
  5
1D41
330
1
100
AcDbSymbolTableRecord
100
AcDbBlockTableRecord
  2
*D64
340
0
  0
BLOCK_RECORD
  5
1D4F
330
1
100
AcDbSymbolTableRecord
100
AcDbBlockTableRecord
  2
*D65
340
0
  0
BLOCK_RECORD
  5
1D5D
330
1
100
AcDbSymbolTableRecord
100
AcDbBlockTableRecord
  2
*D66
340
0
  0
BLOCK_RECORD
  5
1D69
330
1
100
AcDbSymbolTableRecord
100
AcDbBlockTableRecord
  2
*D67
340
0
  0
BLOCK_RECORD
  5
1D75
330
1
100
AcDbSymbolTableRecord
100
AcDbBlockTableRecord
  2
*D68
340
0
  0
BLOCK_RECORD
  5
1D81
330
1
100
AcDbSymbolTableRecord
100
AcDbBlockTableRecord
  2
*D69
340
0
  0
BLOCK_RECORD
  5
1D8D
330
1
100
AcDbSymbolTableRecord
100
AcDbBlockTableRecord
  2
*D70
340
0
  0
BLOCK_RECORD
  5
1D95
330
1
100
AcDbSymbolTableRecord
100
AcDbBlockTableRecord
  2
*D71
340
0
  0
BLOCK_RECORD
  5
1D9D
330
1
100
AcDbSymbolTableRecord
100
AcDbBlockTableRecord
  2
*D72
340
0
  0
BLOCK_RECORD
  5
1DA5
330
1
100
AcDbSymbolTableRecord
100
AcDbBlockTableRecord
  2
*D73
340
0
  0
BLOCK_RECORD
  5
1DAD
330
1
100
AcDbSymbolTableRecord
100
AcDbBlockTableRecord
  2
*D74
340
0
  0
BLOCK_RECORD
  5
1DB5
330
1
100
AcDbSymbolTableRecord
100
AcDbBlockTableRecord
  2
*D75
340
0
  0
BLOCK_RECORD
  5
1DBD
330
1
100
AcDbSymbolTableRecord
100
AcDbBlockTableRecord
  2
*D76
340
0
  0
BLOCK_RECORD
  5
1DC5
330
1
100
AcDbSymbolTableRecord
100
AcDbBlockTableRecord
  2
*D77
340
0
  0
BLOCK_RECORD
  5
1DCD
330
1
100
AcDbSymbolTableRecord
100
AcDbBlockTableRecord
  2
*D78
340
0
  0
BLOCK_RECORD
  5
1DD5
330
1
100
AcDbSymbolTableRecord
100
AcDbBlockTableRecord
  2
*D79
340
0
  0
BLOCK_RECORD
  5
1DDD
330
1
100
AcDbSymbolTableRecord
100
AcDbBlockTableRecord
  2
*D80
340
0
  0
BLOCK_RECORD
  5
1DE5
330
1
100
AcDbSymbolTableRecord
100
AcDbBlockTableRecord
  2
*D81
340
0
  0
BLOCK_RECORD
  5
1E12
330
1
100
AcDbSymbolTableRecord
100
AcDbBlockTableRecord
  2
*D82
340
0
  0
BLOCK_RECORD
  5
20C3
330
1
100
AcDbSymbolTableRecord
100
AcDbBlockTableRecord
  2
*D83
340
0
  0
BLOCK_RECORD
  5
20DB
330
1
100
AcDbSymbolTableRecord
100
AcDbBlockTableRecord
  2
*D84
340
0
  0
BLOCK_RECORD
  5
20F3
330
1
100
AcDbSymbolTableRecord
100
AcDbBlockTableRecord
  2
*D85
340
0
  0
BLOCK_RECORD
  5
2350
330
1
100
AcDbSymbolTableRecord
100
AcDbBlockTableRecord
  2
*D86
340
0
  0
BLOCK_RECORD
  5
235F
330
1
100
AcDbSymbolTableRecord
100
AcDbBlockTableRecord
  2
*D87
340
0
  0
BLOCK_RECORD
  5
236E
330
1
100
AcDbSymbolTableRecord
100
AcDbBlockTableRecord
  2
*D88
340
0
  0
BLOCK_RECORD
  5
24D0
330
1
100
AcDbSymbolTableRecord
100
AcDbBlockTableRecord
  2
*D89
340
0
  0
BLOCK_RECORD
  5
24E8
330
1
100
AcDbSymbolTableRecord
100
AcDbBlockTableRecord
  2
*D90
340
0
  0
BLOCK_RECORD
  5
2500
330
1
100
AcDbSymbolTableRecord
100
AcDbBlockTableRecord
  2
*D91
340
0
  0
BLOCK_RECORD
  5
2518
330
1
100
AcDbSymbolTableRecord
100
AcDbBlockTableRecord
  2
*D92
340
0
  0
BLOCK_RECORD
  5
2527
330
1
100
AcDbSymbolTableRecord
100
AcDbBlockTableRecord
  2
*D93
340
0
  0
BLOCK_RECORD
  5
2536
330
1
100
AcDbSymbolTableRecord
100
AcDbBlockTableRecord
  2
*D94
340
0
  0
ENDTAB
  0
ENDSEC
  0
SECTION
  2
BLOCKS
  0
BLOCK
  5
20
330
1F
100
AcDbEntity
  8
0
100
AcDbBlockBegin
  2
*Model_Space
 70
     0
 10
0.0
 20
0.0
 30
0.0
  3
*Model_Space
  1

  0
ENDBLK
  5
21
330
1F
100
AcDbEntity
  8
0
100
AcDbBlockEnd
  0
BLOCK
  5
5A
330
58
100
AcDbEntity
 67
     1
  8
0
100
AcDbBlockBegin
  2
*Paper_Space
 70
     0
 10
0.0
 20
0.0
 30
0.0
  3
*Paper_Space
  1

  0
ENDBLK
  5
5B
330
58
100
AcDbEntity
 67
     1
  8
0
100
AcDbBlockEnd
  0
BLOCK
  5
5F
330
5D
100
AcDbEntity
 67
     1
  8
0
100
AcDbBlockBegin
  2
*Paper_Space0
 70
     0
 10
0.0
 20
0.0
 30
0.0
  3
*Paper_Space0
  1

  0
ENDBLK
  5
60
330
5D
100
AcDbEntity
 67
     1
  8
0
100
AcDbBlockEnd
  0
BLOCK
  5
1600
330
15F6
100
AcDbEntity
  8
0
100
AcDbBlockBegin
  2
*D1
 70
     1
 10
0.0
 20
0.0
 30
0.0
  3
*D1
  1

  0
LINE
  5
218C
330
15F6
100
AcDbEntity
  8
图层2
 62
     6
370
     9
100
AcDbLine
 10
5194.984674744063
 20
2332.762042616769
 30
0.0
 11
5194.984674744063
 21
2004.67374718543
 31
0.0
  0
LINE
  5
218D
330
15F6
100
AcDbEntity
  8
图层2
 62
     6
370
     9
100
AcDbLine
 10
5966.984674744065
 20
2304.762042616765
 30
0.0
 11
5966.984674744065
 21
2004.67374718543
 31
0.0
  0
LINE
  5
218E
330
15F6
100
AcDbEntity
  8
图层2
 62
     6
370
     9
100
AcDbLine
 10
5219.984674744063
 20
2005.92374718543
 30
0.0
 11
5941.984674744065
 21
2005.92374718543
 31
0.0
  0
SOLID
  5
218F
330
15F6
100
AcDbEntity
  8
图层2
 62
     6
100
AcDbTrace
 10
5219.984674744063
 20
2010.090413852097
 30
0.0
 11
5219.984674744063
 21
2001.757080518764
 31
0.0
 12
5194.984674744063
 22
2005.92374718543
 32
0.0
 13
5194.984674744063
 23
2005.92374718543
 33
0.0
  0
SOLID
  5
2190
330
15F6
100
AcDbEntity
  8
图层2
 62
     6
100
AcDbTrace
 10
5941.984674744065
 20
2010.090413852097
 30
0.0
 11
5941.984674744065
 21
2001.757080518764
 31
0.0
 12
5966.984674744065
 22
2005.92374718543
 32
0.0
 13
5966.984674744065
 23
2005.92374718543
 33
0.0
  0
MTEXT
  5
2191
330
15F6
100
AcDbEntity
  8
图层2
 62
     6
100
AcDbMText
 10
5580.984674744065
 20
2021.676090372164
 30
0.0
 40
25.0
 41
0.0
 71
     5
 72
     1
  1
772
 73
     1
 44
1.0
1001
ACAD
1000
MTEXTBEGIN
1070
    73
1070
     1
1070
    44
1040
1.0
1070
    74
1070
     0
1000
MTEXTEND
  0
POINT
  5
2192
330
15F6
100
AcDbEntity
  8
Defpoints
 62
     0
100
AcDbPoint
 10
5194.984674744063
 20
2332.762042616769
 30
0.0
  0
POINT
  5
2193
330
15F6
100
AcDbEntity
  8
Defpoints
 62
     0
100
AcDbPoint
 10
5966.984674744065
 20
2304.762042616765
 30
0.0
  0
POINT
  5
2194
330
15F6
100
AcDbEntity
  8
Defpoints
 62
     0
100
AcDbPoint
 10
5966.984674744065
 20
2005.92374718543
 30
0.0
  0
ENDBLK
  5
1601
330
15F6
100
AcDbEntity
  8
0
100
AcDbBlockEnd
  0
BLOCK
  5
1618
330
160E
100
AcDbEntity
  8
0
100
AcDbBlockBegin
  2
*D2
 70
     1
 10
0.0
 20
0.0
 30
0.0
  3
*D2
  1

  0
LINE
  5
2195
330
160E
100
AcDbEntity
  8
图层2
 62
     6
370
     9
100
AcDbLine
 10
5398.984674744063
 20
2574.762042616767
 30
0.0
 11
5120.717604072313
 21
2574.762042616767
 31
0.0
  0
LINE
  5
2196
330
160E
100
AcDbEntity
  8
图层2
 62
     6
370
     9
100
AcDbLine
 10
5398.984674744063
 20
2090.762042616767
 30
0.0
 11
5120.717604072313
 21
2090.762042616767
 31
0.0
  0
LINE
  5
2197
330
160E
100
AcDbEntity
  8
图层2
 62
     6
370
     9
100
AcDbLine
 10
5121.967604072313
 20
2549.762042616767
 30
0.0
 11
5121.967604072313
 21
2115.762042616767
 31
0.0
  0
SOLID
  5
2198
330
160E
100
AcDbEntity
  8
图层2
 62
     6
100
AcDbTrace
 10
5117.800937405647
 20
2549.762042616768
 30
0.0
 11
5126.13427073898
 21
2549.762042616767
 31
0.0
 12
5121.967604072313
 22
2574.762042616767
 32
0.0
 13
5121.967604072313
 23
2574.762042616767
 33
0.0
  0
SOLID
  5
2199
330
160E
100
AcDbEntity
  8
图层2
 62
     6
100
AcDbTrace
 10
5117.800937405647
 20
2115.762042616768
 30
0.0
 11
5126.13427073898
 21
2115.762042616767
 31
0.0
 12
5121.967604072313
 22
2090.762042616767
 32
0.0
 13
5121.967604072313
 23
2090.762042616767
 33
0.0
  0
MTEXT
  5
219A
330
160E
100
AcDbEntity
  8
图层2
 62
     6
100
AcDbMText
 10
5106.251309912256
 20
2332.762042616768
 30
0.0
 40
25.0
 41
0.0
 71
     5
 72
     1
  1
484
 11
0.0000000000000001
 21
1.0
 31
0.0
 73
     1
 44
1.0
1001
ACAD
1000
MTEXTBEGIN
1070
    73
1070
     1
1070
    44
1040
1.0
1070
    74
1070
     0
1000
MTEXTEND
  0
POINT
  5
219B
330
160E
100
AcDbEntity
  8
Defpoints
 62
     0
100
AcDbPoint
 10
5398.984674744063
 20
2574.762042616767
 30
0.0
  0
POINT
  5
219C
330
160E
100
AcDbEntity
  8
Defpoints
 62
     0
100
AcDbPoint
 10
5398.984674744063
 20
2090.762042616767
 30
0.0
  0
POINT
  5
219D
330
160E
100
AcDbEntity
  8
Defpoints
 62
     0
100
AcDbPoint
 10
5121.967604072313
 20
2090.762042616767
 30
0.0
  0
ENDBLK
  5
1619
330
160E
100
AcDbEntity
  8
0
100
AcDbBlockEnd
  0
BLOCK
  5
1630
330
1626
100
AcDbEntity
  8
0
100
AcDbBlockBegin
  2
*D3
 70
     1
 10
0.0
 20
0.0
 30
0.0
  3
*D3
  1

  0
LINE
  5
219E
330
1626
100
AcDbEntity
  8
图层2
 62
     6
370
     9
100
AcDbLine
 10
5797.984674744062
 20
2518.762042616767
 30
0.0
 11
6049.440979341183
 21
2518.762042616767
 31
0.0
  0
LINE
  5
219F
330
1626
100
AcDbEntity
  8
图层2
 62
     6
370
     9
100
AcDbLine
 10
5797.984674744062
 20
2090.762042616767
 30
0.0
 11
6049.440979341183
 21
2090.762042616767
 31
0.0
  0
LINE
  5
21A0
330
1626
100
AcDbEntity
  8
图层2
 62
     6
370
     9
100
AcDbLine
 10
6048.190979341183
 20
2493.762042616767
 30
0.0
 11
6048.190979341183
 21
2115.762042616767
 31
0.0
  0
SOLID
  5
21A1
330
1626
100
AcDbEntity
  8
图层2
 62
     6
100
AcDbTrace
 10
6044.024312674516
 20
2493.762042616767
 30
0.0
 11
6052.35764600785
 21
2493.762042616767
 31
0.0
 12
6048.190979341183
 22
2518.762042616767
 32
0.0
 13
6048.190979341183
 23
2518.762042616767
 33
0.0
  0
SOLID
  5
21A2
330
1626
100
AcDbEntity
  8
图层2
 62
     6
100
AcDbTrace
 10
6044.024312674516
 20
2115.762042616767
 30
0.0
 11
6052.35764600785
 21
2115.762042616767
 31
0.0
 12
6048.190979341183
 22
2090.762042616767
 32
0.0
 13
6048.190979341183
 23
2090.762042616767
 33
0.0
  0
MTEXT
  5
21A3
330
1626
100
AcDbEntity
  8
图层2
 62
     6
100
AcDbMText
 10
6032.474685181125
 20
2304.762042616768
 30
0.0
 40
25.0
 41
0.0
 71
     5
 72
     1
  1
428
 11
0.0000000000000001
 21
1.0
 31
0.0
 73
     1
 44
1.0
1001
ACAD
1000
MTEXTBEGIN
1070
    73
1070
     1
1070
    44
1040
1.0
1070
    74
1070
     0
1000
MTEXTEND
  0
POINT
  5
21A4
330
1626
100
AcDbEntity
  8
Defpoints
 62
     0
100
AcDbPoint
 10
5797.984674744062
 20
2518.762042616767
 30
0.0
  0
POINT
  5
21A5
330
1626
100
AcDbEntity
  8
Defpoints
 62
     0
100
AcDbPoint
 10
5797.984674744062
 20
2090.762042616767
 30
0.0
  0
POINT
  5
21A6
330
1626
100
AcDbEntity
  8
Defpoints
 62
     0
100
AcDbPoint
 10
6048.190979341183
 20
2090.762042616767
 30
0.0
  0
ENDBLK
  5
1631
330
1626
100
AcDbEntity
  8
0
100
AcDbBlockEnd
  0
BLOCK
  5
1644
330
163E
100
AcDbEntity
  8
0
100
AcDbBlockBegin
  2
*D4
 70
     1
 10
0.0
 20
0.0
 30
0.0
  3
*D4
  1

  0
LINE
  5
22C3
330
163E
100
AcDbEntity
  8
图层2
 62
     6
370
     9
100
AcDbLine
 10
5311.32029936316
 20
2202.137823414411
 30
0.0
 11
5240.727706790512
 21
2147.166567361377
 31
0.0
  0
MTEXT
  5
22C4
330
163E
100
AcDbEntity
  8
图层2
 62
     6
100
AcDbMText
 10
5276.208210477929
 20
2194.760710586835
 30
0.0
 40
25.0
 41
0.0
 71
     5
 72
     1
  1
R95
 11
0.7889951078451527
 21
0.6143994790007687
 31
0.0
 73
     1
 44
1.0
1001
ACAD
1000
MTEXTBEGIN
1070
    73
1070
     1
1070
    44
1040
1.0
1070
    74
1070
     0
1000
MTEXTEND
  0
SOLID
  5
22C5
330
163E
100
AcDbEntity
  8
图层2
 62
     6
100
AcDbTrace
 10
5238.167708961342
 20
2150.454046977399
 30
0.0
 11
5243.287704619683
 21
2143.879087745355
 31
0.0
 12
5221.002829094384
 22
2131.806580386358
 32
0.0
 13
5221.002829094384
 23
2131.806580386358
 33
0.0
  0
POINT
  5
22C6
330
163E
100
AcDbEntity
  8
Defpoints
 62
     0
100
AcDbPoint
 10
5221.002829094384
 20
2131.806580386358
 30
0.0
  0
POINT
  5
22C7
330
163E
100
AcDbEntity
  8
Defpoints
 62
     0
100
AcDbPoint
 10
5295.95736433967
 20
2190.17453089143
 30
0.0
  0
ENDBLK
  5
1645
330
163E
100
AcDbEntity
  8
0
100
AcDbBlockEnd
  0
BLOCK
  5
1654
330
164E
100
AcDbEntity
  8
0
100
AcDbBlockBegin
  2
*D5
 70
     1
 10
0.0
 20
0.0
 30
0.0
  3
*D5
  1

  0
LINE
  5
22C8
330
164E
100
AcDbEntity
  8
图层2
 62
     6
370
     9
100
AcDbLine
 10
5312.192659202778
 20
2464.599887313112
 30
0.0
 11
5237.591578496783
 21
2513.994541635959
 31
0.0
  0
MTEXT
  5
22C9
330
164E
100
AcDbEntity
  8
图层2
 62
     6
100
AcDbMText
 10
5294.010996354577
 20
2495.530579442926
 30
0.0
 40
25.0
 41
0.0
 71
     5
 72
     1
  1
R95
 11
0.8337969406126973
 21
-0.5520712470550393
 31
0.0
 73
     1
 44
1.0
1001
ACAD
1000
MTEXTBEGIN
1070
    73
1070
     1
1070
    44
1040
1.0
1070
    74
1070
     0
1000
MTEXTEND
  0
SOLID
  5
22CA
330
164E
100
AcDbEntity
  8
图层2
 62
     6
100
AcDbTrace
 10
5239.891875359511
 20
2517.468695555179
 30
0.0
 11
5235.291281634052
 21
2510.520387716739
 31
0.0
 12
5216.746654981463
 22
2527.796322812335
 32
0.0
 13
5216.746654981463
 23
2527.796322812335
 33
0.0
  0
POINT
  5
22CB
330
164E
100
AcDbEntity
  8
Defpoints
 62
     0
100
AcDbPoint
 10
5216.746654981463
 20
2527.796322812335
 30
0.0
  0
POINT
  5
22CC
330
164E
100
AcDbEntity
  8
Defpoints
 62
     0
100
AcDbPoint
 10
5295.95736433967
 20
2475.349554342106
 30
0.0
  0
ENDBLK
  5
1655
330
164E
100
AcDbEntity
  8
0
100
AcDbBlockEnd
  0
BLOCK
  5
1664
330
165E
100
AcDbEntity
  8
0
100
AcDbBlockBegin
  2
*D6
 70
     1
 10
0.0
 20
0.0
 30
0.0
  3
*D6
  1

  0
LINE
  5
22CD
330
165E
100
AcDbEntity
  8
图层2
 62
     6
370
     9
100
AcDbLine
 10
5347.96453900757
 20
2372.388197491829
 30
0.0
 11
5220.498181209457
 21
2375.454949091202
 31
0.0
  0
MTEXT
  5
22CE
330
165E
100
AcDbEntity
  8
图层2
 62
     6
100
AcDbMText
 10
5297.105757542813
 20
2389.332666465887
 30
0.0
 40
25.0
 41
0.0
 71
     5
 72
     1
  1
R1800
 11
0.9997107005828805
 21
-0.0240523416757371
 31
0.0
 73
     1
 44
1.0
1001
ACAD
1000
MTEXTBEGIN
1070
    73
1070
     1
1070
    44
1040
1.0
1070
    74
1070
     0
1000
MTEXTEND
  0
SOLID
  5
22CF
330
165E
100
AcDbEntity
  8
图层2
 62
     6
100
AcDbTrace
 10
5220.59839929977
 20
2379.62041034363
 30
0.0
 11
5220.397963119141
 21
2371.289487838773
 31
0.0
 12
5195.505413694886
 22
2376.056257633095
 32
0.0
 13
5195.505413694886
 23
2376.056257633095
 33
0.0
  0
POINT
  5
22D0
330
165E
100
AcDbEntity
  8
Defpoints
 62
     0
100
AcDbPoint
 10
5195.505413694886
 20
2376.056257633095
 30
0.0
  0
POINT
  5
22D1
330
165E
100
AcDbEntity
  8
Defpoints
 62
     0
100
AcDbPoint
 10
6994.98467474407
 20
2332.762042616769
 30
0.0
  0
ENDBLK
  5
1665
330
165E
100
AcDbEntity
  8
0
100
AcDbBlockEnd
  0
BLOCK
  5
1674
330
166E
100
AcDbEntity
  8
0
100
AcDbBlockBegin
  2
*D7
 70
     1
 10
0.0
 20
0.0
 30
0.0
  3
*D7
  1

  0
LINE
  5
22D2
330
166E
100
AcDbEntity
  8
图层2
 62
     6
370
     9
100
AcDbLine
 10
5419.341006983843
 20
2422.078225637735
 30
0.0
 11
5421.602885627307
 21
2549.561405864347
 31
0.0
  0
MTEXT
  5
22D3
330
166E
100
AcDbEntity
  8
图层2
 62
     6
100
AcDbMText
 10
5404.536378129972
 20
2473.600586272626
 30
0.0
 40
25.0
 41
0.0
 71
     5
 72
     1
  1
R1300
 11
0.0177397732417538
 21
0.999842637841241
 31
0.0
 73
     1
 44
1.0
1001
ACAD
1000
MTEXTBEGIN
1070
    73
1070
     1
1070
    44
1040
1.0
1070
    74
1070
     0
1000
MTEXTEND
  0
SOLID
  5
22D4
330
166E
100
AcDbEntity
  8
图层2
 62
     6
100
AcDbTrace
 10
5417.436874636301
 20
2549.635321586187
 30
0.0
 11
5425.768896618311
 21
2549.487490142506
 31
0.0
 12
5422.04637995835
 22
2574.557471810377
 32
0.0
 13
5422.04637995835
 23
2574.557471810377
 33
0.0
  0
POINT
  5
22D5
330
166E
100
AcDbEntity
  8
Defpoints
 62
     0
100
AcDbPoint
 10
5422.04637995835
 20
2574.557471810377
 30
0.0
  0
POINT
  5
22D6
330
166E
100
AcDbEntity
  8
Defpoints
 62
     0
100
AcDbPoint
 10
5398.98467474407
 20
1274.762042616768
 30
0.0
  0
ENDBLK
  5
1675
330
166E
100
AcDbEntity
  8
0
100
AcDbBlockEnd
  0
BLOCK
  5
1684
330
167E
100
AcDbEntity
  8
0
100
AcDbBlockBegin
  2
*D8
 70
     1
 10
0.0
 20
0.0
 30
0.0
  3
*D8
  1

  0
LINE
  5
22D7
330
167E
100
AcDbEntity
  8
图层2
 62
     6
370
     9
100
AcDbLine
 10
5344.368519141442
 20
2244.565776861529
 30
0.0
 11
5338.299885829186
 21
2117.207035404926
 31
0.0
  0
MTEXT
  5
22D8
330
167E
100
AcDbEntity
  8
图层2
 62
     6
100
AcDbMText
 10
5326.230668947339
 20
2194.120270904817
 30
0.0
 40
25.0
 41
0.0
 71
     5
 72
     1
  1
R1300
 11
0.0475959128744162
 21
0.9988666723230139
 31
0.0
 73
     1
 44
1.0
1001
ACAD
1000
MTEXTBEGIN
1070
    73
1070
     1
1070
    44
1040
1.0
1070
    74
1070
     0
1000
MTEXTEND
  0
SOLID
  5
22D9
330
167E
100
AcDbEntity
  8
图层2
 62
     6
100
AcDbTrace
 10
5334.137941361174
 20
2117.405351708569
 30
0.0
 11
5342.4618302972
 21
2117.008719101282
 31
0.0
 12
5337.109988007325
 22
2092.23536859685
 32
0.0
 13
5337.109988007325
 23
2092.23536859685
 33
0.0
  0
POINT
  5
22DA
330
167E
100
AcDbEntity
  8
Defpoints
 62
     0
100
AcDbPoint
 10
5337.109988007325
 20
2092.23536859685
 30
0.0
  0
POINT
  5
22DB
330
167E
100
AcDbEntity
  8
Defpoints
 62
     0
100
AcDbPoint
 10
5398.984674744068
 20
3390.762042616774
 30
0.0
  0
ENDBLK
  5
1685
330
167E
100
AcDbEntity
  8
0
100
AcDbBlockEnd
  0
BLOCK
  5
1694
330
168E
100
AcDbEntity
  8
0
100
AcDbBlockBegin
  2
*D9
 70
     1
 10
0.0
 20
0.0
 30
0.0
  3
*D9
  1

  0
LINE
  5
22DC
330
168E
100
AcDbEntity
  8
图层2
 62
     6
370
     9
100
AcDbLine
 10
5489.77063437368
 20
2460.207246996957
 30
0.0
 11
5546.019566394921
 21
2529.786056735598
 31
0.0
  0
MTEXT
  5
22DD
330
168E
100
AcDbEntity
  8
图层2
 62
     6
100
AcDbMText
 10
5497.786568481894
 20
2495.179026761901
 30
0.0
 40
25.0
 41
0.0
 71
     5
 72
     1
  1
R95
 11
0.628679732092291
 21
0.777664319906967
 31
0.0
 73
     1
 44
1.0
1001
ACAD
1000
MTEXTBEGIN
1070
    73
1070
     1
1070
    44
1040
1.0
1070
    74
1070
     0
1000
MTEXTEND
  0
SOLID
  5
22DE
330
168E
100
AcDbEntity
  8
图层2
 62
     6
100
AcDbTrace
 10
5542.779298395307
 20
2532.405555619317
 30
0.0
 11
5549.259834394533
 21
2527.166557851881
 31
0.0
 12
5561.736559697227
 22
2549.227664733273
 32
0.0
 13
5561.736559697227
 23
2549.227664733273
 33
0.0
  0
POINT
  5
22DF
330
168E
100
AcDbEntity
  8
Defpoints
 62
     0
100
AcDbPoint
 10
5561.736559697227
 20
2549.227664733273
 30
0.0
  0
POINT
  5
22E0
330
168E
100
AcDbEntity
  8
Defpoints
 62
     0
100
AcDbPoint
 10
5502.011985148454
 20
2475.349554342105
 30
0.0
  0
ENDBLK
  5
1695
330
168E
100
AcDbEntity
  8
0
100
AcDbBlockEnd
  0
BLOCK
  5
16A4
330
169E
100
AcDbEntity
  8
0
100
AcDbBlockBegin
  2
*D10
 70
     1
 10
0.0
 20
0.0
 30
0.0
  3
*D10
  1

  0
LINE
  5
22E1
330
169E
100
AcDbEntity
  8
图层2
 62
     6
370
     9
100
AcDbLine
 10
5856.702333196997
 20
2406.892896265094
 30
0.0
 11
5913.95269955719
 21
2475.650068035023
 31
0.0
  0
MTEXT
  5
22E2
330
169E
100
AcDbEntity
  8
图层2
 62
     6
100
AcDbMText
 10
5865.251435282493
 20
2441.72189308297
 30
0.0
 40
25.0
 41
0.0
 71
     5
 72
     1
  1
R85
 11
0.6398725041023399
 21
0.7684810853194769
 31
0.0
 73
     1
 44
1.0
1001
ACAD
1000
MTEXTBEGIN
1070
    73
1070
     1
1070
    44
1040
1.0
1070
    74
1070
     0
1000
MTEXTEND
  0
SOLID
  5
22E3
330
169E
100
AcDbEntity
  8
图层2
 62
     6
100
AcDbTrace
 10
5910.750695035027
 20
2478.316203468783
 30
0.0
 11
5917.154704079354
 21
2472.983932601263
 31
0.0
 12
5929.949512159748
 22
2494.862095168011
 32
0.0
 13
5929.949512159748
 23
2494.862095168011
 33
0.0
  0
POINT
  5
22E4
330
169E
100
AcDbEntity
  8
Defpoints
 62
     0
100
AcDbPoint
 10
5929.949512159748
 20
2494.862095168011
 30
0.0
  0
POINT
  5
22E5
330
169E
100
AcDbEntity
  8
Defpoints
 62
     0
100
AcDbPoint
 10
5875.560349311052
 20
2429.541202915856
 30
0.0
  0
ENDBLK
  5
16A5
330
169E
100
AcDbEntity
  8
0
100
AcDbBlockEnd
  0
BLOCK
  5
16B4
330
16AE
100
AcDbEntity
  8
0
100
AcDbBlockBegin
  2
*D11
 70
     1
 10
0.0
 20
0.0
 30
0.0
  3
*D11
  1

  0
LINE
  5
22E6
330
16AE
100
AcDbEntity
  8
图层2
 62
     6
370
     9
100
AcDbLine
 10
5814.223906636629
 20
2329.071482976909
 30
0.0
 11
5941.698536496119
 21
2331.772608274803
 31
0.0
  0
MTEXT
  5
22E7
330
16AE
100
AcDbEntity
  8
图层2
 62
     6
100
AcDbMText
 10
5865.131080964637
 20
2345.87000323407
 30
0.0
 40
25.0
 41
0.0
 71
     5
 72
     1
  1
R1300
 11
0.9997755778447478
 21
0.0211847573788537
 31
0.0
 73
     1
 44
1.0
1001
ACAD
1000
MTEXTBEGIN
1070
    73
1070
     1
1070
    44
1040
1.0
1070
    74
1070
     0
1000
MTEXTEND
  0
SOLID
  5
22E8
330
16AE
100
AcDbEntity
  8
图层2
 62
     6
100
AcDbTrace
 10
5941.610266673706
 20
2335.938339849156
 30
0.0
 11
5941.786806318528
 21
2327.60687670045
 31
0.0
 12
5966.692925942236
 22
2332.302227209274
 32
0.0
 13
5966.692925942236
 23
2332.302227209274
 33
0.0
  0
POINT
  5
22E9
330
16AE
100
AcDbEntity
  8
Defpoints
 62
     0
100
AcDbPoint
 10
5966.692925942236
 20
2332.302227209274
 30
0.0
  0
POINT
  5
22EA
330
16AE
100
AcDbEntity
  8
Defpoints
 62
     0
100
AcDbPoint
 10
4666.984674744067
 20
2304.762042616764
 30
0.0
  0
ENDBLK
  5
16B5
330
16AE
100
AcDbEntity
  8
0
100
AcDbBlockEnd
  0
BLOCK
  5
16C4
330
16BE
100
AcDbEntity
  8
0
100
AcDbBlockBegin
  2
*D12
 70
     1
 10
0.0
 20
0.0
 30
0.0
  3
*D12
  1

  0
LINE
  5
22EB
330
16BE
100
AcDbEntity
  8
图层2
 62
     6
370
     9
100
AcDbLine
 10
5856.781657411096
 20
2202.697003397554
 30
0.0
 11
5913.791206270109
 21
2133.7400279921
 31
0.0
  0
MTEXT
  5
22EC
330
16BE
100
AcDbEntity
  8
图层2
 62
     6
100
AcDbMText
 10
5889.434441663826
 20
2187.866566911982
 30
0.0
 40
25.0
 41
0.0
 71
     5
 72
     1
  1
R85
 11
0.6371809493174512
 21
-0.7707142387596794
 31
0.0
 73
     1
 44
1.0
1001
ACAD
1000
MTEXTBEGIN
1070
    73
1070
     1
1070
    44
1040
1.0
1070
    74
1070
     0
1000
MTEXTEND
  0
SOLID
  5
22ED
330
16BE
100
AcDbEntity
  8
图层2
 62
     6
100
AcDbTrace
 10
5917.002515598274
 20
2136.394948614257
 30
0.0
 11
5910.579896941943
 21
2131.085107369944
 31
0.0
 12
5929.720730003044
 22
2114.472172023109
 32
0.0
 13
5929.720730003044
 23
2114.472172023109
 33
0.0
  0
POINT
  5
22EE
330
16BE
100
AcDbEntity
  8
Defpoints
 62
     0
100
AcDbPoint
 10
5929.720730003044
 20
2114.472172023109
 30
0.0
  0
POINT
  5
22EF
330
16BE
100
AcDbEntity
  8
Defpoints
 62
     0
100
AcDbPoint
 10
5875.560349311063
 20
2179.982882317681
 30
0.0
  0
ENDBLK
  5
16C5
330
16BE
100
AcDbEntity
  8
0
100
AcDbBlockEnd
  0
BLOCK
  5
16D4
330
16CE
100
AcDbEntity
  8
0
100
AcDbBlockBegin
  2
*D13
 70
     1
 10
0.0
 20
0.0
 30
0.0
  3
*D13
  1

  0
LINE
  5
22F0
330
16CE
100
AcDbEntity
  8
图层2
 62
     6
370
     9
100
AcDbLine
 10
5832.761607941247
 20
2225.71685249956
 30
0.0
 11
5838.456132240055
 21
2116.819498800914
 31
0.0
  0
MTEXT
  5
22F1
330
16CE
100
AcDbEntity
  8
图层2
 62
     6
100
AcDbMText
 10
5850.650954558902
 20
2184.571844203517
 30
0.0
 40
25.0
 41
0.0
 71
     5
 72
     1
  1
R800
 11
0.0522212354787057
 21
-0.998635540407549
 31
0.0
 73
     1
 44
1.0
1001
ACAD
1000
MTEXTBEGIN
1070
    73
1070
     1
1070
    44
1040
1.0
1070
    74
1070
     0
1000
MTEXTEND
  0
SOLID
  5
22F2
330
16CE
100
AcDbEntity
  8
图层2
 62
     6
100
AcDbTrace
 10
5842.617113658421
 20
2117.037087282076
 30
0.0
 11
5834.295150821692
 21
2116.601910319753
 31
0.0
 12
5839.761663127023
 22
2091.853610290726
 32
0.0
 13
5839.761663127023
 23
2091.853610290726
 33
0.0
  0
POINT
  5
22F3
330
16CE
100
AcDbEntity
  8
Defpoints
 62
     0
100
AcDbPoint
 10
5839.761663127023
 20
2091.853610290726
 30
0.0
  0
POINT
  5
22F4
330
16CE
100
AcDbEntity
  8
Defpoints
 62
     0
100
AcDbPoint
 10
5797.984674744059
 20
2890.762042616765
 30
0.0
  0
ENDBLK
  5
16D5
330
16CE
100
AcDbEntity
  8
0
100
AcDbBlockEnd
  0
BLOCK
  5
16E4
330
16DE
100
AcDbEntity
  8
0
100
AcDbBlockBegin
  2
*D14
 70
     1
 10
0.0
 20
0.0
 30
0.0
  3
*D14
  1

  0
LINE
  5
22F5
330
16DE
100
AcDbEntity
  8
图层2
 62
     6
370
     9
100
AcDbLine
 10
5828.742265116059
 20
2384.00523921117
 30
0.0
 11
5833.778644970284
 21
2492.935015340207
 31
0.0
  0
MTEXT
  5
22F6
330
16DE
100
AcDbEntity
  8
图层2
 62
     6
100
AcDbMText
 10
5814.983610142635
 20
2426.709335541737
 30
0.0
 40
25.0
 41
0.0
 71
     5
 72
     1
  1
R800
 11
0.0461857680338062
 21
0.9989328680302433
 31
0.0
 73
     1
 44
1.0
1001
ACAD
1000
MTEXTBEGIN
1070
    73
1070
     1
1070
    44
1040
1.0
1070
    74
1070
     0
1000
MTEXTEND
  0
SOLID
  5
22F7
330
16DE
100
AcDbEntity
  8
图层2
 62
     6
100
AcDbTrace
 10
5829.616424686825
 20
2493.127456040348
 30
0.0
 11
5837.940865253744
 21
2492.742574640065
 31
0.0
 12
5834.933289171129
 22
2517.908337040962
 32
0.0
 13
5834.933289171129
 23
2517.908337040962
 33
0.0
  0
POINT
  5
22F8
330
16DE
100
AcDbEntity
  8
Defpoints
 62
     0
100
AcDbPoint
 10
5834.933289171129
 20
2517.908337040962
 30
0.0
  0
POINT
  5
22F9
330
16DE
100
AcDbEntity
  8
Defpoints
 62
     0
100
AcDbPoint
 10
5797.984674744085
 20
1718.76204261677
 30
0.0
  0
ENDBLK
  5
16E5
330
16DE
100
AcDbEntity
  8
0
100
AcDbBlockEnd
  0
BLOCK
  5
16FC
330
16F2
100
AcDbEntity
  8
0
100
AcDbBlockBegin
  2
*D15
 70
     1
 10
0.0
 20
0.0
 30
0.0
  3
*D15
  1

  0
LINE
  5
16FF
330
16F2
100
AcDbEntity
  8
图层2
370
     9
100
AcDbLine
 10
5586.51261154733
 20
2519.387042616767
 30
0.0
 11
5586.51261154733
 21
2641.169107529659
 31
0.0
  0
LINE
  5
1700
330
16F2
100
AcDbEntity
  8
图层2
370
     9
100
AcDbLine
 10
5194.984674744063
 20
2333.387042616768
 30
0.0
 11
5194.984674744063
 21
2641.169107529659
 31
0.0
  0
LINE
  5
1701
330
16F2
100
AcDbEntity
  8
图层2
370
     9
100
AcDbLine
 10
5561.512611547329
 20
2639.919107529659
 30
0.0
 11
5219.984674744065
 21
2639.919107529659
 31
0.0
  0
SOLID
  5
1702
330
16F2
100
AcDbEntity
  8
图层2
100
AcDbTrace
 10
5561.512611547329
 20
2644.085774196325
 30
0.0
 11
5561.512611547329
 21
2635.752440862992
 31
0.0
 12
5586.51261154733
 22
2639.919107529659
 32
0.0
 13
5586.51261154733
 23
2639.919107529659
 33
0.0
  0
SOLID
  5
1703
330
16F2
100
AcDbEntity
  8
图层2
100
AcDbTrace
 10
5219.984674744065
 20
2644.085774196325
 30
0.0
 11
5219.984674744065
 21
2635.752440862992
 31
0.0
 12
5194.984674744063
 22
2639.919107529659
 32
0.0
 13
5194.984674744063
 23
2639.919107529659
 33
0.0
  0
MTEXT
  5
1704
330
16F2
100
AcDbEntity
  8
图层2
 62
     0
100
AcDbMText
 10
5390.748643145697
 20
2658.492287053811
 30
0.0
 40
25.0
 41
0.0
 71
     5
 72
     1
  1
391,53
 73
     1
 44
1.0
1001
ACAD
1000
MTEXTBEGIN
1070
    73
1070
     1
1070
    44
1040
1.0
1070
    74
1070
     0
1000
MTEXTEND
  0
POINT
  5
1705
330
16F2
100
AcDbEntity
  8
Defpoints
 62
     0
100
AcDbPoint
 10
5586.51261154733
 20
2518.762042616767
 30
0.0
  0
POINT
  5
1706
330
16F2
100
AcDbEntity
  8
Defpoints
 62
     0
100
AcDbPoint
 10
5194.984674744063
 20
2332.762042616769
 30
0.0
  0
POINT
  5
1707
330
16F2
100
AcDbEntity
  8
Defpoints
 62
     0
100
AcDbPoint
 10
5194.984674744063
 20
2639.919107529659
 30
0.0
  0
ENDBLK
  5
16FD
330
16F2
100
AcDbEntity
  8
0
100
AcDbBlockEnd
  0
BLOCK
  5
17C0
330
17B6
100
AcDbEntity
  8
0
100
AcDbBlockBegin
  2
*D16
 70
     1
 10
0.0
 20
0.0
 30
0.0
  3
*D16
  1

  0
LINE
  5
17B7
330
17B6
100
AcDbEntity
  8
图层2
370
     9
100
AcDbLine
 10
8856.818940939254
 20
2332.137042616768
 30
0.0
 11
8856.818940939254
 21
2004.67374718543
 31
0.0
  0
LINE
  5
17B8
330
17B6
100
AcDbEntity
  8
图层2
370
     9
100
AcDbLine
 10
8084.818940939255
 20
2304.137042616765
 30
0.0
 11
8084.818940939255
 21
2004.67374718543
 31
0.0
  0
LINE
  5
17B9
330
17B6
100
AcDbEntity
  8
图层2
370
     9
100
AcDbLine
 10
8831.818940939255
 20
2005.92374718543
 30
0.0
 11
8109.818940939254
 21
2005.92374718543
 31
0.0
  0
SOLID
  5
17BA
330
17B6
100
AcDbEntity
  8
图层2
100
AcDbTrace
 10
8831.818940939255
 20
2010.090413852097
 30
0.0
 11
8831.818940939255
 21
2001.757080518764
 31
0.0
 12
8856.818940939254
 22
2005.92374718543
 32
0.0
 13
8856.818940939254
 23
2005.92374718543
 33
0.0
  0
SOLID
  5
17BB
330
17B6
100
AcDbEntity
  8
图层2
100
AcDbTrace
 10
8109.818940939254
 20
2010.090413852097
 30
0.0
 11
8109.818940939254
 21
2001.757080518764
 31
0.0
 12
8084.818940939255
 22
2005.92374718543
 32
0.0
 13
8084.818940939255
 23
2005.92374718543
 33
0.0
  0
MTEXT
  5
17BC
330
17B6
100
AcDbEntity
  8
图层2
 62
     0
100
AcDbMText
 10
8470.818940939254
 20
2021.676090372164
 30
0.0
 40
25.0
 41
0.0
 71
     5
 72
     1
  1
772
 73
     1
 44
1.0
1001
ACAD
1000
MTEXTBEGIN
1070
    73
1070
     1
1070
    44
1040
1.0
1070
    74
1070
     0
1000
MTEXTEND
  0
POINT
  5
17BD
330
17B6
100
AcDbEntity
  8
Defpoints
 62
     0
100
AcDbPoint
 10
8856.818940939254
 20
2332.762042616769
 30
0.0
  0
POINT
  5
17BE
330
17B6
100
AcDbEntity
  8
Defpoints
 62
     0
100
AcDbPoint
 10
8084.818940939255
 20
2304.762042616765
 30
0.0
  0
POINT
  5
17BF
330
17B6
100
AcDbEntity
  8
Defpoints
 62
     0
100
AcDbPoint
 10
8084.818940939255
 20
2005.92374718543
 30
0.0
  0
ENDBLK
  5
17C1
330
17B6
100
AcDbEntity
  8
0
100
AcDbBlockEnd
  0
BLOCK
  5
17CC
330
17C2
100
AcDbEntity
  8
0
100
AcDbBlockBegin
  2
*D17
 70
     1
 10
0.0
 20
0.0
 30
0.0
  3
*D17
  1

  0
LINE
  5
17C3
330
17C2
100
AcDbEntity
  8
图层2
370
     9
100
AcDbLine
 10
8653.443940939254
 20
2574.762042616767
 30
0.0
 11
8931.086011611006
 21
2574.762042616767
 31
0.0
  0
LINE
  5
17C4
330
17C2
100
AcDbEntity
  8
图层2
370
     9
100
AcDbLine
 10
8653.443940939254
 20
2090.762042616767
 30
0.0
 11
8931.086011611006
 21
2090.762042616767
 31
0.0
  0
LINE
  5
17C5
330
17C2
100
AcDbEntity
  8
图层2
370
     9
100
AcDbLine
 10
8929.836011611007
 20
2549.762042616767
 30
0.0
 11
8929.836011611007
 21
2115.762042616767
 31
0.0
  0
SOLID
  5
17C6
330
17C2
100
AcDbEntity
  8
图层2
100
AcDbTrace
 10
8925.669344944338
 20
2549.762042616767
 30
0.0
 11
8934.002678277671
 21
2549.762042616767
 31
0.0
 12
8929.836011611007
 22
2574.762042616767
 32
0.0
 13
8929.836011611007
 23
2574.762042616767
 33
0.0
  0
SOLID
  5
17C7
330
17C2
100
AcDbEntity
  8
图层2
100
AcDbTrace
 10
8925.669344944338
 20
2115.762042616767
 30
0.0
 11
8934.002678277671
 21
2115.762042616767
 31
0.0
 12
8929.836011611007
 22
2090.762042616767
 32
0.0
 13
8929.836011611007
 23
2090.762042616767
 33
0.0
  0
MTEXT
  5
17C8
330
17C2
100
AcDbEntity
  8
图层2
 62
     0
100
AcDbMText
 10
8914.119717450947
 20
2332.762042616769
 30
0.0
 40
25.0
 41
0.0
 71
     5
 72
     1
  1
484
 11
0.0000000000000001
 21
1.0
 31
0.0
 73
     1
 44
1.0
1001
ACAD
1000
MTEXTBEGIN
1070
    73
1070
     1
1070
    44
1040
1.0
1070
    74
1070
     0
1000
MTEXTEND
  0
POINT
  5
17C9
330
17C2
100
AcDbEntity
  8
Defpoints
 62
     0
100
AcDbPoint
 10
8652.818940939253
 20
2574.762042616767
 30
0.0
  0
POINT
  5
17CA
330
17C2
100
AcDbEntity
  8
Defpoints
 62
     0
100
AcDbPoint
 10
8652.818940939253
 20
2090.762042616767
 30
0.0
  0
POINT
  5
17CB
330
17C2
100
AcDbEntity
  8
Defpoints
 62
     0
100
AcDbPoint
 10
8929.836011611007
 20
2090.762042616767
 30
0.0
  0
ENDBLK
  5
17CD
330
17C2
100
AcDbEntity
  8
0
100
AcDbBlockEnd
  0
BLOCK
  5
17D8
330
17CE
100
AcDbEntity
  8
0
100
AcDbBlockBegin
  2
*D18
 70
     1
 10
0.0
 20
0.0
 30
0.0
  3
*D18
  1

  0
LINE
  5
17CF
330
17CE
100
AcDbEntity
  8
图层2
370
     9
100
AcDbLine
 10
8253.193940939254
 20
2518.762042616767
 30
0.0
 11
8002.362636342137
 21
2518.762042616767
 31
0.0
  0
LINE
  5
17D0
330
17CE
100
AcDbEntity
  8
图层2
370
     9
100
AcDbLine
 10
8253.193940939254
 20
2090.762042616767
 30
0.0
 11
8002.362636342137
 21
2090.762042616767
 31
0.0
  0
LINE
  5
17D1
330
17CE
100
AcDbEntity
  8
图层2
370
     9
100
AcDbLine
 10
8003.612636342136
 20
2493.762042616767
 30
0.0
 11
8003.612636342136
 21
2115.762042616767
 31
0.0
  0
SOLID
  5
17D2
330
17CE
100
AcDbEntity
  8
图层2
100
AcDbTrace
 10
7999.445969675469
 20
2493.762042616767
 30
0.0
 11
8007.779303008803
 21
2493.762042616767
 31
0.0
 12
8003.612636342136
 22
2518.762042616767
 32
0.0
 13
8003.612636342136
 23
2518.762042616767
 33
0.0
  0
SOLID
  5
17D3
330
17CE
100
AcDbEntity
  8
图层2
100
AcDbTrace
 10
7999.445969675469
 20
2115.762042616767
 30
0.0
 11
8007.779303008803
 21
2115.762042616767
 31
0.0
 12
8003.612636342136
 22
2090.762042616767
 32
0.0
 13
8003.612636342136
 23
2090.762042616767
 33
0.0
  0
MTEXT
  5
17D4
330
17CE
100
AcDbEntity
  8
图层2
 62
     0
100
AcDbMText
 10
7987.896342182077
 20
2304.762042616768
 30
0.0
 40
25.0
 41
0.0
 71
     5
 72
     1
  1
428
 11
0.0000000000000001
 21
1.0
 31
0.0
 73
     1
 44
1.0
1001
ACAD
1000
MTEXTBEGIN
1070
    73
1070
     1
1070
    44
1040
1.0
1070
    74
1070
     0
1000
MTEXTEND
  0
POINT
  5
17D5
330
17CE
100
AcDbEntity
  8
Defpoints
 62
     0
100
AcDbPoint
 10
8253.818940939254
 20
2518.762042616767
 30
0.0
  0
POINT
  5
17D6
330
17CE
100
AcDbEntity
  8
Defpoints
 62
     0
100
AcDbPoint
 10
8253.818940939254
 20
2090.762042616767
 30
0.0
  0
POINT
  5
17D7
330
17CE
100
AcDbEntity
  8
Defpoints
 62
     0
100
AcDbPoint
 10
8003.612636342136
 20
2090.762042616767
 30
0.0
  0
ENDBLK
  5
17D9
330
17CE
100
AcDbEntity
  8
0
100
AcDbBlockEnd
  0
BLOCK
  5
17E0
330
17DA
100
AcDbEntity
  8
0
100
AcDbBlockBegin
  2
*D19
 70
     1
 10
0.0
 20
0.0
 30
0.0
  3
*D19
  1

  0
LINE
  5
17DB
330
17DA
100
AcDbEntity
  8
图层2
370
     9
100
AcDbLine
 10
8740.483316320158
 20
2202.137823414412
 30
0.0
 11
8811.075908892807
 21
2147.166567361377
 31
0.0
  0
MTEXT
  5
17DC
330
17DA
100
AcDbEntity
  8
图层2
 62
     0
100
AcDbMText
 10
8775.595405205386
 20
2194.760710586837
 30
0.0
 40
25.0
 41
0.0
 71
     5
 72
     1
  1
R95
 11
0.7889951078451589
 21
-0.6143994790007607
 31
0.0
 73
     1
 44
1.0
1001
ACAD
1000
MTEXTBEGIN
1070
    73
1070
     1
1070
    44
1040
1.0
1070
    74
1070
     0
1000
MTEXTEND
  0
SOLID
  5
17DD
330
17DA
100
AcDbEntity
  8
图层2
100
AcDbTrace
 10
8813.635906721978
 20
2150.454046977399
 30
0.0
 11
8808.515911063638
 21
2143.879087745355
 31
0.0
 12
8830.800786588936
 22
2131.806580386359
 32
0.0
 13
8830.800786588936
 23
2131.806580386359
 33
0.0
  0
POINT
  5
17DE
330
17DA
100
AcDbEntity
  8
Defpoints
 62
     0
100
AcDbPoint
 10
8830.800786588936
 20
2131.806580386359
 30
0.0
  0
POINT
  5
17DF
330
17DA
100
AcDbEntity
  8
Defpoints
 62
     0
100
AcDbPoint
 10
8755.846251343646
 20
2190.174530891429
 30
0.0
  0
ENDBLK
  5
17E1
330
17DA
100
AcDbEntity
  8
0
100
AcDbBlockEnd
  0
BLOCK
  5
17E8
330
17E2
100
AcDbEntity
  8
0
100
AcDbBlockBegin
  2
*D20
 70
     1
 10
0.0
 20
0.0
 30
0.0
  3
*D20
  1

  0
LINE
  5
17E3
330
17E2
100
AcDbEntity
  8
图层2
370
     9
100
AcDbLine
 10
8739.610956480538
 20
2464.599887313112
 30
0.0
 11
8814.212037186534
 21
2513.994541635959
 31
0.0
  0
MTEXT
  5
17E4
330
17E2
100
AcDbEntity
  8
图层2
 62
     0
100
AcDbMText
 10
8757.792619328737
 20
2495.530579442928
 30
0.0
 40
25.0
 41
0.0
 71
     5
 72
     1
  1
R95
 11
0.8337969406127029
 21
0.5520712470550305
 31
0.0
 73
     1
 44
1.0
1001
ACAD
1000
MTEXTBEGIN
1070
    73
1070
     1
1070
    44
1040
1.0
1070
    74
1070
     0
1000
MTEXTEND
  0
SOLID
  5
17E5
330
17E2
100
AcDbEntity
  8
图层2
100
AcDbTrace
 10
8811.911740323806
 20
2517.468695555177
 30
0.0
 11
8816.512334049262
 21
2510.520387716739
 31
0.0
 12
8835.056960701852
 22
2527.796322812334
 32
0.0
 13
8835.056960701852
 23
2527.796322812334
 33
0.0
  0
POINT
  5
17E6
330
17E2
100
AcDbEntity
  8
Defpoints
 62
     0
100
AcDbPoint
 10
8835.056960701852
 20
2527.796322812334
 30
0.0
  0
POINT
  5
17E7
330
17E2
100
AcDbEntity
  8
Defpoints
 62
     0
100
AcDbPoint
 10
8755.846251343644
 20
2475.349554342106
 30
0.0
  0
ENDBLK
  5
17E9
330
17E2
100
AcDbEntity
  8
0
100
AcDbBlockEnd
  0
BLOCK
  5
17F0
330
17EA
100
AcDbEntity
  8
0
100
AcDbBlockBegin
  2
*D21
 70
     1
 10
0.0
 20
0.0
 30
0.0
  3
*D21
  1

  0
LINE
  5
17EB
330
17EA
100
AcDbEntity
  8
图层2
370
     9
100
AcDbLine
 10
8703.839076675754
 20
2372.388197491828
 30
0.0
 11
8831.305434473865
 21
2375.4549490912
 31
0.0
  0
MTEXT
  5
17EC
330
17EA
100
AcDbEntity
  8
图层2
 62
     0
100
AcDbMText
 10
8754.697858140509
 20
2389.332666465886
 30
0.0
 40
25.0
 41
0.0
 71
     5
 72
     1
  1
R1800
 11
0.9997107005828805
 21
0.0240523416757362
 31
0.0
 73
     1
 44
1.0
1001
ACAD
1000
MTEXTBEGIN
1070
    73
1070
     1
1070
    44
1040
1.0
1070
    74
1070
     0
1000
MTEXTEND
  0
SOLID
  5
17ED
330
17EA
100
AcDbEntity
  8
图层2
100
AcDbTrace
 10
8831.205216383549
 20
2379.620410343628
 30
0.0
 11
8831.405652564184
 21
2371.289487838772
 31
0.0
 12
8856.298201988437
 22
2376.056257633094
 32
0.0
 13
8856.298201988437
 23
2376.056257633094
 33
0.0
  0
POINT
  5
17EE
330
17EA
100
AcDbEntity
  8
Defpoints
 62
     0
100
AcDbPoint
 10
8856.298201988437
 20
2376.056257633094
 30
0.0
  0
POINT
  5
17EF
330
17EA
100
AcDbEntity
  8
Defpoints
 62
     0
100
AcDbPoint
 10
7056.81894093925
 20
2332.762042616768
 30
0.0
  0
ENDBLK
  5
17F1
330
17EA
100
AcDbEntity
  8
0
100
AcDbBlockEnd
  0
BLOCK
  5
17F8
330
17F2
100
AcDbEntity
  8
0
100
AcDbBlockBegin
  2
*D22
 70
     1
 10
0.0
 20
0.0
 30
0.0
  3
*D22
  1

  0
LINE
  5
17F3
330
17F2
100
AcDbEntity
  8
图层2
370
     9
100
AcDbLine
 10
8632.462608699478
 20
2422.078225637737
 30
0.0
 11
8630.200730056015
 21
2549.561405864348
 31
0.0
  0
MTEXT
  5
17F4
330
17F2
100
AcDbEntity
  8
图层2
 62
     0
100
AcDbMText
 10
8647.267237553348
 20
2473.600586272627
 30
0.0
 40
25.0
 41
0.0
 71
     5
 72
     1
  1
R1300
 11
0.0177397732417547
 21
-0.999842637841241
 31
0.0
 73
     1
 44
1.0
1001
ACAD
1000
MTEXTBEGIN
1070
    73
1070
     1
1070
    44
1040
1.0
1070
    74
1070
     0
1000
MTEXTEND
  0
SOLID
  5
17F5
330
17F2
100
AcDbEntity
  8
图层2
100
AcDbTrace
 10
8634.366741047019
 20
2549.635321586189
 30
0.0
 11
8626.03471906501
 21
2549.487490142507
 31
0.0
 12
8629.757235724971
 22
2574.557471810379
 32
0.0
 13
8629.757235724971
 23
2574.557471810379
 33
0.0
  0
POINT
  5
17F6
330
17F2
100
AcDbEntity
  8
Defpoints
 62
     0
100
AcDbPoint
 10
8629.757235724971
 20
2574.557471810379
 30
0.0
  0
POINT
  5
17F7
330
17F2
100
AcDbEntity
  8
Defpoints
 62
     0
100
AcDbPoint
 10
8652.818940939249
 20
1274.762042616768
 30
0.0
  0
ENDBLK
  5
17F9
330
17F2
100
AcDbEntity
  8
0
100
AcDbBlockEnd
  0
BLOCK
  5
1800
330
17FA
100
AcDbEntity
  8
0
100
AcDbBlockBegin
  2
*D23
 70
     1
 10
0.0
 20
0.0
 30
0.0
  3
*D23
  1

  0
LINE
  5
17FB
330
17FA
100
AcDbEntity
  8
图层2
370
     9
100
AcDbLine
 10
8707.435096541876
 20
2244.565776861529
 30
0.0
 11
8713.503729854133
 21
2117.207035404926
 31
0.0
  0
MTEXT
  5
17FC
330
17FA
100
AcDbEntity
  8
图层2
 62
     0
100
AcDbMText
 10
8725.572946735985
 20
2194.120270904815
 30
0.0
 40
25.0
 41
0.0
 71
     5
 72
     1
  1
R1300
 11
0.0475959128744168
 21
-0.9988666723230139
 31
0.0
 73
     1
 44
1.0
1001
ACAD
1000
MTEXTBEGIN
1070
    73
1070
     1
1070
    44
1040
1.0
1070
    74
1070
     0
1000
MTEXTEND
  0
SOLID
  5
17FD
330
17FA
100
AcDbEntity
  8
图层2
100
AcDbTrace
 10
8717.665674322146
 20
2117.405351708569
 30
0.0
 11
8709.34178538612
 21
2117.008719101282
 31
0.0
 12
8714.693627675991
 22
2092.23536859685
 32
0.0
 13
8714.693627675991
 23
2092.23536859685
 33
0.0
  0
POINT
  5
17FE
330
17FA
100
AcDbEntity
  8
Defpoints
 62
     0
100
AcDbPoint
 10
8714.693627675991
 20
2092.23536859685
 30
0.0
  0
POINT
  5
17FF
330
17FA
100
AcDbEntity
  8
Defpoints
 62
     0
100
AcDbPoint
 10
8652.818940939253
 20
3390.762042616774
 30
0.0
  0
ENDBLK
  5
1801
330
17FA
100
AcDbEntity
  8
0
100
AcDbBlockEnd
  0
BLOCK
  5
1808
330
1802
100
AcDbEntity
  8
0
100
AcDbBlockBegin
  2
*D24
 70
     1
 10
0.0
 20
0.0
 30
0.0
  3
*D24
  1

  0
LINE
  5
1AA8
330
1802
100
AcDbEntity
  8
图层2
370
     9
100
AcDbLine
 10
8562.032981309641
 20
2460.207246996955
 30
0.0
 11
8505.784049288399
 21
2529.786056735598
 31
0.0
  0
MTEXT
  5
1AA9
330
1802
100
AcDbEntity
  8
图层2
 62
     0
100
AcDbMText
 10
8554.01704720143
 20
2495.1790267619
 30
0.0
 40
25.0
 41
0.0
 71
     5
 72
     1
  1
R95
 11
0.628679732092308
 21
-0.7776643199069531
 31
0.0
 73
     1
 44
1.0
1001
ACAD
1000
MTEXTBEGIN
1070
    73
1070
     1
1070
    44
1040
1.0
1070
    74
1070
     0
1000
MTEXTEND
  0
SOLID
  5
1AAA
330
1802
100
AcDbEntity
  8
图层2
100
AcDbTrace
 10
8509.024317288011
 20
2532.405555619315
 30
0.0
 11
8502.543781288787
 21
2527.16655785188
 31
0.0
 12
8490.067055986093
 22
2549.227664733272
 32
0.0
 13
8490.067055986093
 23
2549.227664733272
 33
0.0
  0
POINT
  5
1AAB
330
1802
100
AcDbEntity
  8
Defpoints
 62
     0
100
AcDbPoint
 10
8490.067055986093
 20
2549.227664733272
 30
0.0
  0
POINT
  5
1AAC
330
1802
100
AcDbEntity
  8
Defpoints
 62
     0
100
AcDbPoint
 10
8549.791630534867
 20
2475.349554342103
 30
0.0
  0
ENDBLK
  5
1809
330
1802
100
AcDbEntity
  8
0
100
AcDbBlockEnd
  0
BLOCK
  5
1810
330
180A
100
AcDbEntity
  8
0
100
AcDbBlockBegin
  2
*D25
 70
     1
 10
0.0
 20
0.0
 30
0.0
  3
*D25
  1

  0
LINE
  5
180B
330
180A
100
AcDbEntity
  8
图层2
370
     9
100
AcDbLine
 10
8195.101282486321
 20
2406.892896265095
 30
0.0
 11
8137.850916126124
 21
2475.650068035023
 31
0.0
  0
MTEXT
  5
180C
330
180A
100
AcDbEntity
  8
图层2
 62
     0
100
AcDbMText
 10
8186.552180400823
 20
2441.721893082971
 30
0.0
 40
25.0
 41
0.0
 71
     5
 72
     1
  1
R85
 11
0.6398725041023591
 21
-0.7684810853194609
 31
0.0
 73
     1
 44
1.0
1001
ACAD
1000
MTEXTBEGIN
1070
    73
1070
     1
1070
    44
1040
1.0
1070
    74
1070
     0
1000
MTEXTEND
  0
SOLID
  5
180D
330
180A
100
AcDbEntity
  8
图层2
100
AcDbTrace
 10
8141.05292064829
 20
2478.316203468783
 30
0.0
 11
8134.64891160396
 21
2472.983932601263
 31
0.0
 12
8121.854103523567
 22
2494.862095168011
 32
0.0
 13
8121.854103523567
 23
2494.862095168011
 33
0.0
  0
POINT
  5
180E
330
180A
100
AcDbEntity
  8
Defpoints
 62
     0
100
AcDbPoint
 10
8121.854103523567
 20
2494.862095168011
 30
0.0
  0
POINT
  5
180F
330
180A
100
AcDbEntity
  8
Defpoints
 62
     0
100
AcDbPoint
 10
8176.243266372265
 20
2429.541202915856
 30
0.0
  0
ENDBLK
  5
1811
330
180A
100
AcDbEntity
  8
0
100
AcDbBlockEnd
  0
BLOCK
  5
1818
330
1812
100
AcDbEntity
  8
0
100
AcDbBlockBegin
  2
*D26
 70
     1
 10
0.0
 20
0.0
 30
0.0
  3
*D26
  1

  0
LINE
  5
1813
330
1812
100
AcDbEntity
  8
图层2
370
     9
100
AcDbLine
 10
8237.579709046691
 20
2329.071482976909
 30
0.0
 11
8110.105079187203
 21
2331.772608274803
 31
0.0
  0
MTEXT
  5
1814
330
1812
100
AcDbEntity
  8
图层2
 62
     0
100
AcDbMText
 10
8186.672534718679
 20
2345.87000323407
 30
0.0
 40
25.0
 41
0.0
 71
     5
 72
     1
  1
R1300
 11
0.9997755778447478
 21
-0.0211847573788537
 31
0.0
 73
     1
 44
1.0
1001
ACAD
1000
MTEXTBEGIN
1070
    73
1070
     1
1070
    44
1040
1.0
1070
    74
1070
     0
1000
MTEXTEND
  0
SOLID
  5
1815
330
1812
100
AcDbEntity
  8
图层2
100
AcDbTrace
 10
8110.193349009611
 20
2335.938339849155
 30
0.0
 11
8110.01680936479
 21
2327.60687670045
 31
0.0
 12
8085.110689741084
 22
2332.302227209274
 32
0.0
 13
8085.110689741084
 23
2332.302227209274
 33
0.0
  0
POINT
  5
1816
330
1812
100
AcDbEntity
  8
Defpoints
 62
     0
100
AcDbPoint
 10
8085.110689741084
 20
2332.302227209274
 30
0.0
  0
POINT
  5
1817
330
1812
100
AcDbEntity
  8
Defpoints
 62
     0
100
AcDbPoint
 10
9384.818940939252
 20
2304.762042616765
 30
0.0
  0
ENDBLK
  5
1819
330
1812
100
AcDbEntity
  8
0
100
AcDbBlockEnd
  0
BLOCK
  5
1820
330
181A
100
AcDbEntity
  8
0
100
AcDbBlockBegin
  2
*D27
 70
     1
 10
0.0
 20
0.0
 30
0.0
  3
*D27
  1

  0
LINE
  5
181B
330
181A
100
AcDbEntity
  8
图层2
370
     9
100
AcDbLine
 10
8195.021958272224
 20
2202.697003397552
 30
0.0
 11
8138.012409413212
 21
2133.740027992102
 31
0.0
  0
MTEXT
  5
181C
330
181A
100
AcDbEntity
  8
图层2
 62
     0
100
AcDbMText
 10
8162.369174019493
 20
2187.866566911981
 30
0.0
 40
25.0
 41
0.0
 71
     5
 72
     1
  1
R85
 11
0.6371809493174567
 21
0.7707142387596746
 31
0.0
 73
     1
 44
1.0
1001
ACAD
1000
MTEXTBEGIN
1070
    73
1070
     1
1070
    44
1040
1.0
1070
    74
1070
     0
1000
MTEXTEND
  0
SOLID
  5
181D
330
181A
100
AcDbEntity
  8
图层2
100
AcDbTrace
 10
8134.801100085047
 20
2136.394948614258
 30
0.0
 11
8141.223718741377
 21
2131.085107369946
 31
0.0
 12
8122.082885680276
 22
2114.47217202311
 32
0.0
 13
8122.082885680276
 23
2114.47217202311
 33
0.0
  0
POINT
  5
181E
330
181A
100
AcDbEntity
  8
Defpoints
 62
     0
100
AcDbPoint
 10
8122.082885680276
 20
2114.47217202311
 30
0.0
  0
POINT
  5
181F
330
181A
100
AcDbEntity
  8
Defpoints
 62
     0
100
AcDbPoint
 10
8176.243266372258
 20
2179.982882317681
 30
0.0
  0
ENDBLK
  5
1821
330
181A
100
AcDbEntity
  8
0
100
AcDbBlockEnd
  0
BLOCK
  5
1828
330
1822
100
AcDbEntity
  8
0
100
AcDbBlockBegin
  2
*D28
 70
     1
 10
0.0
 20
0.0
 30
0.0
  3
*D28
  1

  0
LINE
  5
1823
330
1822
100
AcDbEntity
  8
图层2
370
     9
100
AcDbLine
 10
8219.042007742073
 20
2225.71685249956
 30
0.0
 11
8213.347483443262
 21
2116.819498800915
 31
0.0
  0
MTEXT
  5
1824
330
1822
100
AcDbEntity
  8
图层2
 62
     0
100
AcDbMText
 10
8201.152661124419
 20
2184.571844203517
 30
0.0
 40
25.0
 41
0.0
 71
     5
 72
     1
  1
R800
 11
0.0522212354787054
 21
0.998635540407549
 31
0.0
 73
     1
 44
1.0
1001
ACAD
1000
MTEXTBEGIN
1070
    73
1070
     1
1070
    44
1040
1.0
1070
    74
1070
     0
1000
MTEXTEND
  0
SOLID
  5
1825
330
1822
100
AcDbEntity
  8
图层2
100
AcDbTrace
 10
8209.186502024897
 20
2117.037087282076
 30
0.0
 11
8217.508464861628
 21
2116.601910319754
 31
0.0
 12
8212.041952556296
 22
2091.853610290726
 32
0.0
 13
8212.041952556296
 23
2091.853610290726
 33
0.0
  0
POINT
  5
1826
330
1822
100
AcDbEntity
  8
Defpoints
 62
     0
100
AcDbPoint
 10
8212.041952556296
 20
2091.853610290726
 30
0.0
  0
POINT
  5
1827
330
1822
100
AcDbEntity
  8
Defpoints
 62
     0
100
AcDbPoint
 10
8253.818940939261
 20
2890.762042616763
 30
0.0
  0
ENDBLK
  5
1829
330
1822
100
AcDbEntity
  8
0
100
AcDbBlockEnd
  0
BLOCK
  5
1830
330
182A
100
AcDbEntity
  8
0
100
AcDbBlockBegin
  2
*D29
 70
     1
 10
0.0
 20
0.0
 30
0.0
  3
*D29
  1

  0
LINE
  5
182B
330
182A
100
AcDbEntity
  8
图层2
370
     9
100
AcDbLine
 10
8223.06135056726
 20
2384.00523921117
 30
0.0
 11
8218.024970713036
 21
2492.935015340205
 31
0.0
  0
MTEXT
  5
182C
330
182A
100
AcDbEntity
  8
图层2
 62
     0
100
AcDbMText
 10
8236.820005540684
 20
2426.709335541736
 30
0.0
 40
25.0
 41
0.0
 71
     5
 72
     1
  1
R800
 11
0.0461857680338045
 21
-0.9989328680302433
 31
0.0
 73
     1
 44
1.0
1001
ACAD
1000
MTEXTBEGIN
1070
    73
1070
     1
1070
    44
1040
1.0
1070
    74
1070
     0
1000
MTEXTEND
  0
SOLID
  5
182D
330
182A
100
AcDbEntity
  8
图层2
100
AcDbTrace
 10
8222.187190996494
 20
2493.127456040346
 30
0.0
 11
8213.862750429576
 21
2492.742574640064
 31
0.0
 12
8216.870326512189
 22
2517.908337040962
 32
0.0
 13
8216.870326512189
 23
2517.908337040962
 33
0.0
  0
POINT
  5
182E
330
182A
100
AcDbEntity
  8
Defpoints
 62
     0
100
AcDbPoint
 10
8216.870326512189
 20
2517.908337040962
 30
0.0
  0
POINT
  5
182F
330
182A
100
AcDbEntity
  8
Defpoints
 62
     0
100
AcDbPoint
 10
8253.818940939231
 20
1718.76204261677
 30
0.0
  0
ENDBLK
  5
1831
330
182A
100
AcDbEntity
  8
0
100
AcDbBlockEnd
  0
BLOCK
  5
183C
330
1832
100
AcDbEntity
  8
0
100
AcDbBlockBegin
  2
*D30
 70
     1
 10
0.0
 20
0.0
 30
0.0
  3
*D30
  1

  0
LINE
  5
1833
330
1832
100
AcDbEntity
  8
图层2
370
     9
100
AcDbLine
 10
8465.291004135989
 20
2519.387042616767
 30
0.0
 11
8465.291004135989
 21
2641.169107529659
 31
0.0
  0
LINE
  5
1834
330
1832
100
AcDbEntity
  8
图层2
370
     9
100
AcDbLine
 10
8856.818940939254
 20
2333.387042616768
 30
0.0
 11
8856.818940939254
 21
2641.169107529659
 31
0.0
  0
LINE
  5
1835
330
1832
100
AcDbEntity
  8
图层2
370
     9
100
AcDbLine
 10
8490.291004135992
 20
2639.919107529659
 30
0.0
 11
8831.818940939255
 21
2639.919107529659
 31
0.0
  0
SOLID
  5
1836
330
1832
100
AcDbEntity
  8
图层2
100
AcDbTrace
 10
8490.291004135992
 20
2644.085774196325
 30
0.0
 11
8490.291004135992
 21
2635.752440862992
 31
0.0
 12
8465.291004135989
 22
2639.919107529659
 32
0.0
 13
8465.291004135989
 23
2639.919107529659
 33
0.0
  0
SOLID
  5
1837
330
1832
100
AcDbEntity
  8
图层2
100
AcDbTrace
 10
8831.818940939255
 20
2644.085774196325
 30
0.0
 11
8831.818940939255
 21
2635.752440862992
 31
0.0
 12
8856.818940939254
 22
2639.919107529659
 32
0.0
 13
8856.818940939254
 23
2639.919107529659
 33
0.0
  0
MTEXT
  5
1838
330
1832
100
AcDbEntity
  8
图层2
 62
     0
100
AcDbMText
 10
8661.054972537625
 20
2658.492287053811
 30
0.0
 40
25.0
 41
0.0
 71
     5
 72
     1
  1
391,53
 73
     1
 44
1.0
1001
ACAD
1000
MTEXTBEGIN
1070
    73
1070
     1
1070
    44
1040
1.0
1070
    74
1070
     0
1000
MTEXTEND
  0
POINT
  5
1839
330
1832
100
AcDbEntity
  8
Defpoints
 62
     0
100
AcDbPoint
 10
8465.291004135989
 20
2518.762042616767
 30
0.0
  0
POINT
  5
183A
330
1832
100
AcDbEntity
  8
Defpoints
 62
     0
100
AcDbPoint
 10
8856.818940939254
 20
2332.762042616769
 30
0.0
  0
POINT
  5
183B
330
1832
100
AcDbEntity
  8
Defpoints
 62
     0
100
AcDbPoint
 10
8856.818940939254
 20
2639.919107529659
 30
0.0
  0
ENDBLK
  5
183D
330
1832
100
AcDbEntity
  8
0
100
AcDbBlockEnd
  0
BLOCK
  5
1917
330
190D
100
AcDbEntity
  8
0
100
AcDbBlockBegin
  2
*D31
 70
     1
 10
0.0
 20
0.0
 30
0.0
  3
*D31
  1

  0
LINE
  5
291B
330
190D
100
AcDbEntity
  8
图层2
 62
     6
370
     9
100
AcDbLine
 10
5970.984674744062
 20
2304.762042616761
 30
0.0
 11
5970.984674744062
 21
1956.374402490595
 31
0.0
  0
LINE
  5
291C
330
190D
100
AcDbEntity
  8
图层2
 62
     6
370
     9
100
AcDbLine
 10
5190.984674744061
 20
2332.762042616769
 30
0.0
 11
5190.984674744061
 21
1956.374402490595
 31
0.0
  0
LINE
  5
291D
330
190D
100
AcDbEntity
  8
图层2
 62
     6
370
     9
100
AcDbLine
 10
5945.984674744064
 20
1957.624402490595
 30
0.0
 11
5215.984674744063
 21
1957.624402490595
 31
0.0
  0
SOLID
  5
291E
330
190D
100
AcDbEntity
  8
图层2
 62
     6
100
AcDbTrace
 10
5945.984674744064
 20
1961.791069157262
 30
0.0
 11
5945.984674744064
 21
1953.457735823928
 31
0.0
 12
5970.984674744062
 22
1957.624402490595
 32
0.0
 13
5970.984674744062
 23
1957.624402490595
 33
0.0
  0
SOLID
  5
291F
330
190D
100
AcDbEntity
  8
图层2
 62
     6
100
AcDbTrace
 10
5215.984674744063
 20
1961.791069157262
 30
0.0
 11
5215.984674744063
 21
1953.457735823928
 31
0.0
 12
5190.984674744061
 22
1957.624402490595
 32
0.0
 13
5190.984674744061
 23
1957.624402490595
 33
0.0
  0
MTEXT
  5
2920
330
190D
100
AcDbEntity
  8
图层2
 62
     6
100
AcDbMText
 10
5580.984674744062
 20
1973.376745677329
 30
0.0
 40
25.0
 41
0.0
 71
     5
 72
     1
  1
780
 73
     1
 44
1.0
1001
ACAD
1000
MTEXTBEGIN
1070
    73
1070
     1
1070
    44
1040
1.0
1070
    74
1070
     0
1000
MTEXTEND
  0
POINT
  5
2921
330
190D
100
AcDbEntity
  8
Defpoints
 62
     0
100
AcDbPoint
 10
5970.984674744062
 20
2304.762042616761
 30
0.0
  0
POINT
  5
2922
330
190D
100
AcDbEntity
  8
Defpoints
 62
     0
100
AcDbPoint
 10
5190.984674744061
 20
2332.762042616769
 30
0.0
  0
POINT
  5
2923
330
190D
100
AcDbEntity
  8
Defpoints
 62
     0
100
AcDbPoint
 10
5190.984674744061
 20
1957.624402490595
 30
0.0
  0
ENDBLK
  5
1918
330
190D
100
AcDbEntity
  8
0
100
AcDbBlockEnd
  0
BLOCK
  5
192F
330
1925
100
AcDbEntity
  8
0
100
AcDbBlockBegin
  2
*D32
 70
     1
 10
0.0
 20
0.0
 30
0.0
  3
*D32
  1

  0
LINE
  5
2930
330
1925
100
AcDbEntity
  8
图层2
 62
     6
370
     9
100
AcDbLine
 10
5398.984674744063
 20
2578.762042616767
 30
0.0
 11
5080.903179418848
 21
2578.762042616768
 31
0.0
  0
LINE
  5
2931
330
1925
100
AcDbEntity
  8
图层2
 62
     6
370
     9
100
AcDbLine
 10
5398.984674744063
 20
2086.762042616767
 30
0.0
 11
5080.903179418848
 21
2086.762042616767
 31
0.0
  0
LINE
  5
2932
330
1925
100
AcDbEntity
  8
图层2
 62
     6
370
     9
100
AcDbLine
 10
5082.153179418849
 20
2553.762042616768
 30
0.0
 11
5082.153179418849
 21
2111.762042616767
 31
0.0
  0
SOLID
  5
2933
330
1925
100
AcDbEntity
  8
图层2
 62
     6
100
AcDbTrace
 10
5077.986512752182
 20
2553.762042616768
 30
0.0
 11
5086.319846085515
 21
2553.762042616768
 31
0.0
 12
5082.153179418849
 22
2578.762042616768
 32
0.0
 13
5082.153179418849
 23
2578.762042616768
 33
0.0
  0
SOLID
  5
2934
330
1925
100
AcDbEntity
  8
图层2
 62
     6
100
AcDbTrace
 10
5077.986512752182
 20
2111.762042616767
 30
0.0
 11
5086.319846085515
 21
2111.762042616767
 31
0.0
 12
5082.153179418849
 22
2086.762042616767
 32
0.0
 13
5082.153179418849
 23
2086.762042616767
 33
0.0
  0
MTEXT
  5
2935
330
1925
100
AcDbEntity
  8
图层2
 62
     6
100
AcDbMText
 10
5066.400836232115
 20
2332.762042616768
 30
0.0
 40
25.0
 41
0.0
 71
     5
 72
     1
  1
492
 11
0.0000000000000001
 21
1.0
 31
0.0
 73
     1
 44
1.0
1001
ACAD
1000
MTEXTBEGIN
1070
    73
1070
     1
1070
    44
1040
1.0
1070
    74
1070
     0
1000
MTEXTEND
  0
POINT
  5
2936
330
1925
100
AcDbEntity
  8
Defpoints
 62
     0
100
AcDbPoint
 10
5398.984674744063
 20
2578.762042616767
 30
0.0
  0
POINT
  5
2937
330
1925
100
AcDbEntity
  8
Defpoints
 62
     0
100
AcDbPoint
 10
5398.984674744063
 20
2086.762042616767
 30
0.0
  0
POINT
  5
2938
330
1925
100
AcDbEntity
  8
Defpoints
 62
     0
100
AcDbPoint
 10
5082.153179418849
 20
2086.762042616767
 30
0.0
  0
ENDBLK
  5
1930
330
1925
100
AcDbEntity
  8
0
100
AcDbBlockEnd
  0
BLOCK
  5
1947
330
193D
100
AcDbEntity
  8
0
100
AcDbBlockBegin
  2
*D33
 70
     1
 10
0.0
 20
0.0
 30
0.0
  3
*D33
  1

  0
LINE
  5
294D
330
193D
100
AcDbEntity
  8
图层2
 62
     6
370
     9
100
AcDbLine
 10
5797.984674744062
 20
2522.762042616767
 30
0.0
 11
6099.866893454914
 21
2522.762042616767
 31
0.0
  0
LINE
  5
294E
330
193D
100
AcDbEntity
  8
图层2
 62
     6
370
     9
100
AcDbLine
 10
5797.984674744062
 20
2086.762042616767
 30
0.0
 11
6099.866893454914
 21
2086.762042616767
 31
0.0
  0
LINE
  5
294F
330
193D
100
AcDbEntity
  8
图层2
 62
     6
370
     9
100
AcDbLine
 10
6098.616893454916
 20
2497.762042616767
 30
0.0
 11
6098.616893454916
 21
2111.762042616767
 31
0.0
  0
SOLID
  5
2950
330
193D
100
AcDbEntity
  8
图层2
 62
     6
100
AcDbTrace
 10
6094.45022678825
 20
2497.762042616767
 30
0.0
 11
6102.783560121583
 21
2497.762042616767
 31
0.0
 12
6098.616893454916
 22
2522.762042616767
 32
0.0
 13
6098.616893454916
 23
2522.762042616767
 33
0.0
  0
SOLID
  5
2951
330
193D
100
AcDbEntity
  8
图层2
 62
     6
100
AcDbTrace
 10
6094.45022678825
 20
2111.762042616767
 30
0.0
 11
6102.783560121583
 21
2111.762042616767
 31
0.0
 12
6098.616893454916
 22
2086.762042616767
 32
0.0
 13
6098.616893454916
 23
2086.762042616767
 33
0.0
  0
MTEXT
  5
2952
330
193D
100
AcDbEntity
  8
图层2
 62
     6
100
AcDbMText
 10
6082.900599294859
 20
2304.762042616768
 30
0.0
 40
25.0
 41
0.0
 71
     5
 72
     1
  1
436
 11
0.0000000000000001
 21
1.0
 31
0.0
 73
     1
 44
1.0
1001
ACAD
1000
MTEXTBEGIN
1070
    73
1070
     1
1070
    44
1040
1.0
1070
    74
1070
     0
1000
MTEXTEND
  0
POINT
  5
2953
330
193D
100
AcDbEntity
  8
Defpoints
 62
     0
100
AcDbPoint
 10
5797.984674744062
 20
2522.762042616767
 30
0.0
  0
POINT
  5
2954
330
193D
100
AcDbEntity
  8
Defpoints
 62
     0
100
AcDbPoint
 10
5797.984674744062
 20
2086.762042616767
 30
0.0
  0
POINT
  5
2955
330
193D
100
AcDbEntity
  8
Defpoints
 62
     0
100
AcDbPoint
 10
6098.616893454916
 20
2086.762042616767
 30
0.0
  0
ENDBLK
  5
1948
330
193D
100
AcDbEntity
  8
0
100
AcDbBlockEnd
  0
BLOCK
  5
199A
330
198E
100
AcDbEntity
  8
0
100
AcDbBlockBegin
  2
*D34
 70
     1
 10
0.0
 20
0.0
 30
0.0
  3
*D34
  1

  0
LINE
  5
2924
330
198E
100
AcDbEntity
  8
图层2
 62
     6
370
     9
100
AcDbLine
 10
5966.984674744065
 20
2026.016822958835
 30
0.0
 11
5966.984674744065
 21
2004.67374718543
 31
0.0
  0
LINE
  5
2925
330
198E
100
AcDbEntity
  8
图层2
 62
     6
370
     9
100
AcDbLine
 10
5970.984674744062
 20
2036.120953729924
 30
0.0
 11
5970.984674744062
 21
2004.67374718543
 31
0.0
  0
LINE
  5
2926
330
198E
100
AcDbEntity
  8
图层2
 62
     6
370
     9
100
AcDbLine
 10
5941.984674744065
 20
2005.92374718543
 30
0.0
 11
5916.984674744065
 21
2005.92374718543
 31
0.0
  0
LINE
  5
2927
330
198E
100
AcDbEntity
  8
图层2
 62
     6
370
     9
100
AcDbLine
 10
5995.984674744064
 20
2005.92374718543
 30
0.0
 11
6043.58525152849
 21
2005.92374718543
 31
0.0
  0
LINE
  5
2928
330
198E
100
AcDbEntity
  8
图层2
 62
     6
370
     9
100
AcDbLine
 10
5966.984674744065
 20
2005.92374718543
 30
0.0
 11
5970.984674744062
 21
2005.92374718543
 31
0.0
  0
SOLID
  5
2929
330
198E
100
AcDbEntity
  8
图层2
 62
     6
100
AcDbTrace
 10
5941.984674744065
 20
2010.090413852097
 30
0.0
 11
5941.984674744065
 21
2001.757080518764
 31
0.0
 12
5966.984674744065
 22
2005.92374718543
 32
0.0
 13
5966.984674744065
 23
2005.92374718543
 33
0.0
  0
SOLID
  5
292A
330
198E
100
AcDbEntity
  8
图层2
 62
     6
100
AcDbTrace
 10
5995.984674744064
 20
2010.090413852097
 30
0.0
 11
5995.984674744064
 21
2001.757080518764
 31
0.0
 12
5970.984674744062
 22
2005.92374718543
 32
0.0
 13
5970.984674744062
 23
2005.92374718543
 33
0.0
  0
MTEXT
  5
292B
330
198E
100
AcDbEntity
  8
图层2
 62
     6
100
AcDbMText
 10
6032.284963136277
 20
2021.42374718543
 30
0.0
 40
25.0
 41
0.0
 71
     5
 72
     1
  1
4
 73
     1
 44
1.0
1001
ACAD
1000
MTEXTBEGIN
1070
    73
1070
     1
1070
    44
1040
1.0
1070
    74
1070
     0
1000
MTEXTEND
  0
POINT
  5
292C
330
198E
100
AcDbEntity
  8
Defpoints
 62
     0
100
AcDbPoint
 10
5966.984674744065
 20
2026.016822958835
 30
0.0
  0
POINT
  5
292D
330
198E
100
AcDbEntity
  8
Defpoints
 62
     0
100
AcDbPoint
 10
5970.984674744062
 20
2036.120953729924
 30
0.0
  0
POINT
  5
292E
330
198E
100
AcDbEntity
  8
Defpoints
 62
     0
100
AcDbPoint
 10
5970.984674744062
 20
2005.92374718543
 30
0.0
  0
ENDBLK
  5
199B
330
198E
100
AcDbEntity
  8
0
100
AcDbBlockEnd
  0
BLOCK
  5
19A9
330
199D
100
AcDbEntity
  8
0
100
AcDbBlockBegin
  2
*D35
 70
     1
 10
0.0
 20
0.0
 30
0.0
  3
*D35
  1

  0
LINE
  5
2956
330
199D
100
AcDbEntity
  8
图层2
 62
     6
370
     9
100
AcDbLine
 10
6026.650707906751
 20
2518.762042616767
 30
0.0
 11
6049.440979341183
 21
2518.762042616767
 31
0.0
  0
LINE
  5
2957
330
199D
100
AcDbEntity
  8
图层2
 62
     6
370
     9
100
AcDbLine
 10
6026.650707906751
 20
2522.762042616767
 30
0.0
 11
6049.440979341183
 21
2522.762042616767
 31
0.0
  0
LINE
  5
2958
330
199D
100
AcDbEntity
  8
图层2
 62
     6
370
     9
100
AcDbLine
 10
6048.190979341183
 20
2493.762042616767
 30
0.0
 11
6048.190979341183
 21
2468.762042616767
 31
0.0
  0
LINE
  5
2959
330
199D
100
AcDbEntity
  8
图层2
 62
     6
370
     9
100
AcDbLine
 10
6048.190979341183
 20
2547.762042616767
 30
0.0
 11
6048.190979341183
 21
2595.362619401194
 31
0.0
  0
LINE
  5
295A
330
199D
100
AcDbEntity
  8
图层2
 62
     6
370
     9
100
AcDbLine
 10
6048.190979341183
 20
2518.762042616767
 30
0.0
 11
6048.190979341183
 21
2522.762042616767
 31
0.0
  0
SOLID
  5
295B
330
199D
100
AcDbEntity
  8
图层2
 62
     6
100
AcDbTrace
 10
6044.024312674516
 20
2493.762042616767
 30
0.0
 11
6052.35764600785
 21
2493.762042616767
 31
0.0
 12
6048.190979341183
 22
2518.762042616767
 32
0.0
 13
6048.190979341183
 23
2518.762042616767
 33
0.0
  0
SOLID
  5
295C
330
199D
100
AcDbEntity
  8
图层2
 62
     6
100
AcDbTrace
 10
6044.024312674516
 20
2547.762042616767
 30
0.0
 11
6052.35764600785
 21
2547.762042616767
 31
0.0
 12
6048.190979341183
 22
2522.762042616767
 32
0.0
 13
6048.190979341183
 23
2522.762042616767
 33
0.0
  0
MTEXT
  5
295D
330
199D
100
AcDbEntity
  8
图层2
 62
     6
100
AcDbMText
 10
6032.690979341182
 20
2584.062331008981
 30
0.0
 40
25.0
 41
0.0
 71
     5
 72
     1
  1
4
 11
0.0000000000000001
 21
1.0
 31
0.0
 73
     1
 44
1.0
1001
ACAD
1000
MTEXTBEGIN
1070
    73
1070
     1
1070
    44
1040
1.0
1070
    74
1070
     0
1000
MTEXTEND
  0
POINT
  5
295E
330
199D
100
AcDbEntity
  8
Defpoints
 62
     0
100
AcDbPoint
 10
6026.650707906751
 20
2518.762042616767
 30
0.0
  0
POINT
  5
295F
330
199D
100
AcDbEntity
  8
Defpoints
 62
     0
100
AcDbPoint
 10
6026.650707906751
 20
2522.762042616767
 30
0.0
  0
POINT
  5
2960
330
199D
100
AcDbEntity
  8
Defpoints
 62
     0
100
AcDbPoint
 10
6048.190979341183
 20
2522.762042616767
 30
0.0
  0
ENDBLK
  5
19AA
330
199D
100
AcDbEntity
  8
0
100
AcDbBlockEnd
  0
BLOCK
  5
19B8
330
19AC
100
AcDbEntity
  8
0
100
AcDbBlockBegin
  2
*D36
 70
     1
 10
0.0
 20
0.0
 30
0.0
  3
*D36
  1

  0
LINE
  5
2939
330
19AC
100
AcDbEntity
  8
图层2
 62
     6
370
     9
100
AcDbLine
 10
5137.401643362707
 20
2574.762042616767
 30
0.0
 11
5120.717604072313
 21
2574.762042616767
 31
0.0
  0
LINE
  5
293A
330
19AC
100
AcDbEntity
  8
图层2
 62
     6
370
     9
100
AcDbLine
 10
5137.446762631352
 20
2578.762042616768
 30
0.0
 11
5120.717604072313
 21
2578.762042616768
 31
0.0
  0
LINE
  5
293B
330
19AC
100
AcDbEntity
  8
图层2
 62
     6
370
     9
100
AcDbLine
 10
5121.967604072313
 20
2549.762042616767
 30
0.0
 11
5121.967604072313
 21
2524.762042616767
 31
0.0
  0
LINE
  5
293C
330
19AC
100
AcDbEntity
  8
图层2
 62
     6
370
     9
100
AcDbLine
 10
5121.967604072313
 20
2603.762042616768
 30
0.0
 11
5121.967604072313
 21
2651.362619401194
 31
0.0
  0
LINE
  5
293D
330
19AC
100
AcDbEntity
  8
图层2
 62
     6
370
     9
100
AcDbLine
 10
5121.967604072313
 20
2574.762042616767
 30
0.0
 11
5121.967604072313
 21
2578.762042616768
 31
0.0
  0
SOLID
  5
293E
330
19AC
100
AcDbEntity
  8
图层2
 62
     6
100
AcDbTrace
 10
5117.800937405647
 20
2549.762042616768
 30
0.0
 11
5126.13427073898
 21
2549.762042616767
 31
0.0
 12
5121.967604072313
 22
2574.762042616767
 32
0.0
 13
5121.967604072313
 23
2574.762042616767
 33
0.0
  0
SOLID
  5
293F
330
19AC
100
AcDbEntity
  8
图层2
 62
     6
100
AcDbTrace
 10
5117.800937405647
 20
2603.762042616768
 30
0.0
 11
5126.13427073898
 21
2603.762042616768
 31
0.0
 12
5121.967604072313
 22
2578.762042616768
 32
0.0
 13
5121.967604072313
 23
2578.762042616768
 33
0.0
  0
MTEXT
  5
2940
330
19AC
100
AcDbEntity
  8
图层2
 62
     6
100
AcDbMText
 10
5106.467604072314
 20
2640.062331008982
 30
0.0
 40
25.0
 41
0.0
 71
     5
 72
     1
  1
4
 11
0.0000000000000001
 21
1.0
 31
0.0
 73
     1
 44
1.0
1001
ACAD
1000
MTEXTBEGIN
1070
    73
1070
     1
1070
    44
1040
1.0
1070
    74
1070
     0
1000
MTEXTEND
  0
POINT
  5
2941
330
19AC
100
AcDbEntity
  8
Defpoints
 62
     0
100
AcDbPoint
 10
5137.401643362707
 20
2574.762042616767
 30
0.0
  0
POINT
  5
2942
330
19AC
100
AcDbEntity
  8
Defpoints
 62
     0
100
AcDbPoint
 10
5137.446762631352
 20
2578.762042616768
 30
0.0
  0
POINT
  5
2943
330
19AC
100
AcDbEntity
  8
Defpoints
 62
     0
100
AcDbPoint
 10
5121.967604072313
 20
2578.762042616768
 30
0.0
  0
ENDBLK
  5
19B9
330
19AC
100
AcDbEntity
  8
0
100
AcDbBlockEnd
  0
BLOCK
  5
19CA
330
19C0
100
AcDbEntity
  8
0
100
AcDbBlockBegin
  2
*D37
 70
     1
 10
0.0
 20
0.0
 30
0.0
  3
*D37
  1

  0
LINE
  5
19CD
330
19C0
100
AcDbEntity
  8
图层2
370
     9
100
AcDbLine
 10
8077.818940939254
 20
2304.137042616765
 30
0.0
 11
8077.818940939254
 21
1961.038948343557
 31
0.0
  0
LINE
  5
19CE
330
19C0
100
AcDbEntity
  8
图层2
370
     9
100
AcDbLine
 10
8863.818940939257
 20
2332.137042616768
 30
0.0
 11
8863.818940939257
 21
1961.038948343557
 31
0.0
  0
LINE
  5
19CF
330
19C0
100
AcDbEntity
  8
图层2
370
     9
100
AcDbLine
 10
8102.818940939254
 20
1962.288948343557
 30
0.0
 11
8838.818940939257
 21
1962.288948343557
 31
0.0
  0
SOLID
  5
19D0
330
19C0
100
AcDbEntity
  8
图层2
100
AcDbTrace
 10
8102.818940939254
 20
1966.455615010224
 30
0.0
 11
8102.818940939254
 21
1958.122281676891
 31
0.0
 12
8077.818940939254
 22
1962.288948343557
 32
0.0
 13
8077.818940939254
 23
1962.288948343557
 33
0.0
  0
SOLID
  5
19D1
330
19C0
100
AcDbEntity
  8
图层2
100
AcDbTrace
 10
8838.818940939257
 20
1966.455615010224
 30
0.0
 11
8838.818940939257
 21
1958.122281676891
 31
0.0
 12
8863.818940939257
 22
1962.288948343557
 32
0.0
 13
8863.818940939257
 23
1962.288948343557
 33
0.0
  0
MTEXT
  5
19D2
330
19C0
100
AcDbEntity
  8
图层2
 62
     0
100
AcDbMText
 10
8470.818940939254
 20
1978.041291530291
 30
0.0
 40
25.0
 41
0.0
 71
     5
 72
     1
  1
786
 73
     1
 44
1.0
1001
ACAD
1000
MTEXTBEGIN
1070
    73
1070
     1
1070
    44
1040
1.0
1070
    74
1070
     0
1000
MTEXTEND
  0
POINT
  5
19D3
330
19C0
100
AcDbEntity
  8
Defpoints
 62
     0
100
AcDbPoint
 10
8077.818940939254
 20
2304.762042616765
 30
0.0
  0
POINT
  5
19D4
330
19C0
100
AcDbEntity
  8
Defpoints
 62
     0
100
AcDbPoint
 10
8863.818940939257
 20
2332.762042616769
 30
0.0
  0
POINT
  5
19D5
330
19C0
100
AcDbEntity
  8
Defpoints
 62
     0
100
AcDbPoint
 10
8863.818940939257
 20
1962.288948343557
 30
0.0
  0
ENDBLK
  5
19CB
330
19C0
100
AcDbEntity
  8
0
100
AcDbBlockEnd
  0
BLOCK
  5
19E2
330
19D8
100
AcDbEntity
  8
0
100
AcDbBlockBegin
  2
*D38
 70
     1
 10
0.0
 20
0.0
 30
0.0
  3
*D38
  1

  0
LINE
  5
19E5
330
19D8
100
AcDbEntity
  8
图层2
370
     9
100
AcDbLine
 10
8253.193940939254
 20
2525.762042616767
 30
0.0
 11
7961.633397799509
 21
2525.762042616767
 31
0.0
  0
LINE
  5
19E6
330
19D8
100
AcDbEntity
  8
图层2
370
     9
100
AcDbLine
 10
8253.193940939254
 20
2083.762042616767
 30
0.0
 11
7961.633397799509
 21
2083.762042616767
 31
0.0
  0
LINE
  5
19E7
330
19D8
100
AcDbEntity
  8
图层2
370
     9
100
AcDbLine
 10
7962.883397799508
 20
2500.762042616767
 30
0.0
 11
7962.883397799508
 21
2108.762042616767
 31
0.0
  0
SOLID
  5
19E8
330
19D8
100
AcDbEntity
  8
图层2
100
AcDbTrace
 10
7958.716731132843
 20
2500.762042616767
 30
0.0
 11
7967.050064466175
 21
2500.762042616767
 31
0.0
 12
7962.883397799508
 22
2525.762042616767
 32
0.0
 13
7962.883397799508
 23
2525.762042616767
 33
0.0
  0
SOLID
  5
19E9
330
19D8
100
AcDbEntity
  8
图层2
100
AcDbTrace
 10
7958.716731132843
 20
2108.762042616767
 30
0.0
 11
7967.050064466175
 21
2108.762042616767
 31
0.0
 12
7962.883397799508
 22
2083.762042616767
 32
0.0
 13
7962.883397799508
 23
2083.762042616767
 33
0.0
  0
MTEXT
  5
19EA
330
19D8
100
AcDbEntity
  8
图层2
 62
     0
100
AcDbMText
 10
7947.38339779951
 20
2304.762042616768
 30
0.0
 40
25.0
 41
0.0
 71
     5
 72
     1
  1
442
 11
0.0000000000000001
 21
1.0
 31
0.0
 73
     1
 44
1.0
1001
ACAD
1000
MTEXTBEGIN
1070
    73
1070
     1
1070
    44
1040
1.0
1070
    74
1070
     0
1000
MTEXTEND
  0
POINT
  5
19EB
330
19D8
100
AcDbEntity
  8
Defpoints
 62
     0
100
AcDbPoint
 10
8253.818940939254
 20
2525.762042616767
 30
0.0
  0
POINT
  5
19EC
330
19D8
100
AcDbEntity
  8
Defpoints
 62
     0
100
AcDbPoint
 10
8253.818940939254
 20
2083.762042616767
 30
0.0
  0
POINT
  5
19ED
330
19D8
100
AcDbEntity
  8
Defpoints
 62
     0
100
AcDbPoint
 10
7962.883397799508
 20
2083.762042616767
 30
0.0
  0
ENDBLK
  5
19E3
330
19D8
100
AcDbEntity
  8
0
100
AcDbBlockEnd
  0
BLOCK
  5
19FA
330
19F0
100
AcDbEntity
  8
0
100
AcDbBlockBegin
  2
*D39
 70
     1
 10
0.0
 20
0.0
 30
0.0
  3
*D39
  1

  0
LINE
  5
19FD
330
19F0
100
AcDbEntity
  8
图层2
370
     9
100
AcDbLine
 10
8653.443940939254
 20
2581.762042616767
 30
0.0
 11
8973.506819051097
 21
2581.762042616767
 31
0.0
  0
LINE
  5
19FE
330
19F0
100
AcDbEntity
  8
图层2
370
     9
100
AcDbLine
 10
8653.443940939254
 20
2083.762042616767
 30
0.0
 11
8973.506819051097
 21
2083.762042616767
 31
0.0
  0
LINE
  5
19FF
330
19F0
100
AcDbEntity
  8
图层2
370
     9
100
AcDbLine
 10
8972.256819051095
 20
2556.762042616767
 30
0.0
 11
8972.256819051095
 21
2108.762042616767
 31
0.0
  0
SOLID
  5
1A00
330
19F0
100
AcDbEntity
  8
图层2
100
AcDbTrace
 10
8968.090152384432
 20
2556.762042616767
 30
0.0
 11
8976.423485717765
 21
2556.762042616767
 31
0.0
 12
8972.256819051095
 22
2581.762042616767
 32
0.0
 13
8972.256819051095
 23
2581.762042616767
 33
0.0
  0
SOLID
  5
1A01
330
19F0
100
AcDbEntity
  8
图层2
100
AcDbTrace
 10
8968.090152384432
 20
2108.762042616767
 30
0.0
 11
8976.423485717765
 21
2108.762042616767
 31
0.0
 12
8972.256819051095
 22
2083.762042616767
 32
0.0
 13
8972.256819051095
 23
2083.762042616767
 33
0.0
  0
MTEXT
  5
1A02
330
19F0
100
AcDbEntity
  8
图层2
 62
     0
100
AcDbMText
 10
8956.504475864363
 20
2332.762042616769
 30
0.0
 40
25.0
 41
0.0
 71
     5
 72
     1
  1
498
 11
0.0000000000000001
 21
1.0
 31
0.0
 73
     1
 44
1.0
1001
ACAD
1000
MTEXTBEGIN
1070
    73
1070
     1
1070
    44
1040
1.0
1070
    74
1070
     0
1000
MTEXTEND
  0
POINT
  5
1A03
330
19F0
100
AcDbEntity
  8
Defpoints
 62
     0
100
AcDbPoint
 10
8652.818940939253
 20
2581.762042616767
 30
0.0
  0
POINT
  5
1A04
330
19F0
100
AcDbEntity
  8
Defpoints
 62
     0
100
AcDbPoint
 10
8652.818940939253
 20
2083.762042616767
 30
0.0
  0
POINT
  5
1A05
330
19F0
100
AcDbEntity
  8
Defpoints
 62
     0
100
AcDbPoint
 10
8972.256819051095
 20
2083.762042616767
 30
0.0
  0
ENDBLK
  5
19FB
330
19F0
100
AcDbEntity
  8
0
100
AcDbBlockEnd
  0
BLOCK
  5
1A1A
330
1A0E
100
AcDbEntity
  8
0
100
AcDbBlockBegin
  2
*D40
 70
     1
 10
0.0
 20
0.0
 30
0.0
  3
*D40
  1

  0
LINE
  5
1A0F
330
1A0E
100
AcDbEntity
  8
图层2
370
     9
100
AcDbLine
 10
8856.818940939254
 20
2027.235835465639
 30
0.0
 11
8856.818940939254
 21
2004.67374718543
 31
0.0
  0
LINE
  5
1A10
330
1A0E
100
AcDbEntity
  8
图层2
370
     9
100
AcDbLine
 10
8863.818940939257
 20
2027.235835465639
 30
0.0
 11
8863.818940939257
 21
2004.67374718543
 31
0.0
  0
LINE
  5
1A11
330
1A0E
100
AcDbEntity
  8
图层2
370
     9
100
AcDbLine
 10
8831.818940939255
 20
2005.92374718543
 30
0.0
 11
8806.818940939256
 21
2005.92374718543
 31
0.0
  0
LINE
  5
1A12
330
1A0E
100
AcDbEntity
  8
图层2
370
     9
100
AcDbLine
 10
8888.818940939257
 20
2005.92374718543
 30
0.0
 11
8935.265948870041
 21
2005.92374718543
 31
0.0
  0
LINE
  5
1A13
330
1A0E
100
AcDbEntity
  8
图层2
370
     9
100
AcDbLine
 10
8856.818940939254
 20
2005.92374718543
 30
0.0
 11
8863.818940939257
 21
2005.92374718543
 31
0.0
  0
SOLID
  5
1A14
330
1A0E
100
AcDbEntity
  8
图层2
100
AcDbTrace
 10
8831.818940939255
 20
2010.090413852097
 30
0.0
 11
8831.818940939255
 21
2001.757080518764
 31
0.0
 12
8856.818940939254
 22
2005.92374718543
 32
0.0
 13
8856.818940939254
 23
2005.92374718543
 33
0.0
  0
SOLID
  5
1A15
330
1A0E
100
AcDbEntity
  8
图层2
100
AcDbTrace
 10
8888.818940939257
 20
2010.090413852097
 30
0.0
 11
8888.818940939257
 21
2001.757080518764
 31
0.0
 12
8863.818940939257
 22
2005.92374718543
 32
0.0
 13
8863.818940939257
 23
2005.92374718543
 33
0.0
  0
MTEXT
  5
1A16
330
1A0E
100
AcDbEntity
  8
图层2
 62
     0
100
AcDbMText
 10
8924.542444904648
 20
2021.676090372164
 30
0.0
 40
25.0
 41
0.0
 71
     5
 72
     1
  1
7
 73
     1
 44
1.0
1001
ACAD
1000
MTEXTBEGIN
1070
    73
1070
     1
1070
    44
1040
1.0
1070
    74
1070
     0
1000
MTEXTEND
  0
POINT
  5
1A17
330
1A0E
100
AcDbEntity
  8
Defpoints
 62
     0
100
AcDbPoint
 10
8856.818940939254
 20
2027.860835465639
 30
0.0
  0
POINT
  5
1A18
330
1A0E
100
AcDbEntity
  8
Defpoints
 62
     0
100
AcDbPoint
 10
8863.818940939257
 20
2027.860835465639
 30
0.0
  0
POINT
  5
1A19
330
1A0E
100
AcDbEntity
  8
Defpoints
 62
     0
100
AcDbPoint
 10
8863.818940939257
 20
2005.92374718543
 30
0.0
  0
ENDBLK
  5
1A1B
330
1A0E
100
AcDbEntity
  8
0
100
AcDbBlockEnd
  0
BLOCK
  5
1A29
330
1A1D
100
AcDbEntity
  8
0
100
AcDbBlockBegin
  2
*D41
 70
     1
 10
0.0
 20
0.0
 30
0.0
  3
*D41
  1

  0
LINE
  5
1A1E
330
1A1D
100
AcDbEntity
  8
图层2
370
     9
100
AcDbLine
 10
8023.221067990114
 20
2090.762042616767
 30
0.0
 11
8002.362636342137
 21
2090.762042616767
 31
0.0
  0
LINE
  5
1A1F
330
1A1D
100
AcDbEntity
  8
图层2
370
     9
100
AcDbLine
 10
8023.221067990114
 20
2083.762042616767
 30
0.0
 11
8002.362636342137
 21
2083.762042616767
 31
0.0
  0
LINE
  5
1A20
330
1A1D
100
AcDbEntity
  8
图层2
370
     9
100
AcDbLine
 10
8003.612636342136
 20
2115.762042616767
 30
0.0
 11
8003.612636342136
 21
2140.762042616767
 31
0.0
  0
LINE
  5
1A21
330
1A1D
100
AcDbEntity
  8
图层2
370
     9
100
AcDbLine
 10
8003.612636342136
 20
2058.762042616767
 30
0.0
 11
8003.612636342133
 21
2012.315034685981
 31
0.0
  0
LINE
  5
1A22
330
1A1D
100
AcDbEntity
  8
图层2
370
     9
100
AcDbLine
 10
8003.612636342136
 20
2090.762042616767
 30
0.0
 11
8003.612636342136
 21
2083.762042616767
 31
0.0
  0
SOLID
  5
1A23
330
1A1D
100
AcDbEntity
  8
图层2
100
AcDbTrace
 10
7999.445969675469
 20
2115.762042616767
 30
0.0
 11
8007.779303008803
 21
2115.762042616767
 31
0.0
 12
8003.612636342136
 22
2090.762042616767
 32
0.0
 13
8003.612636342136
 23
2090.762042616767
 33
0.0
  0
SOLID
  5
1A24
330
1A1D
100
AcDbEntity
  8
图层2
100
AcDbTrace
 10
7999.445969675469
 20
2058.762042616767
 30
0.0
 11
8007.779303008803
 21
2058.762042616767
 31
0.0
 12
8003.612636342136
 22
2083.762042616767
 32
0.0
 13
8003.612636342136
 23
2083.762042616767
 33
0.0
  0
MTEXT
  5
1A25
330
1A1D
100
AcDbEntity
  8
图层2
 62
     0
100
AcDbMText
 10
7987.860293155401
 20
2023.038538651375
 30
0.0
 40
25.0
 41
0.0
 71
     5
 72
     1
  1
7
 11
0.0000000000000001
 21
1.0
 31
0.0
 73
     1
 44
1.0
1001
ACAD
1000
MTEXTBEGIN
1070
    73
1070
     1
1070
    44
1040
1.0
1070
    74
1070
     0
1000
MTEXTEND
  0
POINT
  5
1A26
330
1A1D
100
AcDbEntity
  8
Defpoints
 62
     0
100
AcDbPoint
 10
8023.846067990115
 20
2090.762042616767
 30
0.0
  0
POINT
  5
1A27
330
1A1D
100
AcDbEntity
  8
Defpoints
 62
     0
100
AcDbPoint
 10
8023.846067990115
 20
2083.762042616767
 30
0.0
  0
POINT
  5
1A28
330
1A1D
100
AcDbEntity
  8
Defpoints
 62
     0
100
AcDbPoint
 10
8003.612636342136
 20
2083.762042616767
 30
0.0
  0
ENDBLK
  5
1A2A
330
1A1D
100
AcDbEntity
  8
0
100
AcDbBlockEnd
  0
BLOCK
  5
1A38
330
1A2C
100
AcDbEntity
  8
0
100
AcDbBlockBegin
  2
*D42
 70
     1
 10
0.0
 20
0.0
 30
0.0
  3
*D42
  1

  0
LINE
  5
1A2D
330
1A2C
100
AcDbEntity
  8
图层2
370
     9
100
AcDbLine
 10
8907.623562196333
 20
2574.762042616767
 30
0.0
 11
8931.086011611006
 21
2574.762042616767
 31
0.0
  0
LINE
  5
1A2E
330
1A2C
100
AcDbEntity
  8
图层2
370
     9
100
AcDbLine
 10
8907.623562196333
 20
2581.762042616767
 30
0.0
 11
8931.086011611006
 21
2581.762042616767
 31
0.0
  0
LINE
  5
1A2F
330
1A2C
100
AcDbEntity
  8
图层2
370
     9
100
AcDbLine
 10
8929.836011611007
 20
2549.762042616767
 30
0.0
 11
8929.836011611007
 21
2524.762042616767
 31
0.0
  0
LINE
  5
1A30
330
1A2C
100
AcDbEntity
  8
图层2
370
     9
100
AcDbLine
 10
8929.836011611007
 20
2606.762042616767
 30
0.0
 11
8929.836011611007
 21
2653.209050547553
 31
0.0
  0
LINE
  5
1A31
330
1A2C
100
AcDbEntity
  8
图层2
370
     9
100
AcDbLine
 10
8929.836011611007
 20
2574.762042616767
 30
0.0
 11
8929.836011611007
 21
2581.762042616767
 31
0.0
  0
SOLID
  5
1A32
330
1A2C
100
AcDbEntity
  8
图层2
100
AcDbTrace
 10
8925.669344944338
 20
2549.762042616767
 30
0.0
 11
8934.002678277671
 21
2549.762042616767
 31
0.0
 12
8929.836011611007
 22
2574.762042616767
 32
0.0
 13
8929.836011611007
 23
2574.762042616767
 33
0.0
  0
SOLID
  5
1A33
330
1A2C
100
AcDbEntity
  8
图层2
100
AcDbTrace
 10
8925.669344944338
 20
2606.762042616767
 30
0.0
 11
8934.002678277671
 21
2606.762042616767
 31
0.0
 12
8929.836011611007
 22
2581.762042616767
 32
0.0
 13
8929.836011611007
 23
2581.762042616767
 33
0.0
  0
MTEXT
  5
1A34
330
1A2C
100
AcDbEntity
  8
图层2
 62
     0
100
AcDbMText
 10
8914.083668424273
 20
2642.485546582161
 30
0.0
 40
25.0
 41
0.0
 71
     5
 72
     1
  1
7
 11
0.0000000000000001
 21
1.0
 31
0.0
 73
     1
 44
1.0
1001
ACAD
1000
MTEXTBEGIN
1070
    73
1070
     1
1070
    44
1040
1.0
1070
    74
1070
     0
1000
MTEXTEND
  0
POINT
  5
1A35
330
1A2C
100
AcDbEntity
  8
Defpoints
 62
     0
100
AcDbPoint
 10
8906.99856219633
 20
2574.762042616767
 30
0.0
  0
POINT
  5
1A36
330
1A2C
100
AcDbEntity
  8
Defpoints
 62
     0
100
AcDbPoint
 10
8906.99856219633
 20
2581.762042616767
 30
0.0
  0
POINT
  5
1A37
330
1A2C
100
AcDbEntity
  8
Defpoints
 62
     0
100
AcDbPoint
 10
8929.836011611007
 20
2581.762042616767
 30
0.0
  0
ENDBLK
  5
1A39
330
1A2C
100
AcDbEntity
  8
0
100
AcDbBlockEnd
  0
BLOCK
  5
1B58
330
1B57
100
AcDbEntity
  8
0
100
AcDbBlockBegin
  2
*D43
 70
     1
 10
0.0
 20
0.0
 30
0.0
  3
*D43
  1

  0
LINE
  5
1B59
330
1B57
100
AcDbEntity
  8
图层2
370
     9
100
AcDbLine
 10
5194.984674744063
 20
2332.137042616768
 30
0.0
 11
5194.984674744063
 21
2004.67374718543
 31
0.0
  0
LINE
  5
1B5A
330
1B57
100
AcDbEntity
  8
图层2
370
     9
100
AcDbLine
 10
5966.984674744065
 20
2304.137042616765
 30
0.0
 11
5966.984674744065
 21
2004.67374718543
 31
0.0
  0
LINE
  5
1B5B
330
1B57
100
AcDbEntity
  8
图层2
370
     9
100
AcDbLine
 10
5219.984674744065
 20
2005.92374718543
 30
0.0
 11
5941.984674744062
 21
2005.92374718543
 31
0.0
  0
SOLID
  5
1B5C
330
1B57
100
AcDbEntity
  8
图层2
100
AcDbTrace
 10
5219.984674744065
 20
2010.090413852097
 30
0.0
 11
5219.984674744065
 21
2001.757080518764
 31
0.0
 12
5194.984674744063
 22
2005.92374718543
 32
0.0
 13
5194.984674744063
 23
2005.92374718543
 33
0.0
  0
SOLID
  5
1B5D
330
1B57
100
AcDbEntity
  8
图层2
100
AcDbTrace
 10
5941.984674744062
 20
2010.090413852097
 30
0.0
 11
5941.984674744062
 21
2001.757080518764
 31
0.0
 12
5966.984674744065
 22
2005.92374718543
 32
0.0
 13
5966.984674744065
 23
2005.92374718543
 33
0.0
  0
MTEXT
  5
1B5E
330
1B57
100
AcDbEntity
  8
图层2
 62
     0
100
AcDbMText
 10
5580.984674744065
 20
2021.676090372164
 30
0.0
 40
25.0
 41
0.0
 71
     5
 72
     1
  1
772
 73
     1
 44
1.0
1001
ACAD
1000
MTEXTBEGIN
1070
    73
1070
     1
1070
    44
1040
1.0
1070
    74
1070
     0
1000
MTEXTEND
  0
POINT
  5
1B5F
330
1B57
100
AcDbEntity
  8
Defpoints
 62
     0
100
AcDbPoint
 10
5194.984674744063
 20
2332.762042616769
 30
0.0
  0
POINT
  5
1B60
330
1B57
100
AcDbEntity
  8
Defpoints
 62
     0
100
AcDbPoint
 10
5966.984674744065
 20
2304.762042616765
 30
0.0
  0
POINT
  5
1B61
330
1B57
100
AcDbEntity
  8
Defpoints
 62
     0
100
AcDbPoint
 10
5966.984674744065
 20
2005.92374718543
 30
0.0
  0
ENDBLK
  5
1B62
330
1B57
100
AcDbEntity
  8
0
100
AcDbBlockEnd
  0
BLOCK
  5
1B64
330
1B63
100
AcDbEntity
  8
0
100
AcDbBlockBegin
  2
*D44
 70
     1
 10
0.0
 20
0.0
 30
0.0
  3
*D44
  1

  0
LINE
  5
1B65
330
1B63
100
AcDbEntity
  8
图层2
370
     9
100
AcDbLine
 10
5398.359674744064
 20
2574.762042616767
 30
0.0
 11
5120.717604072313
 21
2574.762042616767
 31
0.0
  0
LINE
  5
1B66
330
1B63
100
AcDbEntity
  8
图层2
370
     9
100
AcDbLine
 10
5398.359674744064
 20
2090.762042616767
 30
0.0
 11
5120.717604072313
 21
2090.762042616767
 31
0.0
  0
LINE
  5
1B67
330
1B63
100
AcDbEntity
  8
图层2
370
     9
100
AcDbLine
 10
5121.967604072313
 20
2549.762042616767
 30
0.0
 11
5121.967604072313
 21
2115.762042616767
 31
0.0
  0
SOLID
  5
1B68
330
1B63
100
AcDbEntity
  8
图层2
100
AcDbTrace
 10
5117.800937405647
 20
2549.762042616768
 30
0.0
 11
5126.13427073898
 21
2549.762042616767
 31
0.0
 12
5121.967604072313
 22
2574.762042616767
 32
0.0
 13
5121.967604072313
 23
2574.762042616767
 33
0.0
  0
SOLID
  5
1B69
330
1B63
100
AcDbEntity
  8
图层2
100
AcDbTrace
 10
5117.800937405647
 20
2115.762042616768
 30
0.0
 11
5126.13427073898
 21
2115.762042616767
 31
0.0
 12
5121.967604072313
 22
2090.762042616767
 32
0.0
 13
5121.967604072313
 23
2090.762042616767
 33
0.0
  0
MTEXT
  5
1B6A
330
1B63
100
AcDbEntity
  8
图层2
 62
     0
100
AcDbMText
 10
5106.251309912256
 20
2332.762042616768
 30
0.0
 40
25.0
 41
0.0
 71
     5
 72
     1
  1
484
 11
0.0000000000000001
 21
1.0
 31
0.0
 73
     1
 44
1.0
1001
ACAD
1000
MTEXTBEGIN
1070
    73
1070
     1
1070
    44
1040
1.0
1070
    74
1070
     0
1000
MTEXTEND
  0
POINT
  5
1B6B
330
1B63
100
AcDbEntity
  8
Defpoints
 62
     0
100
AcDbPoint
 10
5398.984674744063
 20
2574.762042616767
 30
0.0
  0
POINT
  5
1B6C
330
1B63
100
AcDbEntity
  8
Defpoints
 62
     0
100
AcDbPoint
 10
5398.984674744063
 20
2090.762042616767
 30
0.0
  0
POINT
  5
1B6D
330
1B63
100
AcDbEntity
  8
Defpoints
 62
     0
100
AcDbPoint
 10
5121.967604072313
 20
2090.762042616767
 30
0.0
  0
ENDBLK
  5
1B6E
330
1B63
100
AcDbEntity
  8
0
100
AcDbBlockEnd
  0
BLOCK
  5
1B70
330
1B6F
100
AcDbEntity
  8
0
100
AcDbBlockBegin
  2
*D45
 70
     1
 10
0.0
 20
0.0
 30
0.0
  3
*D45
  1

  0
LINE
  5
1B71
330
1B6F
100
AcDbEntity
  8
图层2
370
     9
100
AcDbLine
 10
5798.609674744064
 20
2518.762042616767
 30
0.0
 11
6049.440979341183
 21
2518.762042616767
 31
0.0
  0
LINE
  5
1B72
330
1B6F
100
AcDbEntity
  8
图层2
370
     9
100
AcDbLine
 10
5798.609674744064
 20
2090.762042616767
 30
0.0
 11
6049.440979341183
 21
2090.762042616767
 31
0.0
  0
LINE
  5
1B73
330
1B6F
100
AcDbEntity
  8
图层2
370
     9
100
AcDbLine
 10
6048.190979341183
 20
2493.762042616767
 30
0.0
 11
6048.190979341183
 21
2115.762042616767
 31
0.0
  0
SOLID
  5
1B74
330
1B6F
100
AcDbEntity
  8
图层2
100
AcDbTrace
 10
6044.024312674516
 20
2493.762042616767
 30
0.0
 11
6052.35764600785
 21
2493.762042616767
 31
0.0
 12
6048.190979341183
 22
2518.762042616767
 32
0.0
 13
6048.190979341183
 23
2518.762042616767
 33
0.0
  0
SOLID
  5
1B75
330
1B6F
100
AcDbEntity
  8
图层2
100
AcDbTrace
 10
6044.024312674516
 20
2115.762042616767
 30
0.0
 11
6052.35764600785
 21
2115.762042616767
 31
0.0
 12
6048.190979341183
 22
2090.762042616767
 32
0.0
 13
6048.190979341183
 23
2090.762042616767
 33
0.0
  0
MTEXT
  5
1B76
330
1B6F
100
AcDbEntity
  8
图层2
 62
     0
100
AcDbMText
 10
6032.474685181125
 20
2304.762042616767
 30
0.0
 40
25.0
 41
0.0
 71
     5
 72
     1
  1
428
 11
0.0000000000000001
 21
1.0
 31
0.0
 73
     1
 44
1.0
1001
ACAD
1000
MTEXTBEGIN
1070
    73
1070
     1
1070
    44
1040
1.0
1070
    74
1070
     0
1000
MTEXTEND
  0
POINT
  5
1B77
330
1B6F
100
AcDbEntity
  8
Defpoints
 62
     0
100
AcDbPoint
 10
5797.984674744062
 20
2518.762042616767
 30
0.0
  0
POINT
  5
1B78
330
1B6F
100
AcDbEntity
  8
Defpoints
 62
     0
100
AcDbPoint
 10
5797.984674744062
 20
2090.762042616767
 30
0.0
  0
POINT
  5
1B79
330
1B6F
100
AcDbEntity
  8
Defpoints
 62
     0
100
AcDbPoint
 10
6048.190979341183
 20
2090.762042616767
 30
0.0
  0
ENDBLK
  5
1B7A
330
1B6F
100
AcDbEntity
  8
0
100
AcDbBlockEnd
  0
BLOCK
  5
1B7C
330
1B7B
100
AcDbEntity
  8
0
100
AcDbBlockBegin
  2
*D46
 70
     1
 10
0.0
 20
0.0
 30
0.0
  3
*D46
  1

  0
LINE
  5
1B7D
330
1B7B
100
AcDbEntity
  8
图层2
370
     9
100
AcDbLine
 10
5311.320299363161
 20
2202.137823414411
 30
0.0
 11
5240.727706790514
 21
2147.166567361377
 31
0.0
  0
MTEXT
  5
1B7E
330
1B7B
100
AcDbEntity
  8
图层2
 62
     0
100
AcDbMText
 10
5276.208210477932
 20
2194.760710586835
 30
0.0
 40
25.0
 41
0.0
 71
     5
 72
     1
  1
R95
 11
0.7889951078451563
 21
0.6143994790007641
 31
0.0
 73
     1
 44
1.0
1001
ACAD
1000
MTEXTBEGIN
1070
    73
1070
     1
1070
    44
1040
1.0
1070
    74
1070
     0
1000
MTEXTEND
  0
SOLID
  5
1B7F
330
1B7B
100
AcDbEntity
  8
图层2
100
AcDbTrace
 10
5238.167708961344
 20
2150.454046977399
 30
0.0
 11
5243.287704619683
 21
2143.879087745355
 31
0.0
 12
5221.002829094384
 22
2131.806580386358
 32
0.0
 13
5221.002829094384
 23
2131.806580386358
 33
0.0
  0
POINT
  5
1B80
330
1B7B
100
AcDbEntity
  8
Defpoints
 62
     0
100
AcDbPoint
 10
5221.002829094384
 20
2131.806580386358
 30
0.0
  0
POINT
  5
1B81
330
1B7B
100
AcDbEntity
  8
Defpoints
 62
     0
100
AcDbPoint
 10
5295.95736433967
 20
2190.174530891429
 30
0.0
  0
ENDBLK
  5
1B82
330
1B7B
100
AcDbEntity
  8
0
100
AcDbBlockEnd
  0
BLOCK
  5
1B84
330
1B83
100
AcDbEntity
  8
0
100
AcDbBlockBegin
  2
*D47
 70
     1
 10
0.0
 20
0.0
 30
0.0
  3
*D47
  1

  0
LINE
  5
1B85
330
1B83
100
AcDbEntity
  8
图层2
370
     9
100
AcDbLine
 10
5312.192659202781
 20
2464.599887313113
 30
0.0
 11
5237.591578496786
 21
2513.994541635959
 31
0.0
  0
MTEXT
  5
1B86
330
1B83
100
AcDbEntity
  8
图层2
 62
     0
100
AcDbMText
 10
5294.010996354579
 20
2495.530579442928
 30
0.0
 40
25.0
 41
0.0
 71
     5
 72
     1
  1
R95
 11
0.8337969406127093
 21
-0.5520712470550212
 31
0.0
 73
     1
 44
1.0
1001
ACAD
1000
MTEXTBEGIN
1070
    73
1070
     1
1070
    44
1040
1.0
1070
    74
1070
     0
1000
MTEXTEND
  0
SOLID
  5
1B87
330
1B83
100
AcDbEntity
  8
图层2
100
AcDbTrace
 10
5239.891875359514
 20
2517.468695555179
 30
0.0
 11
5235.291281634056
 21
2510.520387716738
 31
0.0
 12
5216.746654981466
 22
2527.796322812334
 32
0.0
 13
5216.746654981466
 23
2527.796322812334
 33
0.0
  0
POINT
  5
1B88
330
1B83
100
AcDbEntity
  8
Defpoints
 62
     0
100
AcDbPoint
 10
5216.746654981466
 20
2527.796322812334
 30
0.0
  0
POINT
  5
1B89
330
1B83
100
AcDbEntity
  8
Defpoints
 62
     0
100
AcDbPoint
 10
5295.957364339674
 20
2475.349554342106
 30
0.0
  0
ENDBLK
  5
1B8A
330
1B83
100
AcDbEntity
  8
0
100
AcDbBlockEnd
  0
BLOCK
  5
1B8C
330
1B8B
100
AcDbEntity
  8
0
100
AcDbBlockBegin
  2
*D48
 70
     1
 10
0.0
 20
0.0
 30
0.0
  3
*D48
  1

  0
LINE
  5
1B8D
330
1B8B
100
AcDbEntity
  8
图层2
370
     9
100
AcDbLine
 10
5347.964539007564
 20
2372.388197491828
 30
0.0
 11
5220.498181209453
 21
2375.4549490912
 31
0.0
  0
MTEXT
  5
1B8E
330
1B8B
100
AcDbEntity
  8
图层2
 62
     0
100
AcDbMText
 10
5297.105757542809
 20
2389.332666465886
 30
0.0
 40
25.0
 41
0.0
 71
     5
 72
     1
  1
R1800
 11
0.9997107005828805
 21
-0.0240523416757359
 31
0.0
 73
     1
 44
1.0
1001
ACAD
1000
MTEXTBEGIN
1070
    73
1070
     1
1070
    44
1040
1.0
1070
    74
1070
     0
1000
MTEXTEND
  0
SOLID
  5
1B8F
330
1B8B
100
AcDbEntity
  8
图层2
100
AcDbTrace
 10
5220.598399299768
 20
2379.620410343628
 30
0.0
 11
5220.397963119137
 21
2371.289487838772
 31
0.0
 12
5195.505413694881
 22
2376.056257633094
 32
0.0
 13
5195.505413694881
 23
2376.056257633094
 33
0.0
  0
POINT
  5
1B90
330
1B8B
100
AcDbEntity
  8
Defpoints
 62
     0
100
AcDbPoint
 10
5195.505413694881
 20
2376.056257633094
 30
0.0
  0
POINT
  5
1B91
330
1B8B
100
AcDbEntity
  8
Defpoints
 62
     0
100
AcDbPoint
 10
6994.984674744067
 20
2332.762042616768
 30
0.0
  0
ENDBLK
  5
1B92
330
1B8B
100
AcDbEntity
  8
0
100
AcDbBlockEnd
  0
BLOCK
  5
1B94
330
1B93
100
AcDbEntity
  8
0
100
AcDbBlockBegin
  2
*D49
 70
     1
 10
0.0
 20
0.0
 30
0.0
  3
*D49
  1

  0
LINE
  5
1B95
330
1B93
100
AcDbEntity
  8
图层2
370
     9
100
AcDbLine
 10
5419.341006983843
 20
2422.078225637737
 30
0.0
 11
5421.602885627307
 21
2549.561405864348
 31
0.0
  0
MTEXT
  5
1B96
330
1B93
100
AcDbEntity
  8
图层2
 62
     0
100
AcDbMText
 10
5404.536378129972
 20
2473.600586272628
 30
0.0
 40
25.0
 41
0.0
 71
     5
 72
     1
  1
R1300
 11
0.0177397732417538
 21
0.999842637841241
 31
0.0
 73
     1
 44
1.0
1001
ACAD
1000
MTEXTBEGIN
1070
    73
1070
     1
1070
    44
1040
1.0
1070
    74
1070
     0
1000
MTEXTEND
  0
SOLID
  5
1B97
330
1B93
100
AcDbEntity
  8
图层2
100
AcDbTrace
 10
5417.436874636301
 20
2549.635321586189
 30
0.0
 11
5425.768896618311
 21
2549.487490142508
 31
0.0
 12
5422.04637995835
 22
2574.557471810379
 32
0.0
 13
5422.04637995835
 23
2574.557471810379
 33
0.0
  0
POINT
  5
1B98
330
1B93
100
AcDbEntity
  8
Defpoints
 62
     0
100
AcDbPoint
 10
5422.04637995835
 20
2574.557471810379
 30
0.0
  0
POINT
  5
1B99
330
1B93
100
AcDbEntity
  8
Defpoints
 62
     0
100
AcDbPoint
 10
5398.98467474407
 20
1274.762042616768
 30
0.0
  0
ENDBLK
  5
1B9A
330
1B93
100
AcDbEntity
  8
0
100
AcDbBlockEnd
  0
BLOCK
  5
1B9C
330
1B9B
100
AcDbEntity
  8
0
100
AcDbBlockBegin
  2
*D50
 70
     1
 10
0.0
 20
0.0
 30
0.0
  3
*D50
  1

  0
LINE
  5
1B9D
330
1B9B
100
AcDbEntity
  8
图层2
370
     9
100
AcDbLine
 10
5344.368519141442
 20
2244.565776861529
 30
0.0
 11
5338.299885829183
 21
2117.207035404926
 31
0.0
  0
MTEXT
  5
1B9E
330
1B9B
100
AcDbEntity
  8
图层2
 62
     0
100
AcDbMText
 10
5326.230668947336
 20
2194.120270904815
 30
0.0
 40
25.0
 41
0.0
 71
     5
 72
     1
  1
R1300
 11
0.0475959128744175
 21
0.9988666723230139
 31
0.0
 73
     1
 44
1.0
1001
ACAD
1000
MTEXTBEGIN
1070
    73
1070
     1
1070
    44
1040
1.0
1070
    74
1070
     0
1000
MTEXTEND
  0
SOLID
  5
1B9F
330
1B9B
100
AcDbEntity
  8
图层2
100
AcDbTrace
 10
5334.13794136117
 20
2117.405351708569
 30
0.0
 11
5342.461830297196
 21
2117.008719101282
 31
0.0
 12
5337.109988007323
 22
2092.23536859685
 32
0.0
 13
5337.109988007323
 23
2092.23536859685
 33
0.0
  0
POINT
  5
1BA0
330
1B9B
100
AcDbEntity
  8
Defpoints
 62
     0
100
AcDbPoint
 10
5337.109988007323
 20
2092.23536859685
 30
0.0
  0
POINT
  5
1BA1
330
1B9B
100
AcDbEntity
  8
Defpoints
 62
     0
100
AcDbPoint
 10
5398.984674744066
 20
3390.762042616774
 30
0.0
  0
ENDBLK
  5
1BA2
330
1B9B
100
AcDbEntity
  8
0
100
AcDbBlockEnd
  0
BLOCK
  5
1BA4
330
1BA3
100
AcDbEntity
  8
0
100
AcDbBlockBegin
  2
*D51
 70
     1
 10
0.0
 20
0.0
 30
0.0
  3
*D51
  1

  0
LINE
  5
1BA5
330
1BA3
100
AcDbEntity
  8
图层2
370
     9
100
AcDbLine
 10
5489.77063437368
 20
2460.207246996955
 30
0.0
 11
5546.019566394921
 21
2529.786056735597
 31
0.0
  0
MTEXT
  5
1BA6
330
1BA3
100
AcDbEntity
  8
图层2
 62
     0
100
AcDbMText
 10
5497.786568481894
 20
2495.1790267619
 30
0.0
 40
25.0
 41
0.0
 71
     5
 72
     1
  1
R95
 11
0.6286797320922961
 21
0.7776643199069629
 31
0.0
 73
     1
 44
1.0
1001
ACAD
1000
MTEXTBEGIN
1070
    73
1070
     1
1070
    44
1040
1.0
1070
    74
1070
     0
1000
MTEXTEND
  0
SOLID
  5
1BA7
330
1BA3
100
AcDbEntity
  8
图层2
100
AcDbTrace
 10
5542.779298395307
 20
2532.405555619315
 30
0.0
 11
5549.259834394531
 21
2527.16655785188
 31
0.0
 12
5561.736559697227
 22
2549.227664733271
 32
0.0
 13
5561.736559697227
 23
2549.227664733271
 33
0.0
  0
POINT
  5
1BA8
330
1BA3
100
AcDbEntity
  8
Defpoints
 62
     0
100
AcDbPoint
 10
5561.736559697227
 20
2549.227664733271
 30
0.0
  0
POINT
  5
1BA9
330
1BA3
100
AcDbEntity
  8
Defpoints
 62
     0
100
AcDbPoint
 10
5502.011985148453
 20
2475.349554342103
 30
0.0
  0
ENDBLK
  5
1BAA
330
1BA3
100
AcDbEntity
  8
0
100
AcDbBlockEnd
  0
BLOCK
  5
1BAC
330
1BAB
100
AcDbEntity
  8
0
100
AcDbBlockBegin
  2
*D52
 70
     1
 10
0.0
 20
0.0
 30
0.0
  3
*D52
  1

  0
LINE
  5
1BAD
330
1BAB
100
AcDbEntity
  8
图层2
370
     9
100
AcDbLine
 10
5856.702333197
 20
2406.892896265095
 30
0.0
 11
5913.952699557192
 21
2475.650068035023
 31
0.0
  0
MTEXT
  5
1BAE
330
1BAB
100
AcDbEntity
  8
图层2
 62
     0
100
AcDbMText
 10
5865.251435282496
 20
2441.721893082971
 30
0.0
 40
25.0
 41
0.0
 71
     5
 72
     1
  1
R85
 11
0.6398725041023559
 21
0.7684810853194636
 31
0.0
 73
     1
 44
1.0
1001
ACAD
1000
MTEXTBEGIN
1070
    73
1070
     1
1070
    44
1040
1.0
1070
    74
1070
     0
1000
MTEXTEND
  0
SOLID
  5
1BAF
330
1BAB
100
AcDbEntity
  8
图层2
100
AcDbTrace
 10
5910.750695035027
 20
2478.316203468782
 30
0.0
 11
5917.154704079355
 21
2472.983932601263
 31
0.0
 12
5929.949512159751
 22
2494.862095168011
 32
0.0
 13
5929.949512159751
 23
2494.862095168011
 33
0.0
  0
POINT
  5
1BB0
330
1BAB
100
AcDbEntity
  8
Defpoints
 62
     0
100
AcDbPoint
 10
5929.949512159751
 20
2494.862095168011
 30
0.0
  0
POINT
  5
1BB1
330
1BAB
100
AcDbEntity
  8
Defpoints
 62
     0
100
AcDbPoint
 10
5875.560349311051
 20
2429.541202915856
 30
0.0
  0
ENDBLK
  5
1BB2
330
1BAB
100
AcDbEntity
  8
0
100
AcDbBlockEnd
  0
BLOCK
  5
1BB4
330
1BB3
100
AcDbEntity
  8
0
100
AcDbBlockBegin
  2
*D53
 70
     1
 10
0.0
 20
0.0
 30
0.0
  3
*D53
  1

  0
LINE
  5
1BB5
330
1BB3
100
AcDbEntity
  8
图层2
370
     9
100
AcDbLine
 10
5814.223906636629
 20
2329.071482976909
 30
0.0
 11
5941.698536496119
 21
2331.772608274803
 31
0.0
  0
MTEXT
  5
1BB6
330
1BB3
100
AcDbEntity
  8
图层2
 62
     0
100
AcDbMText
 10
5865.131080964637
 20
2345.87000323407
 30
0.0
 40
25.0
 41
0.0
 71
     5
 72
     1
  1
R1300
 11
0.9997755778447478
 21
0.0211847573788537
 31
0.0
 73
     1
 44
1.0
1001
ACAD
1000
MTEXTBEGIN
1070
    73
1070
     1
1070
    44
1040
1.0
1070
    74
1070
     0
1000
MTEXTEND
  0
SOLID
  5
1BB7
330
1BB3
100
AcDbEntity
  8
图层2
100
AcDbTrace
 10
5941.610266673706
 20
2335.938339849156
 30
0.0
 11
5941.786806318528
 21
2327.60687670045
 31
0.0
 12
5966.692925942236
 22
2332.302227209274
 32
0.0
 13
5966.692925942236
 23
2332.302227209274
 33
0.0
  0
POINT
  5
1BB8
330
1BB3
100
AcDbEntity
  8
Defpoints
 62
     0
100
AcDbPoint
 10
5966.692925942236
 20
2332.302227209274
 30
0.0
  0
POINT
  5
1BB9
330
1BB3
100
AcDbEntity
  8
Defpoints
 62
     0
100
AcDbPoint
 10
4666.984674744067
 20
2304.762042616764
 30
0.0
  0
ENDBLK
  5
1BBA
330
1BB3
100
AcDbEntity
  8
0
100
AcDbBlockEnd
  0
BLOCK
  5
1BBC
330
1BBB
100
AcDbEntity
  8
0
100
AcDbBlockBegin
  2
*D54
 70
     1
 10
0.0
 20
0.0
 30
0.0
  3
*D54
  1

  0
LINE
  5
1BBD
330
1BBB
100
AcDbEntity
  8
图层2
370
     9
100
AcDbLine
 10
5856.781657411096
 20
2202.697003397553
 30
0.0
 11
5913.791206270107
 21
2133.740027992102
 31
0.0
  0
MTEXT
  5
1BBE
330
1BBB
100
AcDbEntity
  8
图层2
 62
     0
100
AcDbMText
 10
5889.434441663826
 20
2187.866566911982
 30
0.0
 40
25.0
 41
0.0
 71
     5
 72
     1
  1
R85
 11
0.6371809493174453
 21
-0.7707142387596841
 31
0.0
 73
     1
 44
1.0
1001
ACAD
1000
MTEXTBEGIN
1070
    73
1070
     1
1070
    44
1040
1.0
1070
    74
1070
     0
1000
MTEXTEND
  0
SOLID
  5
1BBF
330
1BBB
100
AcDbEntity
  8
图层2
100
AcDbTrace
 10
5917.002515598273
 20
2136.394948614258
 30
0.0
 11
5910.579896941943
 21
2131.085107369946
 31
0.0
 12
5929.720730003044
 22
2114.47217202311
 32
0.0
 13
5929.720730003044
 23
2114.47217202311
 33
0.0
  0
POINT
  5
1BC0
330
1BBB
100
AcDbEntity
  8
Defpoints
 62
     0
100
AcDbPoint
 10
5929.720730003044
 20
2114.47217202311
 30
0.0
  0
POINT
  5
1BC1
330
1BBB
100
AcDbEntity
  8
Defpoints
 62
     0
100
AcDbPoint
 10
5875.560349311061
 20
2179.982882317681
 30
0.0
  0
ENDBLK
  5
1BC2
330
1BBB
100
AcDbEntity
  8
0
100
AcDbBlockEnd
  0
BLOCK
  5
1BC4
330
1BC3
100
AcDbEntity
  8
0
100
AcDbBlockBegin
  2
*D55
 70
     1
 10
0.0
 20
0.0
 30
0.0
  3
*D55
  1

  0
LINE
  5
1BC5
330
1BC3
100
AcDbEntity
  8
图层2
370
     9
100
AcDbLine
 10
5832.761607941247
 20
2225.71685249956
 30
0.0
 11
5838.456132240056
 21
2116.819498800916
 31
0.0
  0
MTEXT
  5
1BC6
330
1BC3
100
AcDbEntity
  8
图层2
 62
     0
100
AcDbMText
 10
5850.650954558902
 20
2184.571844203517
 30
0.0
 40
25.0
 41
0.0
 71
     5
 72
     1
  1
R800
 11
0.0522212354787074
 21
-0.9986355404075489
 31
0.0
 73
     1
 44
1.0
1001
ACAD
1000
MTEXTBEGIN
1070
    73
1070
     1
1070
    44
1040
1.0
1070
    74
1070
     0
1000
MTEXTEND
  0
SOLID
  5
1BC7
330
1BC3
100
AcDbEntity
  8
图层2
100
AcDbTrace
 10
5842.617113658421
 20
2117.037087282076
 30
0.0
 11
5834.295150821692
 21
2116.601910319754
 31
0.0
 12
5839.761663127023
 22
2091.853610290726
 32
0.0
 13
5839.761663127023
 23
2091.853610290726
 33
0.0
  0
POINT
  5
1BC8
330
1BC3
100
AcDbEntity
  8
Defpoints
 62
     0
100
AcDbPoint
 10
5839.761663127023
 20
2091.853610290726
 30
0.0
  0
POINT
  5
1BC9
330
1BC3
100
AcDbEntity
  8
Defpoints
 62
     0
100
AcDbPoint
 10
5797.984674744059
 20
2890.762042616763
 30
0.0
  0
ENDBLK
  5
1BCA
330
1BC3
100
AcDbEntity
  8
0
100
AcDbBlockEnd
  0
BLOCK
  5
1BCC
330
1BCB
100
AcDbEntity
  8
0
100
AcDbBlockBegin
  2
*D56
 70
     1
 10
0.0
 20
0.0
 30
0.0
  3
*D56
  1

  0
LINE
  5
1BCD
330
1BCB
100
AcDbEntity
  8
图层2
370
     9
100
AcDbLine
 10
5828.742265116059
 20
2384.00523921117
 30
0.0
 11
5833.778644970283
 21
2492.935015340205
 31
0.0
  0
MTEXT
  5
1BCE
330
1BCB
100
AcDbEntity
  8
图层2
 62
     0
100
AcDbMText
 10
5814.983610142635
 20
2426.709335541736
 30
0.0
 40
25.0
 41
0.0
 71
     5
 72
     1
  1
R800
 11
0.0461857680338058
 21
0.9989328680302433
 31
0.0
 73
     1
 44
1.0
1001
ACAD
1000
MTEXTBEGIN
1070
    73
1070
     1
1070
    44
1040
1.0
1070
    74
1070
     0
1000
MTEXTEND
  0
SOLID
  5
1BCF
330
1BCB
100
AcDbEntity
  8
图层2
100
AcDbTrace
 10
5829.616424686824
 20
2493.127456040346
 30
0.0
 11
5837.940865253742
 21
2492.742574640064
 31
0.0
 12
5834.933289171129
 22
2517.908337040962
 32
0.0
 13
5834.933289171129
 23
2517.908337040962
 33
0.0
  0
POINT
  5
1BD0
330
1BCB
100
AcDbEntity
  8
Defpoints
 62
     0
100
AcDbPoint
 10
5834.933289171129
 20
2517.908337040962
 30
0.0
  0
POINT
  5
1BD1
330
1BCB
100
AcDbEntity
  8
Defpoints
 62
     0
100
AcDbPoint
 10
5797.984674744085
 20
1718.76204261677
 30
0.0
  0
ENDBLK
  5
1BD2
330
1BCB
100
AcDbEntity
  8
0
100
AcDbBlockEnd
  0
BLOCK
  5
1BD4
330
1BD3
100
AcDbEntity
  8
0
100
AcDbBlockBegin
  2
*D57
 70
     1
 10
0.0
 20
0.0
 30
0.0
  3
*D57
  1

  0
LINE
  5
1BD5
330
1BD3
100
AcDbEntity
  8
图层2
370
     9
100
AcDbLine
 10
5973.984674744063
 20
2304.137042616765
 30
0.0
 11
5973.984674744063
 21
1956.374402490595
 31
0.0
  0
LINE
  5
1BD6
330
1BD3
100
AcDbEntity
  8
图层2
370
     9
100
AcDbLine
 10
5187.984674744065
 20
2332.137042616768
 30
0.0
 11
5187.984674744065
 21
1956.374402490595
 31
0.0
  0
LINE
  5
1BD7
330
1BD3
100
AcDbEntity
  8
图层2
370
     9
100
AcDbLine
 10
5948.984674744064
 20
1957.624402490595
 30
0.0
 11
5212.984674744063
 21
1957.624402490595
 31
0.0
  0
SOLID
  5
1BD8
330
1BD3
100
AcDbEntity
  8
图层2
100
AcDbTrace
 10
5948.984674744064
 20
1961.791069157262
 30
0.0
 11
5948.984674744064
 21
1953.457735823928
 31
0.0
 12
5973.984674744063
 22
1957.624402490595
 32
0.0
 13
5973.984674744063
 23
1957.624402490595
 33
0.0
  0
SOLID
  5
1BD9
330
1BD3
100
AcDbEntity
  8
图层2
100
AcDbTrace
 10
5212.984674744063
 20
1961.791069157262
 30
0.0
 11
5212.984674744063
 21
1953.457735823928
 31
0.0
 12
5187.984674744065
 22
1957.624402490595
 32
0.0
 13
5187.984674744065
 23
1957.624402490595
 33
0.0
  0
MTEXT
  5
1BDA
330
1BD3
100
AcDbEntity
  8
图层2
 62
     0
100
AcDbMText
 10
5580.984674744065
 20
1973.376745677329
 30
0.0
 40
25.0
 41
0.0
 71
     5
 72
     1
  1
786
 73
     1
 44
1.0
1001
ACAD
1000
MTEXTBEGIN
1070
    73
1070
     1
1070
    44
1040
1.0
1070
    74
1070
     0
1000
MTEXTEND
  0
POINT
  5
1BDB
330
1BD3
100
AcDbEntity
  8
Defpoints
 62
     0
100
AcDbPoint
 10
5973.984674744063
 20
2304.762042616765
 30
0.0
  0
POINT
  5
1BDC
330
1BD3
100
AcDbEntity
  8
Defpoints
 62
     0
100
AcDbPoint
 10
5187.984674744065
 20
2332.762042616769
 30
0.0
  0
POINT
  5
1BDD
330
1BD3
100
AcDbEntity
  8
Defpoints
 62
     0
100
AcDbPoint
 10
5187.984674744065
 20
1957.624402490595
 30
0.0
  0
ENDBLK
  5
1BDE
330
1BD3
100
AcDbEntity
  8
0
100
AcDbBlockEnd
  0
BLOCK
  5
1BE0
330
1BDF
100
AcDbEntity
  8
0
100
AcDbBlockBegin
  2
*D58
 70
     1
 10
0.0
 20
0.0
 30
0.0
  3
*D58
  1

  0
LINE
  5
1BE1
330
1BDF
100
AcDbEntity
  8
图层2
370
     9
100
AcDbLine
 10
5398.359674744064
 20
2581.762042616767
 30
0.0
 11
5080.903179418848
 21
2581.762042616768
 31
0.0
  0
LINE
  5
1BE2
330
1BDF
100
AcDbEntity
  8
图层2
370
     9
100
AcDbLine
 10
5398.359674744064
 20
2083.762042616767
 30
0.0
 11
5080.903179418848
 21
2083.762042616768
 31
0.0
  0
LINE
  5
1BE3
330
1BDF
100
AcDbEntity
  8
图层2
370
     9
100
AcDbLine
 10
5082.153179418849
 20
2556.762042616768
 30
0.0
 11
5082.153179418849
 21
2108.762042616767
 31
0.0
  0
SOLID
  5
1BE4
330
1BDF
100
AcDbEntity
  8
图层2
100
AcDbTrace
 10
5077.986512752182
 20
2556.762042616768
 30
0.0
 11
5086.319846085515
 21
2556.762042616768
 31
0.0
 12
5082.153179418849
 22
2581.762042616768
 32
0.0
 13
5082.153179418849
 23
2581.762042616768
 33
0.0
  0
SOLID
  5
1BE5
330
1BDF
100
AcDbEntity
  8
图层2
100
AcDbTrace
 10
5077.986512752182
 20
2108.762042616767
 30
0.0
 11
5086.319846085515
 21
2108.762042616767
 31
0.0
 12
5082.153179418849
 22
2083.762042616768
 32
0.0
 13
5082.153179418849
 23
2083.762042616768
 33
0.0
  0
MTEXT
  5
1BE6
330
1BDF
100
AcDbEntity
  8
图层2
 62
     0
100
AcDbMText
 10
5066.400836232115
 20
2332.762042616768
 30
0.0
 40
25.0
 41
0.0
 71
     5
 72
     1
  1
498
 11
0.0000000000000001
 21
1.0
 31
0.0
 73
     1
 44
1.0
1001
ACAD
1000
MTEXTBEGIN
1070
    73
1070
     1
1070
    44
1040
1.0
1070
    74
1070
     0
1000
MTEXTEND
  0
POINT
  5
1BE7
330
1BDF
100
AcDbEntity
  8
Defpoints
 62
     0
100
AcDbPoint
 10
5398.984674744063
 20
2581.762042616767
 30
0.0
  0
POINT
  5
1BE8
330
1BDF
100
AcDbEntity
  8
Defpoints
 62
     0
100
AcDbPoint
 10
5398.984674744063
 20
2083.762042616767
 30
0.0
  0
POINT
  5
1BE9
330
1BDF
100
AcDbEntity
  8
Defpoints
 62
     0
100
AcDbPoint
 10
5082.153179418849
 20
2083.762042616768
 30
0.0
  0
ENDBLK
  5
1BEA
330
1BDF
100
AcDbEntity
  8
0
100
AcDbBlockEnd
  0
BLOCK
  5
1BEC
330
1BEB
100
AcDbEntity
  8
0
100
AcDbBlockBegin
  2
*D59
 70
     1
 10
0.0
 20
0.0
 30
0.0
  3
*D59
  1

  0
LINE
  5
1BED
330
1BEB
100
AcDbEntity
  8
图层2
370
     9
100
AcDbLine
 10
5798.609674744064
 20
2525.762042616767
 30
0.0
 11
6099.866893454917
 21
2525.762042616767
 31
0.0
  0
LINE
  5
1BEE
330
1BEB
100
AcDbEntity
  8
图层2
370
     9
100
AcDbLine
 10
5798.609674744064
 20
2083.762042616767
 30
0.0
 11
6099.866893454917
 21
2083.762042616767
 31
0.0
  0
LINE
  5
1BEF
330
1BEB
100
AcDbEntity
  8
图层2
370
     9
100
AcDbLine
 10
6098.616893454916
 20
2500.762042616767
 30
0.0
 11
6098.616893454916
 21
2108.762042616767
 31
0.0
  0
SOLID
  5
1BF0
330
1BEB
100
AcDbEntity
  8
图层2
100
AcDbTrace
 10
6094.45022678825
 20
2500.762042616767
 30
0.0
 11
6102.783560121585
 21
2500.762042616767
 31
0.0
 12
6098.616893454916
 22
2525.762042616767
 32
0.0
 13
6098.616893454916
 23
2525.762042616767
 33
0.0
  0
SOLID
  5
1BF1
330
1BEB
100
AcDbEntity
  8
图层2
100
AcDbTrace
 10
6094.45022678825
 20
2108.762042616767
 30
0.0
 11
6102.783560121585
 21
2108.762042616767
 31
0.0
 12
6098.616893454916
 22
2083.762042616767
 32
0.0
 13
6098.616893454916
 23
2083.762042616767
 33
0.0
  0
MTEXT
  5
1BF2
330
1BEB
100
AcDbEntity
  8
图层2
 62
     0
100
AcDbMText
 10
6083.116893454916
 20
2304.762042616768
 30
0.0
 40
25.0
 41
0.0
 71
     5
 72
     1
  1
442
 11
0.0000000000000001
 21
1.0
 31
0.0
 73
     1
 44
1.0
1001
ACAD
1000
MTEXTBEGIN
1070
    73
1070
     1
1070
    44
1040
1.0
1070
    74
1070
     0
1000
MTEXTEND
  0
POINT
  5
1BF3
330
1BEB
100
AcDbEntity
  8
Defpoints
 62
     0
100
AcDbPoint
 10
5797.984674744062
 20
2525.762042616767
 30
0.0
  0
POINT
  5
1BF4
330
1BEB
100
AcDbEntity
  8
Defpoints
 62
     0
100
AcDbPoint
 10
5797.984674744062
 20
2083.762042616767
 30
0.0
  0
POINT
  5
1BF5
330
1BEB
100
AcDbEntity
  8
Defpoints
 62
     0
100
AcDbPoint
 10
6098.616893454916
 20
2083.762042616767
 30
0.0
  0
ENDBLK
  5
1BF6
330
1BEB
100
AcDbEntity
  8
0
100
AcDbBlockEnd
  0
BLOCK
  5
1BF8
330
1BF7
100
AcDbEntity
  8
0
100
AcDbBlockBegin
  2
*D60
 70
     1
 10
0.0
 20
0.0
 30
0.0
  3
*D60
  1

  0
LINE
  5
1BF9
330
1BF7
100
AcDbEntity
  8
图层2
370
     9
100
AcDbLine
 10
5966.984674744065
 20
2025.391822958834
 30
0.0
 11
5966.984674744065
 21
2004.67374718543
 31
0.0
  0
LINE
  5
1BFA
330
1BF7
100
AcDbEntity
  8
图层2
370
     9
100
AcDbLine
 10
5973.984674744063
 20
2017.942765685486
 30
0.0
 11
5973.984674744063
 21
2004.67374718543
 31
0.0
  0
LINE
  5
1BFB
330
1BF7
100
AcDbEntity
  8
图层2
370
     9
100
AcDbLine
 10
5941.984674744062
 20
2005.92374718543
 30
0.0
 11
5916.984674744064
 21
2005.92374718543
 31
0.0
  0
LINE
  5
1BFC
330
1BF7
100
AcDbEntity
  8
图层2
370
     9
100
AcDbLine
 10
5998.984674744065
 20
2005.92374718543
 30
0.0
 11
6045.43168267485
 21
2005.92374718543
 31
0.0
  0
LINE
  5
1BFD
330
1BF7
100
AcDbEntity
  8
图层2
370
     9
100
AcDbLine
 10
5966.984674744065
 20
2005.92374718543
 30
0.0
 11
5973.984674744063
 21
2005.92374718543
 31
0.0
  0
SOLID
  5
1BFE
330
1BF7
100
AcDbEntity
  8
图层2
100
AcDbTrace
 10
5941.984674744062
 20
2010.090413852097
 30
0.0
 11
5941.984674744062
 21
2001.757080518764
 31
0.0
 12
5966.984674744065
 22
2005.92374718543
 32
0.0
 13
5966.984674744065
 23
2005.92374718543
 33
0.0
  0
SOLID
  5
1BFF
330
1BF7
100
AcDbEntity
  8
图层2
100
AcDbTrace
 10
5998.984674744065
 20
2010.090413852097
 30
0.0
 11
5998.984674744065
 21
2001.757080518764
 31
0.0
 12
5973.984674744063
 22
2005.92374718543
 32
0.0
 13
5973.984674744063
 23
2005.92374718543
 33
0.0
  0
MTEXT
  5
1C00
330
1BF7
100
AcDbEntity
  8
图层2
 62
     0
100
AcDbMText
 10
6034.708178709458
 20
2021.676090372164
 30
0.0
 40
25.0
 41
0.0
 71
     5
 72
     1
  1
7
 73
     1
 44
1.0
1001
ACAD
1000
MTEXTBEGIN
1070
    73
1070
     1
1070
    44
1040
1.0
1070
    74
1070
     0
1000
MTEXTEND
  0
POINT
  5
1C01
330
1BF7
100
AcDbEntity
  8
Defpoints
 62
     0
100
AcDbPoint
 10
5966.984674744065
 20
2026.016822958835
 30
0.0
  0
POINT
  5
1C02
330
1BF7
100
AcDbEntity
  8
Defpoints
 62
     0
100
AcDbPoint
 10
5973.984674744063
 20
2018.567765685486
 30
0.0
  0
POINT
  5
1C03
330
1BF7
100
AcDbEntity
  8
Defpoints
 62
     0
100
AcDbPoint
 10
5973.984674744063
 20
2005.92374718543
 30
0.0
  0
ENDBLK
  5
1C04
330
1BF7
100
AcDbEntity
  8
0
100
AcDbBlockEnd
  0
BLOCK
  5
1C06
330
1C05
100
AcDbEntity
  8
0
100
AcDbBlockBegin
  2
*D61
 70
     1
 10
0.0
 20
0.0
 30
0.0
  3
*D61
  1

  0
LINE
  5
1C07
330
1C05
100
AcDbEntity
  8
图层2
370
     9
100
AcDbLine
 10
6027.275707906749
 20
2518.762042616767
 30
0.0
 11
6049.440979341183
 21
2518.762042616767
 31
0.0
  0
LINE
  5
1C08
330
1C05
100
AcDbEntity
  8
图层2
370
     9
100
AcDbLine
 10
6027.275707906749
 20
2525.762042616767
 30
0.0
 11
6049.440979341183
 21
2525.762042616767
 31
0.0
  0
LINE
  5
1C09
330
1C05
100
AcDbEntity
  8
图层2
370
     9
100
AcDbLine
 10
6048.190979341183
 20
2493.762042616767
 30
0.0
 11
6048.190979341183
 21
2468.762042616767
 31
0.0
  0
LINE
  5
1C0A
330
1C05
100
AcDbEntity
  8
图层2
370
     9
100
AcDbLine
 10
6048.190979341183
 20
2550.762042616767
 30
0.0
 11
6048.190979341183
 21
2597.209050547553
 31
0.0
  0
LINE
  5
1C0B
330
1C05
100
AcDbEntity
  8
图层2
370
     9
100
AcDbLine
 10
6048.190979341183
 20
2518.762042616767
 30
0.0
 11
6048.190979341183
 21
2525.762042616767
 31
0.0
  0
SOLID
  5
1C0C
330
1C05
100
AcDbEntity
  8
图层2
100
AcDbTrace
 10
6044.024312674516
 20
2493.762042616767
 30
0.0
 11
6052.35764600785
 21
2493.762042616767
 31
0.0
 12
6048.190979341183
 22
2518.762042616767
 32
0.0
 13
6048.190979341183
 23
2518.762042616767
 33
0.0
  0
SOLID
  5
1C0D
330
1C05
100
AcDbEntity
  8
图层2
100
AcDbTrace
 10
6044.024312674516
 20
2550.762042616767
 30
0.0
 11
6052.35764600785
 21
2550.762042616767
 31
0.0
 12
6048.190979341183
 22
2525.762042616767
 32
0.0
 13
6048.190979341183
 23
2525.762042616767
 33
0.0
  0
MTEXT
  5
1C0E
330
1C05
100
AcDbEntity
  8
图层2
 62
     0
100
AcDbMText
 10
6032.438636154449
 20
2586.485546582161
 30
0.0
 40
25.0
 41
0.0
 71
     5
 72
     1
  1
7
 11
0.0000000000000001
 21
1.0
 31
0.0
 73
     1
 44
1.0
1001
ACAD
1000
MTEXTBEGIN
1070
    73
1070
     1
1070
    44
1040
1.0
1070
    74
1070
     0
1000
MTEXTEND
  0
POINT
  5
1C0F
330
1C05
100
AcDbEntity
  8
Defpoints
 62
     0
100
AcDbPoint
 10
6026.650707906751
 20
2518.762042616767
 30
0.0
  0
POINT
  5
1C10
330
1C05
100
AcDbEntity
  8
Defpoints
 62
     0
100
AcDbPoint
 10
6026.650707906751
 20
2525.762042616767
 30
0.0
  0
POINT
  5
1C11
330
1C05
100
AcDbEntity
  8
Defpoints
 62
     0
100
AcDbPoint
 10
6048.190979341183
 20
2525.762042616767
 30
0.0
  0
ENDBLK
  5
1C12
330
1C05
100
AcDbEntity
  8
0
100
AcDbBlockEnd
  0
BLOCK
  5
1C14
330
1C13
100
AcDbEntity
  8
0
100
AcDbBlockBegin
  2
*D62
 70
     1
 10
0.0
 20
0.0
 30
0.0
  3
*D62
  1

  0
LINE
  5
1C15
330
1C13
100
AcDbEntity
  8
图层2
370
     9
100
AcDbLine
 10
5136.776643362708
 20
2574.762042616767
 30
0.0
 11
5120.717604072313
 21
2574.762042616767
 31
0.0
  0
LINE
  5
1C16
330
1C13
100
AcDbEntity
  8
图层2
370
     9
100
AcDbLine
 10
5122.106186585559
 20
2581.762042616768
 30
0.0
 11
5120.717604072313
 21
2581.762042616768
 31
0.0
  0
LINE
  5
1C17
330
1C13
100
AcDbEntity
  8
图层2
370
     9
100
AcDbLine
 10
5121.967604072313
 20
2549.762042616767
 30
0.0
 11
5121.967604072313
 21
2524.762042616767
 31
0.0
  0
LINE
  5
1C18
330
1C13
100
AcDbEntity
  8
图层2
370
     9
100
AcDbLine
 10
5121.967604072313
 20
2606.762042616768
 30
0.0
 11
5121.967604072313
 21
2653.209050547553
 31
0.0
  0
LINE
  5
1C19
330
1C13
100
AcDbEntity
  8
图层2
370
     9
100
AcDbLine
 10
5121.967604072313
 20
2574.762042616767
 30
0.0
 11
5121.967604072313
 21
2581.762042616768
 31
0.0
  0
SOLID
  5
1C1A
330
1C13
100
AcDbEntity
  8
图层2
100
AcDbTrace
 10
5117.800937405647
 20
2549.762042616768
 30
0.0
 11
5126.13427073898
 21
2549.762042616767
 31
0.0
 12
5121.967604072313
 22
2574.762042616767
 32
0.0
 13
5121.967604072313
 23
2574.762042616767
 33
0.0
  0
SOLID
  5
1C1B
330
1C13
100
AcDbEntity
  8
图层2
100
AcDbTrace
 10
5117.800937405647
 20
2606.762042616768
 30
0.0
 11
5126.13427073898
 21
2606.762042616768
 31
0.0
 12
5121.967604072313
 22
2581.762042616768
 32
0.0
 13
5121.967604072313
 23
2581.762042616768
 33
0.0
  0
MTEXT
  5
1C1C
330
1C13
100
AcDbEntity
  8
图层2
 62
     0
100
AcDbMText
 10
5106.21526088558
 20
2642.485546582161
 30
0.0
 40
25.0
 41
0.0
 71
     5
 72
     1
  1
7
 11
0.0000000000000001
 21
1.0
 31
0.0
 73
     1
 44
1.0
1001
ACAD
1000
MTEXTBEGIN
1070
    73
1070
     1
1070
    44
1040
1.0
1070
    74
1070
     0
1000
MTEXTEND
  0
POINT
  5
1C1D
330
1C13
100
AcDbEntity
  8
Defpoints
 62
     0
100
AcDbPoint
 10
5137.401643362707
 20
2574.762042616767
 30
0.0
  0
POINT
  5
1C1E
330
1C13
100
AcDbEntity
  8
Defpoints
 62
     0
100
AcDbPoint
 10
5122.731186585559
 20
2581.762042616768
 30
0.0
  0
POINT
  5
1C1F
330
1C13
100
AcDbEntity
  8
Defpoints
 62
     0
100
AcDbPoint
 10
5121.967604072313
 20
2581.762042616768
 30
0.0
  0
ENDBLK
  5
1C20
330
1C13
100
AcDbEntity
  8
0
100
AcDbBlockEnd
  0
BLOCK
  5
1D3F
330
1D33
100
AcDbEntity
  8
0
100
AcDbBlockBegin
  2
*D63
 70
     1
 10
0.0
 20
0.0
 30
0.0
  3
*D63
  1

  0
LINE
  5
227E
330
1D33
100
AcDbEntity
  8
图层2
 62
     6
370
     9
100
AcDbLine
 10
9226.760812342066
 20
2600.180077679743
 30
0.0
 11
9210.076773051673
 21
2600.180077679743
 31
0.0
  0
LINE
  5
227F
330
1D33
100
AcDbEntity
  8
图层2
 62
     6
370
     9
100
AcDbLine
 10
9212.090355564916
 20
2607.180077679743
 30
0.0
 11
9210.076773051673
 21
2607.180077679743
 31
0.0
  0
LINE
  5
2280
330
1D33
100
AcDbEntity
  8
图层2
 62
     6
370
     9
100
AcDbLine
 10
9211.326773051672
 20
2575.180077679743
 30
0.0
 11
9211.326773051672
 21
2550.180077679743
 31
0.0
  0
LINE
  5
2281
330
1D33
100
AcDbEntity
  8
图层2
 62
     6
370
     9
100
AcDbLine
 10
9211.326773051672
 20
2632.180077679743
 30
0.0
 11
9211.326773051672
 21
2678.627085610529
 31
0.0
  0
LINE
  5
2282
330
1D33
100
AcDbEntity
  8
图层2
 62
     6
370
     9
100
AcDbLine
 10
9211.326773051672
 20
2600.180077679743
 30
0.0
 11
9211.326773051672
 21
2607.180077679743
 31
0.0
  0
SOLID
  5
2283
330
1D33
100
AcDbEntity
  8
图层2
 62
     6
100
AcDbTrace
 10
9207.160106385009
 20
2575.180077679743
 30
0.0
 11
9215.493439718342
 21
2575.180077679743
 31
0.0
 12
9211.326773051672
 22
2600.180077679743
 32
0.0
 13
9211.326773051672
 23
2600.180077679743
 33
0.0
  0
SOLID
  5
2284
330
1D33
100
AcDbEntity
  8
图层2
 62
     6
100
AcDbTrace
 10
9207.160106385009
 20
2632.180077679743
 30
0.0
 11
9215.493439718342
 21
2632.180077679743
 31
0.0
 12
9211.326773051672
 22
2607.180077679743
 32
0.0
 13
9211.326773051672
 23
2607.180077679743
 33
0.0
  0
MTEXT
  5
2285
330
1D33
100
AcDbEntity
  8
图层2
 62
     6
100
AcDbMText
 10
9195.574429864938
 20
2667.903581645137
 30
0.0
 40
25.0
 41
0.0
 71
     5
 72
     1
  1
7
 11
0.0000000000000001
 21
1.0
 31
0.0
 73
     1
 44
1.0
1001
ACAD
1000
MTEXTBEGIN
1070
    73
1070
     1
1070
    44
1040
1.0
1070
    74
1070
     0
1000
MTEXTEND
  0
POINT
  5
2286
330
1D33
100
AcDbEntity
  8
Defpoints
 62
     0
100
AcDbPoint
 10
9226.760812342066
 20
2600.180077679743
 30
0.0
  0
POINT
  5
2287
330
1D33
100
AcDbEntity
  8
Defpoints
 62
     0
100
AcDbPoint
 10
9212.090355564916
 20
2607.180077679743
 30
0.0
  0
POINT
  5
2288
330
1D33
100
AcDbEntity
  8
Defpoints
 62
     0
100
AcDbPoint
 10
9211.326773051672
 20
2607.180077679743
 30
0.0
  0
ENDBLK
  5
1D40
330
1D33
100
AcDbEntity
  8
0
100
AcDbBlockEnd
  0
BLOCK
  5
1D4D
330
1D41
100
AcDbEntity
  8
0
100
AcDbBlockBegin
  2
*D64
 70
     1
 10
0.0
 20
0.0
 30
0.0
  3
*D64
  1

  0
LINE
  5
2289
330
1D41
100
AcDbEntity
  8
图层2
 62
     6
370
     9
100
AcDbLine
 10
10116.00987688611
 20
2544.180077679742
 30
0.0
 11
10152.23252466141
 21
2544.180077679742
 31
0.0
  0
LINE
  5
228A
330
1D41
100
AcDbEntity
  8
图层2
 62
     6
370
     9
100
AcDbLine
 10
10116.00987688611
 20
2551.180077679742
 30
0.0
 11
10152.23252466141
 21
2551.180077679742
 31
0.0
  0
LINE
  5
228B
330
1D41
100
AcDbEntity
  8
图层2
 62
     6
370
     9
100
AcDbLine
 10
10150.98252466141
 20
2519.180077679742
 30
0.0
 11
10150.98252466141
 21
2494.180077679742
 31
0.0
  0
LINE
  5
228C
330
1D41
100
AcDbEntity
  8
图层2
 62
     6
370
     9
100
AcDbLine
 10
10150.98252466141
 20
2576.180077679742
 30
0.0
 11
10150.98252466141
 21
2622.627085610528
 31
0.0
  0
LINE
  5
228D
330
1D41
100
AcDbEntity
  8
图层2
 62
     6
370
     9
100
AcDbLine
 10
10150.98252466141
 20
2544.180077679742
 30
0.0
 11
10150.98252466141
 21
2551.180077679742
 31
0.0
  0
SOLID
  5
228E
330
1D41
100
AcDbEntity
  8
图层2
 62
     6
100
AcDbTrace
 10
10146.81585799475
 20
2519.180077679742
 30
0.0
 11
10155.14919132808
 21
2519.180077679742
 31
0.0
 12
10150.98252466141
 22
2544.180077679742
 32
0.0
 13
10150.98252466141
 23
2544.180077679742
 33
0.0
  0
SOLID
  5
228F
330
1D41
100
AcDbEntity
  8
图层2
 62
     6
100
AcDbTrace
 10
10146.81585799475
 20
2576.180077679742
 30
0.0
 11
10155.14919132808
 21
2576.180077679742
 31
0.0
 12
10150.98252466141
 22
2551.180077679742
 32
0.0
 13
10150.98252466141
 23
2551.180077679742
 33
0.0
  0
MTEXT
  5
2290
330
1D41
100
AcDbEntity
  8
图层2
 62
     6
100
AcDbMText
 10
10135.23018147468
 20
2611.903581645137
 30
0.0
 40
25.0
 41
0.0
 71
     5
 72
     1
  1
7
 11
0.0000000000000001
 21
1.0
 31
0.0
 73
     1
 44
1.0
1001
ACAD
1000
MTEXTBEGIN
1070
    73
1070
     1
1070
    44
1040
1.0
1070
    74
1070
     0
1000
MTEXTEND
  0
POINT
  5
2291
330
1D41
100
AcDbEntity
  8
Defpoints
 62
     0
100
AcDbPoint
 10
10116.00987688611
 20
2544.180077679742
 30
0.0
  0
POINT
  5
2292
330
1D41
100
AcDbEntity
  8
Defpoints
 62
     0
100
AcDbPoint
 10
10116.00987688611
 20
2551.180077679742
 30
0.0
  0
POINT
  5
2293
330
1D41
100
AcDbEntity
  8
Defpoints
 62
     0
100
AcDbPoint
 10
10150.98252466141
 20
2551.180077679742
 30
0.0
  0
ENDBLK
  5
1D4E
330
1D41
100
AcDbEntity
  8
0
100
AcDbBlockEnd
  0
BLOCK
  5
1D5B
330
1D4F
100
AcDbEntity
  8
0
100
AcDbBlockBegin
  2
*D65
 70
     1
 10
0.0
 20
0.0
 30
0.0
  3
*D65
  1

  0
LINE
  5
2294
330
1D4F
100
AcDbEntity
  8
图层2
 62
     6
370
     9
100
AcDbLine
 10
10056.34384372342
 20
2051.43485802181
 30
0.0
 11
10056.34384372342
 21
1999.410789154909
 31
0.0
  0
LINE
  5
2295
330
1D4F
100
AcDbEntity
  8
图层2
 62
     6
370
     9
100
AcDbLine
 10
10063.34384372342
 20
2043.985800748461
 30
0.0
 11
10063.34384372342
 21
1999.410789154909
 31
0.0
  0
LINE
  5
2296
330
1D4F
100
AcDbEntity
  8
图层2
 62
     6
370
     9
100
AcDbLine
 10
10031.34384372342
 20
2000.660789154909
 30
0.0
 11
10006.34384372342
 21
2000.660789154909
 31
0.0
  0
LINE
  5
2297
330
1D4F
100
AcDbEntity
  8
图层2
 62
     6
370
     9
100
AcDbLine
 10
10088.34384372342
 20
2000.660789154909
 30
0.0
 11
10134.79085165421
 21
2000.660789154909
 31
0.0
  0
LINE
  5
2298
330
1D4F
100
AcDbEntity
  8
图层2
 62
     6
370
     9
100
AcDbLine
 10
10056.34384372342
 20
2000.660789154909
 30
0.0
 11
10063.34384372342
 21
2000.660789154909
 31
0.0
  0
SOLID
  5
2299
330
1D4F
100
AcDbEntity
  8
图层2
 62
     6
100
AcDbTrace
 10
10031.34384372342
 20
2004.827455821576
 30
0.0
 11
10031.34384372342
 21
1996.494122488243
 31
0.0
 12
10056.34384372342
 22
2000.660789154909
 32
0.0
 13
10056.34384372342
 23
2000.660789154909
 33
0.0
  0
SOLID
  5
229A
330
1D4F
100
AcDbEntity
  8
图层2
 62
     6
100
AcDbTrace
 10
10088.34384372342
 20
2004.827455821576
 30
0.0
 11
10088.34384372342
 21
1996.494122488243
 31
0.0
 12
10063.34384372342
 22
2000.660789154909
 32
0.0
 13
10063.34384372342
 23
2000.660789154909
 33
0.0
  0
MTEXT
  5
229B
330
1D4F
100
AcDbEntity
  8
图层2
 62
     6
100
AcDbMText
 10
10124.06734768881
 20
2016.413132341643
 30
0.0
 40
25.0
 41
0.0
 71
     5
 72
     1
  1
7
 73
     1
 44
1.0
1001
ACAD
1000
MTEXTBEGIN
1070
    73
1070
     1
1070
    44
1040
1.0
1070
    74
1070
     0
1000
MTEXTEND
  0
POINT
  5
229C
330
1D4F
100
AcDbEntity
  8
Defpoints
 62
     0
100
AcDbPoint
 10
10056.34384372342
 20
2051.43485802181
 30
0.0
  0
POINT
  5
229D
330
1D4F
100
AcDbEntity
  8
Defpoints
 62
     0
100
AcDbPoint
 10
10063.34384372342
 20
2043.985800748461
 30
0.0
  0
POINT
  5
229E
330
1D4F
100
AcDbEntity
  8
Defpoints
 62
     0
100
AcDbPoint
 10
10063.34384372342
 20
2000.660789154909
 30
0.0
  0
ENDBLK
  5
1D5C
330
1D4F
100
AcDbEntity
  8
0
100
AcDbBlockEnd
  0
BLOCK
  5
1D67
330
1D5D
100
AcDbEntity
  8
0
100
AcDbBlockBegin
  2
*D66
 70
     1
 10
0.0
 20
0.0
 30
0.0
  3
*D66
  1

  0
LINE
  5
221A
330
1D5D
100
AcDbEntity
  8
图层2
 62
     6
370
     9
100
AcDbLine
 10
9488.343843723422
 20
2600.180077679743
 30
0.0
 11
9210.076773051673
 21
2600.180077679743
 31
0.0
  0
LINE
  5
221B
330
1D5D
100
AcDbEntity
  8
图层2
 62
     6
370
     9
100
AcDbLine
 10
9488.343843723422
 20
2116.180077679743
 30
0.0
 11
9210.076773051673
 21
2116.180077679743
 31
0.0
  0
LINE
  5
221C
330
1D5D
100
AcDbEntity
  8
图层2
 62
     6
370
     9
100
AcDbLine
 10
9211.326773051672
 20
2575.180077679743
 30
0.0
 11
9211.326773051672
 21
2141.180077679742
 31
0.0
  0
SOLID
  5
221D
330
1D5D
100
AcDbEntity
  8
图层2
 62
     6
100
AcDbTrace
 10
9207.160106385009
 20
2575.180077679743
 30
0.0
 11
9215.493439718342
 21
2575.180077679743
 31
0.0
 12
9211.326773051672
 22
2600.180077679743
 32
0.0
 13
9211.326773051672
 23
2600.180077679743
 33
0.0
  0
SOLID
  5
221E
330
1D5D
100
AcDbEntity
  8
图层2
 62
     6
100
AcDbTrace
 10
9207.160106385009
 20
2141.180077679742
 30
0.0
 11
9215.493439718342
 21
2141.180077679742
 31
0.0
 12
9211.326773051672
 22
2116.180077679743
 32
0.0
 13
9211.326773051672
 23
2116.180077679743
 33
0.0
  0
MTEXT
  5
221F
330
1D5D
100
AcDbEntity
  8
图层2
 62
     6
100
AcDbMText
 10
9195.610478891614
 20
2358.180077679744
 30
0.0
 40
25.0
 41
0.0
 71
     5
 72
     1
  1
484
 11
0.0000000000000001
 21
1.0
 31
0.0
 73
     1
 44
1.0
1001
ACAD
1000
MTEXTBEGIN
1070
    73
1070
     1
1070
    44
1040
1.0
1070
    74
1070
     0
1000
MTEXTEND
  0
POINT
  5
2220
330
1D5D
100
AcDbEntity
  8
Defpoints
 62
     0
100
AcDbPoint
 10
9488.343843723422
 20
2600.180077679743
 30
0.0
  0
POINT
  5
2221
330
1D5D
100
AcDbEntity
  8
Defpoints
 62
     0
100
AcDbPoint
 10
9488.343843723422
 20
2116.180077679743
 30
0.0
  0
POINT
  5
2222
330
1D5D
100
AcDbEntity
  8
Defpoints
 62
     0
100
AcDbPoint
 10
9211.326773051672
 20
2116.180077679743
 30
0.0
  0
ENDBLK
  5
1D68
330
1D5D
100
AcDbEntity
  8
0
100
AcDbBlockEnd
  0
BLOCK
  5
1D73
330
1D69
100
AcDbEntity
  8
0
100
AcDbBlockBegin
  2
*D67
 70
     1
 10
0.0
 20
0.0
 30
0.0
  3
*D67
  1

  0
LINE
  5
2223
330
1D69
100
AcDbEntity
  8
图层2
 62
     6
370
     9
100
AcDbLine
 10
9284.343843723419
 20
2358.180077679744
 30
0.0
 11
9284.343843723419
 21
1999.410789154909
 31
0.0
  0
LINE
  5
2224
330
1D69
100
AcDbEntity
  8
图层2
 62
     6
370
     9
100
AcDbLine
 10
10056.34384372342
 20
2330.18007767974
 30
0.0
 11
10056.34384372342
 21
1999.410789154909
 31
0.0
  0
LINE
  5
2225
330
1D69
100
AcDbEntity
  8
图层2
 62
     6
370
     9
100
AcDbLine
 10
9309.34384372342
 20
2000.660789154909
 30
0.0
 11
10031.34384372342
 21
2000.660789154909
 31
0.0
  0
SOLID
  5
2226
330
1D69
100
AcDbEntity
  8
图层2
 62
     6
100
AcDbTrace
 10
9309.34384372342
 20
2004.827455821576
 30
0.0
 11
9309.34384372342
 21
1996.494122488243
 31
0.0
 12
9284.343843723419
 22
2000.660789154909
 32
0.0
 13
9284.343843723419
 23
2000.660789154909
 33
0.0
  0
SOLID
  5
2227
330
1D69
100
AcDbEntity
  8
图层2
 62
     6
100
AcDbTrace
 10
10031.34384372342
 20
2004.827455821576
 30
0.0
 11
10031.34384372342
 21
1996.494122488243
 31
0.0
 12
10056.34384372342
 22
2000.660789154909
 32
0.0
 13
10056.34384372342
 23
2000.660789154909
 33
0.0
  0
MTEXT
  5
2228
330
1D69
100
AcDbEntity
  8
图层2
 62
     6
100
AcDbMText
 10
9670.343843723424
 20
2016.413132341643
 30
0.0
 40
25.0
 41
0.0
 71
     5
 72
     1
  1
772
 73
     1
 44
1.0
1001
ACAD
1000
MTEXTBEGIN
1070
    73
1070
     1
1070
    44
1040
1.0
1070
    74
1070
     0
1000
MTEXTEND
  0
POINT
  5
2229
330
1D69
100
AcDbEntity
  8
Defpoints
 62
     0
100
AcDbPoint
 10
9284.343843723419
 20
2358.180077679744
 30
0.0
  0
POINT
  5
222A
330
1D69
100
AcDbEntity
  8
Defpoints
 62
     0
100
AcDbPoint
 10
10056.34384372342
 20
2330.18007767974
 30
0.0
  0
POINT
  5
222B
330
1D69
100
AcDbEntity
  8
Defpoints
 62
     0
100
AcDbPoint
 10
10056.34384372342
 20
2000.660789154909
 30
0.0
  0
ENDBLK
  5
1D74
330
1D69
100
AcDbEntity
  8
0
100
AcDbBlockEnd
  0
BLOCK
  5
1D7F
330
1D75
100
AcDbEntity
  8
0
100
AcDbBlockBegin
  2
*D68
 70
     1
 10
0.0
 20
0.0
 30
0.0
  3
*D68
  1

  0
LINE
  5
222C
330
1D75
100
AcDbEntity
  8
图层2
 62
     6
370
     9
100
AcDbLine
 10
9488.343843723422
 20
2607.180077679743
 30
0.0
 11
9170.262348398209
 21
2607.180077679743
 31
0.0
  0
LINE
  5
222D
330
1D75
100
AcDbEntity
  8
图层2
 62
     6
370
     9
100
AcDbLine
 10
9488.343843723422
 20
2109.180077679742
 30
0.0
 11
9170.262348398209
 21
2109.180077679742
 31
0.0
  0
LINE
  5
222E
330
1D75
100
AcDbEntity
  8
图层2
 62
     6
370
     9
100
AcDbLine
 10
9171.512348398207
 20
2582.180077679743
 30
0.0
 11
9171.512348398207
 21
2134.180077679742
 31
0.0
  0
SOLID
  5
222F
330
1D75
100
AcDbEntity
  8
图层2
 62
     6
100
AcDbTrace
 10
9167.345681731545
 20
2582.180077679743
 30
0.0
 11
9175.679015064874
 21
2582.180077679743
 31
0.0
 12
9171.512348398207
 22
2607.180077679743
 32
0.0
 13
9171.512348398207
 23
2607.180077679743
 33
0.0
  0
SOLID
  5
2230
330
1D75
100
AcDbEntity
  8
图层2
 62
     6
100
AcDbTrace
 10
9167.345681731545
 20
2134.180077679742
 30
0.0
 11
9175.679015064874
 21
2134.180077679742
 31
0.0
 12
9171.512348398207
 22
2109.180077679742
 32
0.0
 13
9171.512348398207
 23
2109.180077679742
 33
0.0
  0
MTEXT
  5
2231
330
1D75
100
AcDbEntity
  8
图层2
 62
     6
100
AcDbMText
 10
9155.760005211474
 20
2358.180077679744
 30
0.0
 40
25.0
 41
0.0
 71
     5
 72
     1
  1
498
 11
0.0000000000000001
 21
1.0
 31
0.0
 73
     1
 44
1.0
1001
ACAD
1000
MTEXTBEGIN
1070
    73
1070
     1
1070
    44
1040
1.0
1070
    74
1070
     0
1000
MTEXTEND
  0
POINT
  5
2232
330
1D75
100
AcDbEntity
  8
Defpoints
 62
     0
100
AcDbPoint
 10
9488.343843723422
 20
2607.180077679743
 30
0.0
  0
POINT
  5
2233
330
1D75
100
AcDbEntity
  8
Defpoints
 62
     0
100
AcDbPoint
 10
9488.343843723422
 20
2109.180077679742
 30
0.0
  0
POINT
  5
2234
330
1D75
100
AcDbEntity
  8
Defpoints
 62
     0
100
AcDbPoint
 10
9171.512348398207
 20
2109.180077679742
 30
0.0
  0
ENDBLK
  5
1D80
330
1D75
100
AcDbEntity
  8
0
100
AcDbBlockEnd
  0
BLOCK
  5
1D8B
330
1D81
100
AcDbEntity
  8
0
100
AcDbBlockBegin
  2
*D69
 70
     1
 10
0.0
 20
0.0
 30
0.0
  3
*D69
  1

  0
LINE
  5
2235
330
1D81
100
AcDbEntity
  8
图层2
 62
     6
370
     9
100
AcDbLine
 10
10063.34384372342
 20
2330.18007767974
 30
0.0
 11
10063.34384372342
 21
1954.653373048909
 31
0.0
  0
LINE
  5
2236
330
1D81
100
AcDbEntity
  8
图层2
 62
     6
370
     9
100
AcDbLine
 10
9277.343843723427
 20
2358.180077679744
 30
0.0
 11
9277.343843723427
 21
1954.653373048909
 31
0.0
  0
LINE
  5
2237
330
1D81
100
AcDbEntity
  8
图层2
 62
     6
370
     9
100
AcDbLine
 10
10038.34384372342
 20
1955.903373048909
 30
0.0
 11
9302.343843723424
 21
1955.903373048909
 31
0.0
  0
SOLID
  5
2238
330
1D81
100
AcDbEntity
  8
图层2
 62
     6
100
AcDbTrace
 10
10038.34384372342
 20
1960.070039715576
 30
0.0
 11
10038.34384372342
 21
1951.736706382242
 31
0.0
 12
10063.34384372342
 22
1955.903373048909
 32
0.0
 13
10063.34384372342
 23
1955.903373048909
 33
0.0
  0
SOLID
  5
2239
330
1D81
100
AcDbEntity
  8
图层2
 62
     6
100
AcDbTrace
 10
9302.343843723424
 20
1960.070039715576
 30
0.0
 11
9302.343843723424
 21
1951.736706382242
 31
0.0
 12
9277.343843723427
 22
1955.903373048909
 32
0.0
 13
9277.343843723427
 23
1955.903373048909
 33
0.0
  0
MTEXT
  5
223A
330
1D81
100
AcDbEntity
  8
图层2
 62
     6
100
AcDbMText
 10
9670.343843723424
 20
1971.655716235643
 30
0.0
 40
25.0
 41
0.0
 71
     5
 72
     1
  1
786
 73
     1
 44
1.0
1001
ACAD
1000
MTEXTBEGIN
1070
    73
1070
     1
1070
    44
1040
1.0
1070
    74
1070
     0
1000
MTEXTEND
  0
POINT
  5
223B
330
1D81
100
AcDbEntity
  8
Defpoints
 62
     0
100
AcDbPoint
 10
10063.34384372342
 20
2330.18007767974
 30
0.0
  0
POINT
  5
223C
330
1D81
100
AcDbEntity
  8
Defpoints
 62
     0
100
AcDbPoint
 10
9277.343843723427
 20
2358.180077679744
 30
0.0
  0
POINT
  5
223D
330
1D81
100
AcDbEntity
  8
Defpoints
 62
     0
100
AcDbPoint
 10
9277.343843723427
 20
1955.903373048909
 30
0.0
  0
ENDBLK
  5
1D8C
330
1D81
100
AcDbEntity
  8
0
100
AcDbBlockEnd
  0
BLOCK
  5
1D93
330
1D8D
100
AcDbEntity
  8
0
100
AcDbBlockBegin
  2
*D70
 70
     1
 10
0.0
 20
0.0
 30
0.0
  3
*D70
  1

  0
LINE
  5
22FA
330
1D8D
100
AcDbEntity
  8
图层2
 62
     6
370
     9
100
AcDbLine
 10
9918.101434095394
 20
2409.42327427414
 30
0.0
 11
9923.137813949622
 21
2518.353050403175
 31
0.0
  0
MTEXT
  5
22FB
330
1D8D
100
AcDbEntity
  8
图层2
 62
     6
100
AcDbMText
 10
9904.342779121972
 20
2452.127370604707
 30
0.0
 40
25.0
 41
0.0
 71
     5
 72
     1
  1
R800
 11
0.0461857680338125
 21
0.9989328680302429
 31
0.0
 73
     1
 44
1.0
1001
ACAD
1000
MTEXTBEGIN
1070
    73
1070
     1
1070
    44
1040
1.0
1070
    74
1070
     0
1000
MTEXTEND
  0
SOLID
  5
22FC
330
1D8D
100
AcDbEntity
  8
图层2
 62
     6
100
AcDbTrace
 10
9918.975593666161
 20
2518.545491103316
 30
0.0
 11
9927.300034233077
 21
2518.160609703035
 31
0.0
 12
9924.292458150464
 22
2543.326372103931
 32
0.0
 13
9924.292458150464
 23
2543.326372103931
 33
0.0
  0
POINT
  5
22FD
330
1D8D
100
AcDbEntity
  8
Defpoints
 62
     0
100
AcDbPoint
 10
9924.292458150464
 20
2543.326372103931
 30
0.0
  0
POINT
  5
22FE
330
1D8D
100
AcDbEntity
  8
Defpoints
 62
     0
100
AcDbPoint
 10
9887.343843723414
 20
1744.18007767974
 30
0.0
  0
ENDBLK
  5
1D94
330
1D8D
100
AcDbEntity
  8
0
100
AcDbBlockEnd
  0
BLOCK
  5
1D9B
330
1D95
100
AcDbEntity
  8
0
100
AcDbBlockBegin
  2
*D71
 70
     1
 10
0.0
 20
0.0
 30
0.0
  3
*D71
  1

  0
LINE
  5
22FF
330
1D95
100
AcDbEntity
  8
图层2
 62
     6
370
     9
100
AcDbLine
 10
9922.120776920621
 20
2251.134887562539
 30
0.0
 11
9927.815301219427
 21
2142.237533863894
 31
0.0
  0
MTEXT
  5
2300
330
1D95
100
AcDbEntity
  8
图层2
 62
     6
100
AcDbMText
 10
9940.010123538272
 20
2209.989879266497
 30
0.0
 40
25.0
 41
0.0
 71
     5
 72
     1
  1
R800
 11
0.052221235478703
 21
-0.9986355404075492
 31
0.0
 73
     1
 44
1.0
1001
ACAD
1000
MTEXTBEGIN
1070
    73
1070
     1
1070
    44
1040
1.0
1070
    74
1070
     0
1000
MTEXTEND
  0
SOLID
  5
2301
330
1D95
100
AcDbEntity
  8
图层2
 62
     6
100
AcDbTrace
 10
9931.976282637792
 20
2142.455122345055
 30
0.0
 11
9923.654319801062
 21
2142.019945382733
 31
0.0
 12
9929.1208321064
 22
2117.271645353705
 32
0.0
 13
9929.1208321064
 23
2117.271645353705
 33
0.0
  0
POINT
  5
2302
330
1D95
100
AcDbEntity
  8
Defpoints
 62
     0
100
AcDbPoint
 10
9929.1208321064
 20
2117.271645353705
 30
0.0
  0
POINT
  5
2303
330
1D95
100
AcDbEntity
  8
Defpoints
 62
     0
100
AcDbPoint
 10
9887.343843723432
 20
2916.180077679744
 30
0.0
  0
ENDBLK
  5
1D9C
330
1D95
100
AcDbEntity
  8
0
100
AcDbBlockEnd
  0
BLOCK
  5
1DA3
330
1D9D
100
AcDbEntity
  8
0
100
AcDbBlockBegin
  2
*D72
 70
     1
 10
0.0
 20
0.0
 30
0.0
  3
*D72
  1

  0
LINE
  5
2304
330
1D9D
100
AcDbEntity
  8
图层2
 62
     6
370
     9
100
AcDbLine
 10
9946.140826390442
 20
2228.115038460526
 30
0.0
 11
10003.15037524945
 21
2159.158063055073
 31
0.0
  0
MTEXT
  5
2305
330
1D9D
100
AcDbEntity
  8
图层2
 62
     6
100
AcDbMText
 10
9978.793610643174
 20
2213.284601974954
 30
0.0
 40
25.0
 41
0.0
 71
     5
 72
     1
  1
R85
 11
0.6371809493174463
 21
-0.7707142387596832
 31
0.0
 73
     1
 44
1.0
1001
ACAD
1000
MTEXTBEGIN
1070
    73
1070
     1
1070
    44
1040
1.0
1070
    74
1070
     0
1000
MTEXTEND
  0
SOLID
  5
2306
330
1D9D
100
AcDbEntity
  8
图层2
 62
     6
100
AcDbTrace
 10
10006.36168457762
 20
2161.812983677228
 30
0.0
 11
9999.939065921289
 21
2156.503142432918
 31
0.0
 12
10019.07989898239
 22
2139.890207086081
 32
0.0
 13
10019.07989898239
 23
2139.890207086081
 33
0.0
  0
POINT
  5
2307
330
1D9D
100
AcDbEntity
  8
Defpoints
 62
     0
100
AcDbPoint
 10
10019.07989898239
 20
2139.890207086081
 30
0.0
  0
POINT
  5
2308
330
1D9D
100
AcDbEntity
  8
Defpoints
 62
     0
100
AcDbPoint
 10
9964.919518290408
 20
2205.400917380654
 30
0.0
  0
ENDBLK
  5
1DA4
330
1D9D
100
AcDbEntity
  8
0
100
AcDbBlockEnd
  0
BLOCK
  5
1DAB
330
1DA5
100
AcDbEntity
  8
0
100
AcDbBlockBegin
  2
*D73
 70
     1
 10
0.0
 20
0.0
 30
0.0
  3
*D73
  1

  0
LINE
  5
2309
330
1DA5
100
AcDbEntity
  8
图层2
 62
     6
370
     9
100
AcDbLine
 10
9903.583075615983
 20
2354.489518039887
 30
0.0
 11
10031.05770547547
 21
2357.190643337781
 31
0.0
  0
MTEXT
  5
230A
330
1DA5
100
AcDbEntity
  8
图层2
 62
     6
100
AcDbMText
 10
9954.490249943994
 20
2371.288038297048
 30
0.0
 40
25.0
 41
0.0
 71
     5
 72
     1
  1
R1300
 11
0.9997755778447475
 21
0.0211847573788546
 31
0.0
 73
     1
 44
1.0
1001
ACAD
1000
MTEXTBEGIN
1070
    73
1070
     1
1070
    44
1040
1.0
1070
    74
1070
     0
1000
MTEXTEND
  0
SOLID
  5
230B
330
1DA5
100
AcDbEntity
  8
图层2
 62
     6
100
AcDbTrace
 10
10030.96943565306
 20
2361.356374912134
 30
0.0
 11
10031.14597529788
 21
2353.024911763428
 31
0.0
 12
10056.05209492159
 22
2357.720262272252
 32
0.0
 13
10056.05209492159
 23
2357.720262272252
 33
0.0
  0
POINT
  5
230C
330
1DA5
100
AcDbEntity
  8
Defpoints
 62
     0
100
AcDbPoint
 10
10056.05209492159
 20
2357.720262272252
 30
0.0
  0
POINT
  5
230D
330
1DA5
100
AcDbEntity
  8
Defpoints
 62
     0
100
AcDbPoint
 10
8756.343843723429
 20
2330.180077679742
 30
0.0
  0
ENDBLK
  5
1DAC
330
1DA5
100
AcDbEntity
  8
0
100
AcDbBlockEnd
  0
BLOCK
  5
1DB3
330
1DAD
100
AcDbEntity
  8
0
100
AcDbBlockBegin
  2
*D74
 70
     1
 10
0.0
 20
0.0
 30
0.0
  3
*D74
  1

  0
LINE
  5
230E
330
1DAD
100
AcDbEntity
  8
图层2
 62
     6
370
     9
100
AcDbLine
 10
9946.061502176357
 20
2432.310931328067
 30
0.0
 11
10003.31186853655
 21
2501.068103097999
 31
0.0
  0
MTEXT
  5
230F
330
1DAD
100
AcDbEntity
  8
图层2
 62
     6
100
AcDbMText
 10
9954.610604261857
 20
2467.139928145942
 30
0.0
 40
25.0
 41
0.0
 71
     5
 72
     1
  1
R85
 11
0.6398725041023507
 21
0.7684810853194679
 31
0.0
 73
     1
 44
1.0
1001
ACAD
1000
MTEXTBEGIN
1070
    73
1070
     1
1070
    44
1040
1.0
1070
    74
1070
     0
1000
MTEXTEND
  0
SOLID
  5
2310
330
1DAD
100
AcDbEntity
  8
图层2
 62
     6
100
AcDbTrace
 10
10000.10986401439
 20
2503.734238531759
 30
0.0
 11
10006.51387305872
 21
2498.401967664239
 31
0.0
 12
10019.30868113911
 22
2520.280130230986
 32
0.0
 13
10019.30868113911
 23
2520.280130230986
 33
0.0
  0
POINT
  5
2311
330
1DAD
100
AcDbEntity
  8
Defpoints
 62
     0
100
AcDbPoint
 10
10019.30868113911
 20
2520.280130230986
 30
0.0
  0
POINT
  5
2312
330
1DAD
100
AcDbEntity
  8
Defpoints
 62
     0
100
AcDbPoint
 10
9964.919518290416
 20
2454.95923797883
 30
0.0
  0
ENDBLK
  5
1DB4
330
1DAD
100
AcDbEntity
  8
0
100
AcDbBlockEnd
  0
BLOCK
  5
1DBB
330
1DB5
100
AcDbEntity
  8
0
100
AcDbBlockBegin
  2
*D75
 70
     1
 10
0.0
 20
0.0
 30
0.0
  3
*D75
  1

  0
LINE
  5
2313
330
1DB5
100
AcDbEntity
  8
图层2
 62
     6
370
     9
100
AcDbLine
 10
9579.12980335304
 20
2485.625282059932
 30
0.0
 11
9635.378735374279
 21
2555.204091798571
 31
0.0
  0
MTEXT
  5
2314
330
1DB5
100
AcDbEntity
  8
图层2
 62
     6
100
AcDbMText
 10
9587.145737461254
 20
2520.597061824876
 30
0.0
 40
25.0
 41
0.0
 71
     5
 72
     1
  1
R95
 11
0.6286797320923215
 21
0.7776643199069423
 31
0.0
 73
     1
 44
1.0
1001
ACAD
1000
MTEXTBEGIN
1070
    73
1070
     1
1070
    44
1040
1.0
1070
    74
1070
     0
1000
MTEXTEND
  0
SOLID
  5
2315
330
1DB5
100
AcDbEntity
  8
图层2
 62
     6
100
AcDbTrace
 10
9632.138467374669
 20
2557.82359068229
 30
0.0
 11
9638.619003373891
 21
2552.584592914853
 31
0.0
 12
9651.095728676589
 22
2574.645699796244
 32
0.0
 13
9651.095728676589
 23
2574.645699796244
 33
0.0
  0
POINT
  5
2316
330
1DB5
100
AcDbEntity
  8
Defpoints
 62
     0
100
AcDbPoint
 10
9651.095728676589
 20
2574.645699796244
 30
0.0
  0
POINT
  5
2317
330
1DB5
100
AcDbEntity
  8
Defpoints
 62
     0
100
AcDbPoint
 10
9591.371154127811
 20
2500.767589405081
 30
0.0
  0
ENDBLK
  5
1DBC
330
1DB5
100
AcDbEntity
  8
0
100
AcDbBlockEnd
  0
BLOCK
  5
1DC3
330
1DBD
100
AcDbEntity
  8
0
100
AcDbBlockBegin
  2
*D76
 70
     1
 10
0.0
 20
0.0
 30
0.0
  3
*D76
  1

  0
LINE
  5
2318
330
1DBD
100
AcDbEntity
  8
图层2
 62
     6
370
     9
100
AcDbLine
 10
9433.727688120796
 20
2269.983811924495
 30
0.0
 11
9427.659054808541
 21
2142.625070467893
 31
0.0
  0
MTEXT
  5
2319
330
1DBD
100
AcDbEntity
  8
图层2
 62
     6
100
AcDbMText
 10
9415.589837926686
 20
2219.538305967784
 30
0.0
 40
25.0
 41
0.0
 71
     5
 72
     1
  1
R1300
 11
0.0475959128744162
 21
0.9988666723230139
 31
0.0
 73
     1
 44
1.0
1001
ACAD
1000
MTEXTBEGIN
1070
    73
1070
     1
1070
    44
1040
1.0
1070
    74
1070
     0
1000
MTEXTEND
  0
SOLID
  5
231A
330
1DBD
100
AcDbEntity
  8
图层2
 62
     6
100
AcDbTrace
 10
9423.497110340525
 20
2142.823386771536
 30
0.0
 11
9431.820999276551
 21
2142.426754164249
 31
0.0
 12
9426.46915698668
 22
2117.653403659818
 32
0.0
 13
9426.46915698668
 23
2117.653403659818
 33
0.0
  0
POINT
  5
231B
330
1DBD
100
AcDbEntity
  8
Defpoints
 62
     0
100
AcDbPoint
 10
9426.46915698668
 20
2117.653403659818
 30
0.0
  0
POINT
  5
231C
330
1DBD
100
AcDbEntity
  8
Defpoints
 62
     0
100
AcDbPoint
 10
9488.34384372342
 20
3416.180077679741
 30
0.0
  0
ENDBLK
  5
1DC4
330
1DBD
100
AcDbEntity
  8
0
100
AcDbBlockEnd
  0
BLOCK
  5
1DCB
330
1DC5
100
AcDbEntity
  8
0
100
AcDbBlockBegin
  2
*D77
 70
     1
 10
0.0
 20
0.0
 30
0.0
  3
*D77
  1

  0
LINE
  5
231D
330
1DC5
100
AcDbEntity
  8
图层2
 62
     6
370
     9
100
AcDbLine
 10
9508.700175963198
 20
2447.496260700711
 30
0.0
 11
9510.962054606663
 21
2574.979440927322
 31
0.0
  0
MTEXT
  5
231E
330
1DC5
100
AcDbEntity
  8
图层2
 62
     6
100
AcDbMText
 10
9493.895547109326
 20
2499.0186213356
 30
0.0
 40
25.0
 41
0.0
 71
     5
 72
     1
  1
R1300
 11
0.017739773241752
 21
0.999842637841241
 31
0.0
 73
     1
 44
1.0
1001
ACAD
1000
MTEXTBEGIN
1070
    73
1070
     1
1070
    44
1040
1.0
1070
    74
1070
     0
1000
MTEXTEND
  0
SOLID
  5
231F
330
1DC5
100
AcDbEntity
  8
图层2
 62
     6
100
AcDbTrace
 10
9506.796043615656
 20
2575.053356649164
 30
0.0
 11
9515.128065597666
 21
2574.905525205481
 31
0.0
 12
9511.405548937707
 22
2599.975506873353
 32
0.0
 13
9511.405548937707
 23
2599.975506873353
 33
0.0
  0
POINT
  5
2320
330
1DC5
100
AcDbEntity
  8
Defpoints
 62
     0
100
AcDbPoint
 10
9511.405548937707
 20
2599.975506873353
 30
0.0
  0
POINT
  5
2321
330
1DC5
100
AcDbEntity
  8
Defpoints
 62
     0
100
AcDbPoint
 10
9488.343843723427
 20
1300.180077679742
 30
0.0
  0
ENDBLK
  5
1DCC
330
1DC5
100
AcDbEntity
  8
0
100
AcDbBlockEnd
  0
BLOCK
  5
1DD3
330
1DCD
100
AcDbEntity
  8
0
100
AcDbBlockBegin
  2
*D78
 70
     1
 10
0.0
 20
0.0
 30
0.0
  3
*D78
  1

  0
LINE
  5
2322
330
1DCD
100
AcDbEntity
  8
图层2
 62
     6
370
     9
100
AcDbLine
 10
9437.323707986932
 20
2397.806232554806
 30
0.0
 11
9309.857350188821
 21
2400.872984154178
 31
0.0
  0
MTEXT
  5
2323
330
1DCD
100
AcDbEntity
  8
图层2
 62
     6
100
AcDbMText
 10
9386.464926522174
 20
2414.750701528863
 30
0.0
 40
25.0
 41
0.0
 71
     5
 72
     1
  1
R1800
 11
0.9997107005828805
 21
-0.0240523416757371
 31
0.0
 73
     1
 44
1.0
1001
ACAD
1000
MTEXTBEGIN
1070
    73
1070
     1
1070
    44
1040
1.0
1070
    74
1070
     0
1000
MTEXTEND
  0
SOLID
  5
2324
330
1DCD
100
AcDbEntity
  8
图层2
 62
     6
100
AcDbTrace
 10
9309.957568279136
 20
2405.038445406606
 30
0.0
 11
9309.757132098502
 21
2396.707522901749
 31
0.0
 12
9284.864582674249
 22
2401.474292696071
 32
0.0
 13
9284.864582674249
 23
2401.474292696071
 33
0.0
  0
POINT
  5
2325
330
1DCD
100
AcDbEntity
  8
Defpoints
 62
     0
100
AcDbPoint
 10
9284.864582674249
 20
2401.474292696071
 30
0.0
  0
POINT
  5
2326
330
1DCD
100
AcDbEntity
  8
Defpoints
 62
     0
100
AcDbPoint
 10
11084.34384372342
 20
2358.180077679744
 30
0.0
  0
ENDBLK
  5
1DD4
330
1DCD
100
AcDbEntity
  8
0
100
AcDbBlockEnd
  0
BLOCK
  5
1DDB
330
1DD5
100
AcDbEntity
  8
0
100
AcDbBlockBegin
  2
*D79
 70
     1
 10
0.0
 20
0.0
 30
0.0
  3
*D79
  1

  0
LINE
  5
2327
330
1DD5
100
AcDbEntity
  8
图层2
 62
     6
370
     9
100
AcDbLine
 10
9401.551828182141
 20
2490.017922376086
 30
0.0
 11
9326.950747476139
 21
2539.412576698933
 31
0.0
  0
MTEXT
  5
2328
330
1DD5
100
AcDbEntity
  8
图层2
 62
     6
100
AcDbMText
 10
9383.370165333941
 20
2520.948614505901
 30
0.0
 40
25.0
 41
0.0
 71
     5
 72
     1
  1
R95
 11
0.8337969406127092
 21
-0.5520712470550216
 31
0.0
 73
     1
 44
1.0
1001
ACAD
1000
MTEXTBEGIN
1070
    73
1070
     1
1070
    44
1040
1.0
1070
    74
1070
     0
1000
MTEXTEND
  0
SOLID
  5
2329
330
1DD5
100
AcDbEntity
  8
图层2
 62
     6
100
AcDbTrace
 10
9329.251044338873
 20
2542.886730618154
 30
0.0
 11
9324.650450613411
 21
2535.938422779713
 31
0.0
 12
9306.105823960825
 22
2553.214357875309
 32
0.0
 13
9306.105823960825
 23
2553.214357875309
 33
0.0
  0
POINT
  5
232A
330
1DD5
100
AcDbEntity
  8
Defpoints
 62
     0
100
AcDbPoint
 10
9306.105823960825
 20
2553.214357875309
 30
0.0
  0
POINT
  5
232B
330
1DD5
100
AcDbEntity
  8
Defpoints
 62
     0
100
AcDbPoint
 10
9385.316533319032
 20
2500.767589405081
 30
0.0
  0
ENDBLK
  5
1DDC
330
1DD5
100
AcDbEntity
  8
0
100
AcDbBlockEnd
  0
BLOCK
  5
1DE3
330
1DDD
100
AcDbEntity
  8
0
100
AcDbBlockBegin
  2
*D80
 70
     1
 10
0.0
 20
0.0
 30
0.0
  3
*D80
  1

  0
LINE
  5
232C
330
1DDD
100
AcDbEntity
  8
图层2
 62
     6
370
     9
100
AcDbLine
 10
9400.679468342525
 20
2227.55585847739
 30
0.0
 11
9330.086875769874
 21
2172.584602424354
 31
0.0
  0
MTEXT
  5
232D
330
1DDD
100
AcDbEntity
  8
图层2
 62
     6
100
AcDbMText
 10
9365.567379457294
 20
2220.178745649813
 30
0.0
 40
25.0
 41
0.0
 71
     5
 72
     1
  1
R95
 11
0.7889951078451571
 21
0.6143994790007631
 31
0.0
 73
     1
 44
1.0
1001
ACAD
1000
MTEXTBEGIN
1070
    73
1070
     1
1070
    44
1040
1.0
1070
    74
1070
     0
1000
MTEXTEND
  0
SOLID
  5
232E
330
1DDD
100
AcDbEntity
  8
图层2
 62
     6
100
AcDbTrace
 10
9327.526877940705
 20
2175.872082040375
 30
0.0
 11
9332.646873599044
 21
2169.297122808333
 31
0.0
 12
9310.361998073746
 22
2157.224615449334
 32
0.0
 13
9310.361998073746
 23
2157.224615449334
 33
0.0
  0
POINT
  5
232F
330
1DDD
100
AcDbEntity
  8
Defpoints
 62
     0
100
AcDbPoint
 10
9310.361998073746
 20
2157.224615449334
 30
0.0
  0
POINT
  5
2330
330
1DDD
100
AcDbEntity
  8
Defpoints
 62
     0
100
AcDbPoint
 10
9385.316533319032
 20
2215.592565954405
 30
0.0
  0
ENDBLK
  5
1DE4
330
1DDD
100
AcDbEntity
  8
0
100
AcDbBlockEnd
  0
BLOCK
  5
1DEF
330
1DE5
100
AcDbEntity
  8
0
100
AcDbBlockBegin
  2
*D81
 70
     1
 10
0.0
 20
0.0
 30
0.0
  3
*D81
  1

  0
LINE
  5
2275
330
1DE5
100
AcDbEntity
  8
图层2
 62
     6
370
     9
100
AcDbLine
 10
9887.343843723421
 20
2544.180077679741
 30
0.0
 11
10152.23252466141
 21
2544.180077679741
 31
0.0
  0
LINE
  5
2276
330
1DE5
100
AcDbEntity
  8
图层2
 62
     6
370
     9
100
AcDbLine
 10
9887.343843723421
 20
2116.180077679741
 30
0.0
 11
10152.23252466141
 21
2116.180077679741
 31
0.0
  0
LINE
  5
2277
330
1DE5
100
AcDbEntity
  8
图层2
 62
     6
370
     9
100
AcDbLine
 10
10150.98252466141
 20
2519.180077679741
 30
0.0
 11
10150.98252466141
 21
2141.180077679741
 31
0.0
  0
SOLID
  5
2278
330
1DE5
100
AcDbEntity
  8
图层2
 62
     6
100
AcDbTrace
 10
10146.81585799475
 20
2519.180077679741
 30
0.0
 11
10155.14919132808
 21
2519.180077679741
 31
0.0
 12
10150.98252466141
 22
2544.180077679741
 32
0.0
 13
10150.98252466141
 23
2544.180077679741
 33
0.0
  0
SOLID
  5
2279
330
1DE5
100
AcDbEntity
  8
图层2
 62
     6
100
AcDbTrace
 10
10146.81585799475
 20
2141.180077679741
 30
0.0
 11
10155.14919132808
 21
2141.180077679741
 31
0.0
 12
10150.98252466141
 22
2116.180077679741
 32
0.0
 13
10150.98252466141
 23
2116.180077679741
 33
0.0
  0
MTEXT
  5
227A
330
1DE5
100
AcDbEntity
  8
图层2
 62
     6
100
AcDbMText
 10
10135.26623050136
 20
2330.180077679743
 30
0.0
 40
25.0
 41
0.0
 71
     5
 72
     1
  1
428
 11
0.0000000000000001
 21
1.0
 31
0.0
 73
     1
 44
1.0
1001
ACAD
1000
MTEXTBEGIN
1070
    73
1070
     1
1070
    44
1040
1.0
1070
    74
1070
     0
1000
MTEXTEND
  0
POINT
  5
227B
330
1DE5
100
AcDbEntity
  8
Defpoints
 62
     0
100
AcDbPoint
 10
9887.343843723421
 20
2544.180077679741
 30
0.0
  0
POINT
  5
227C
330
1DE5
100
AcDbEntity
  8
Defpoints
 62
     0
100
AcDbPoint
 10
9887.343843723421
 20
2116.180077679741
 30
0.0
  0
POINT
  5
227D
330
1DE5
100
AcDbEntity
  8
Defpoints
 62
     0
100
AcDbPoint
 10
10150.98252466141
 20
2116.180077679741
 30
0.0
  0
ENDBLK
  5
1DF0
330
1DE5
100
AcDbEntity
  8
0
100
AcDbBlockEnd
  0
BLOCK
  5
1E1C
330
1E12
100
AcDbEntity
  8
0
100
AcDbBlockBegin
  2
*D82
 70
     1
 10
0.0
 20
0.0
 30
0.0
  3
*D82
  1

  0
LINE
  5
229F
330
1E12
100
AcDbEntity
  8
图层2
 62
     6
370
     9
100
AcDbLine
 10
9887.343843723421
 20
2551.180077679742
 30
0.0
 11
10189.22606243427
 21
2551.180077679742
 31
0.0
  0
LINE
  5
22A0
330
1E12
100
AcDbEntity
  8
图层2
 62
     6
370
     9
100
AcDbLine
 10
9887.343843723421
 20
2109.180077679742
 30
0.0
 11
10189.22606243427
 21
2109.180077679742
 31
0.0
  0
LINE
  5
22A1
330
1E12
100
AcDbEntity
  8
图层2
 62
     6
370
     9
100
AcDbLine
 10
10187.97606243427
 20
2526.180077679742
 30
0.0
 11
10187.97606243427
 21
2134.180077679742
 31
0.0
  0
SOLID
  5
22A2
330
1E12
100
AcDbEntity
  8
图层2
 62
     6
100
AcDbTrace
 10
10183.80939576761
 20
2526.180077679742
 30
0.0
 11
10192.14272910094
 21
2526.180077679742
 31
0.0
 12
10187.97606243427
 22
2551.180077679742
 32
0.0
 13
10187.97606243427
 23
2551.180077679742
 33
0.0
  0
SOLID
  5
22A3
330
1E12
100
AcDbEntity
  8
图层2
 62
     6
100
AcDbTrace
 10
10183.80939576761
 20
2134.180077679742
 30
0.0
 11
10192.14272910094
 21
2134.180077679742
 31
0.0
 12
10187.97606243427
 22
2109.180077679742
 32
0.0
 13
10187.97606243427
 23
2109.180077679742
 33
0.0
  0
MTEXT
  5
22A4
330
1E12
100
AcDbEntity
  8
图层2
 62
     6
100
AcDbMText
 10
10172.47606243427
 20
2330.180077679743
 30
0.0
 40
25.0
 41
0.0
 71
     5
 72
     1
  1
442
 11
0.0000000000000001
 21
1.0
 31
0.0
 73
     1
 44
1.0
1001
ACAD
1000
MTEXTBEGIN
1070
    73
1070
     1
1070
    44
1040
1.0
1070
    74
1070
     0
1000
MTEXTEND
  0
POINT
  5
22A5
330
1E12
100
AcDbEntity
  8
Defpoints
 62
     0
100
AcDbPoint
 10
9887.343843723421
 20
2551.180077679742
 30
0.0
  0
POINT
  5
22A6
330
1E12
100
AcDbEntity
  8
Defpoints
 62
     0
100
AcDbPoint
 10
9887.343843723421
 20
2109.180077679742
 30
0.0
  0
POINT
  5
22A7
330
1E12
100
AcDbEntity
  8
Defpoints
 62
     0
100
AcDbPoint
 10
10187.97606243427
 20
2109.180077679742
 30
0.0
  0
ENDBLK
  5
1E1D
330
1E12
100
AcDbEntity
  8
0
100
AcDbBlockEnd
  0
BLOCK
  5
20CD
330
20C3
100
AcDbEntity
  8
0
100
AcDbBlockBegin
  2
*D83
 70
     1
 10
0.0
 20
0.0
 30
0.0
  3
*D83
  1

  0
LINE
  5
22A8
330
20C3
100
AcDbEntity
  8
图层2
 62
     6
370
     9
100
AcDbLine
 10
9290.693843723422
 20
2358.180077679744
 30
0.0
 11
9290.693843723422
 21
2045.255054300799
 31
0.0
  0
LINE
  5
22A9
330
20C3
100
AcDbEntity
  8
图层2
 62
     6
370
     9
100
AcDbLine
 10
10049.99384372342
 20
2330.180077679736
 30
0.0
 11
10049.99384372342
 21
2045.255054300799
 31
0.0
  0
LINE
  5
22AA
330
20C3
100
AcDbEntity
  8
图层2
 62
     6
370
     9
100
AcDbLine
 10
9315.693843723421
 20
2046.5050543008
 30
0.0
 11
10024.99384372342
 21
2046.5050543008
 31
0.0
  0
SOLID
  5
22AB
330
20C3
100
AcDbEntity
  8
图层2
 62
     6
100
AcDbTrace
 10
9315.693843723421
 20
2050.671720967466
 30
0.0
 11
9315.693843723421
 21
2042.338387634133
 31
0.0
 12
9290.693843723422
 22
2046.5050543008
 32
0.0
 13
9290.693843723422
 23
2046.5050543008
 33
0.0
  0
SOLID
  5
22AC
330
20C3
100
AcDbEntity
  8
图层2
 62
     6
100
AcDbTrace
 10
10024.99384372342
 20
2050.671720967466
 30
0.0
 11
10024.99384372342
 21
2042.338387634133
 31
0.0
 12
10049.99384372342
 22
2046.5050543008
 32
0.0
 13
10049.99384372342
 23
2046.5050543008
 33
0.0
  0
MTEXT
  5
22AD
330
20C3
100
AcDbEntity
  8
图层2
 62
     6
100
AcDbMText
 10
9670.343843723422
 20
2065.078233824952
 30
0.0
 40
25.0
 41
0.0
 71
     5
 72
     1
  1
759,3
 73
     1
 44
1.0
1001
ACAD
1000
MTEXTBEGIN
1070
    73
1070
     1
1070
    44
1040
1.0
1070
    74
1070
     0
1000
MTEXTEND
  0
POINT
  5
22AE
330
20C3
100
AcDbEntity
  8
Defpoints
 62
     0
100
AcDbPoint
 10
9290.693843723422
 20
2358.180077679744
 30
0.0
  0
POINT
  5
22AF
330
20C3
100
AcDbEntity
  8
Defpoints
 62
     0
100
AcDbPoint
 10
10049.99384372342
 20
2330.180077679736
 30
0.0
  0
POINT
  5
22B0
330
20C3
100
AcDbEntity
  8
Defpoints
 62
     0
100
AcDbPoint
 10
10049.99384372342
 20
2046.5050543008
 30
0.0
  0
ENDBLK
  5
20CE
330
20C3
100
AcDbEntity
  8
0
100
AcDbBlockEnd
  0
BLOCK
  5
20E5
330
20DB
100
AcDbEntity
  8
0
100
AcDbBlockBegin
  2
*D84
 70
     1
 10
0.0
 20
0.0
 30
0.0
  3
*D84
  1

  0
LINE
  5
22B1
330
20DB
100
AcDbEntity
  8
图层2
 62
     6
370
     9
100
AcDbLine
 10
9488.343843723422
 20
2593.830077679742
 30
0.0
 11
9259.32176113223
 21
2593.830077679742
 31
0.0
  0
LINE
  5
22B2
330
20DB
100
AcDbEntity
  8
图层2
 62
     6
370
     9
100
AcDbLine
 10
9488.343843723422
 20
2122.530077679742
 30
0.0
 11
9259.32176113223
 21
2122.530077679742
 31
0.0
  0
LINE
  5
22B3
330
20DB
100
AcDbEntity
  8
图层2
 62
     6
370
     9
100
AcDbLine
 10
9260.571761132231
 20
2568.830077679742
 30
0.0
 11
9260.571761132231
 21
2147.530077679742
 31
0.0
  0
SOLID
  5
22B4
330
20DB
100
AcDbEntity
  8
图层2
 62
     6
100
AcDbTrace
 10
9256.405094465566
 20
2568.830077679742
 30
0.0
 11
9264.738427798901
 21
2568.830077679742
 31
0.0
 12
9260.571761132231
 22
2593.830077679742
 32
0.0
 13
9260.571761132231
 23
2593.830077679742
 33
0.0
  0
SOLID
  5
22B5
330
20DB
100
AcDbEntity
  8
图层2
 62
     6
100
AcDbTrace
 10
9256.405094465566
 20
2147.530077679742
 30
0.0
 11
9264.738427798901
 21
2147.530077679742
 31
0.0
 12
9260.571761132231
 22
2122.530077679742
 32
0.0
 13
9260.571761132231
 23
2122.530077679742
 33
0.0
  0
MTEXT
  5
22B6
330
20DB
100
AcDbEntity
  8
图层2
 62
     6
100
AcDbMText
 10
9241.998581608081
 20
2358.180077679744
 30
0.0
 40
25.0
 41
0.0
 71
     5
 72
     1
  1
471,3
 11
0.0000000000000001
 21
1.0
 31
0.0
 73
     1
 44
1.0
1001
ACAD
1000
MTEXTBEGIN
1070
    73
1070
     1
1070
    44
1040
1.0
1070
    74
1070
     0
1000
MTEXTEND
  0
POINT
  5
22B7
330
20DB
100
AcDbEntity
  8
Defpoints
 62
     0
100
AcDbPoint
 10
9488.343843723422
 20
2593.830077679742
 30
0.0
  0
POINT
  5
22B8
330
20DB
100
AcDbEntity
  8
Defpoints
 62
     0
100
AcDbPoint
 10
9488.343843723422
 20
2122.530077679742
 30
0.0
  0
POINT
  5
22B9
330
20DB
100
AcDbEntity
  8
Defpoints
 62
     0
100
AcDbPoint
 10
9260.571761132231
 20
2122.530077679742
 30
0.0
  0
ENDBLK
  5
20E6
330
20DB
100
AcDbEntity
  8
0
100
AcDbBlockEnd
  0
BLOCK
  5
20FD
330
20F3
100
AcDbEntity
  8
0
100
AcDbBlockBegin
  2
*D85
 70
     1
 10
0.0
 20
0.0
 30
0.0
  3
*D85
  1

  0
LINE
  5
22BA
330
20F3
100
AcDbEntity
  8
图层2
 62
     6
370
     9
100
AcDbLine
 10
9887.343843723421
 20
2537.830077679741
 30
0.0
 11
10112.14504604484
 21
2537.830077679741
 31
0.0
  0
LINE
  5
22BB
330
20F3
100
AcDbEntity
  8
图层2
 62
     6
370
     9
100
AcDbLine
 10
9887.343843723421
 20
2122.530077679742
 30
0.0
 11
10112.14504604484
 21
2122.530077679742
 31
0.0
  0
LINE
  5
22BC
330
20F3
100
AcDbEntity
  8
图层2
 62
     6
370
     9
100
AcDbLine
 10
10110.89504604484
 20
2512.830077679741
 30
0.0
 11
10110.89504604484
 21
2147.530077679742
 31
0.0
  0
SOLID
  5
22BD
330
20F3
100
AcDbEntity
  8
图层2
 62
     6
100
AcDbTrace
 10
10106.72837937817
 20
2512.830077679741
 30
0.0
 11
10115.0617127115
 21
2512.830077679741
 31
0.0
 12
10110.89504604484
 22
2537.830077679741
 32
0.0
 13
10110.89504604484
 23
2537.830077679741
 33
0.0
  0
SOLID
  5
22BE
330
20F3
100
AcDbEntity
  8
图层2
 62
     6
100
AcDbTrace
 10
10106.72837937817
 20
2147.530077679742
 30
0.0
 11
10115.0617127115
 21
2147.530077679742
 31
0.0
 12
10110.89504604484
 22
2122.530077679742
 32
0.0
 13
10110.89504604484
 23
2122.530077679742
 33
0.0
  0
MTEXT
  5
22BF
330
20F3
100
AcDbEntity
  8
图层2
 62
     6
100
AcDbMText
 10
10092.32186652068
 20
2330.180077679743
 30
0.0
 40
25.0
 41
0.0
 71
     5
 72
     1
  1
415,3
 11
0.0000000000000001
 21
1.0
 31
0.0
 73
     1
 44
1.0
1001
ACAD
1000
MTEXTBEGIN
1070
    73
1070
     1
1070
    44
1040
1.0
1070
    74
1070
     0
1000
MTEXTEND
  0
POINT
  5
22C0
330
20F3
100
AcDbEntity
  8
Defpoints
 62
     0
100
AcDbPoint
 10
9887.343843723421
 20
2537.830077679741
 30
0.0
  0
POINT
  5
22C1
330
20F3
100
AcDbEntity
  8
Defpoints
 62
     0
100
AcDbPoint
 10
9887.343843723421
 20
2122.530077679742
 30
0.0
  0
POINT
  5
22C2
330
20F3
100
AcDbEntity
  8
Defpoints
 62
     0
100
AcDbPoint
 10
10110.89504604484
 20
2122.530077679742
 30
0.0
  0
ENDBLK
  5
20FE
330
20F3
100
AcDbEntity
  8
0
100
AcDbBlockEnd
  0
BLOCK
  5
235C
330
2350
100
AcDbEntity
  8
0
100
AcDbBlockBegin
  2
*D86
 70
     1
 10
0.0
 20
0.0
 30
0.0
  3
*D86
  1

  0
LINE
  5
2351
330
2350
100
AcDbEntity
  8
图层2
 62
     6
370
     9
100
AcDbLine
 10
9291.657566144854
 20
2593.830077679742
 30
0.0
 11
9259.32176113223
 21
2593.830077679742
 31
0.0
  0
LINE
  5
2352
330
2350
100
AcDbEntity
  8
图层2
 62
     6
370
     9
100
AcDbLine
 10
9282.259731523973
 20
2600.180077679743
 30
0.0
 11
9259.32176113223
 21
2600.180077679743
 31
0.0
  0
LINE
  5
2353
330
2350
100
AcDbEntity
  8
图层2
 62
     6
370
     9
100
AcDbLine
 10
9260.571761132231
 20
2568.830077679742
 30
0.0
 11
9260.571761132231
 21
2543.830077679742
 31
0.0
  0
LINE
  5
2354
330
2350
100
AcDbEntity
  8
图层2
 62
     6
370
     9
100
AcDbLine
 10
9260.571761132231
 20
2625.180077679742
 30
0.0
 11
9260.571761132231
 21
2716.760467009231
 31
0.0
  0
LINE
  5
2355
330
2350
100
AcDbEntity
  8
图层2
 62
     6
370
     9
100
AcDbLine
 10
9260.571761132231
 20
2593.830077679742
 30
0.0
 11
9260.571761132231
 21
2600.180077679743
 31
0.0
  0
SOLID
  5
2356
330
2350
100
AcDbEntity
  8
图层2
 62
     6
100
AcDbTrace
 10
9256.405094465566
 20
2568.830077679742
 30
0.0
 11
9264.738427798901
 21
2568.830077679742
 31
0.0
 12
9260.571761132231
 22
2593.830077679742
 32
0.0
 13
9260.571761132231
 23
2593.830077679742
 33
0.0
  0
SOLID
  5
2357
330
2350
100
AcDbEntity
  8
图层2
 62
     6
100
AcDbTrace
 10
9256.405094465566
 20
2625.180077679742
 30
0.0
 11
9264.738427798901
 21
2625.180077679742
 31
0.0
 12
9260.571761132231
 22
2600.180077679743
 32
0.0
 13
9260.571761132231
 23
2600.180077679743
 33
0.0
  0
MTEXT
  5
2358
330
2350
100
AcDbEntity
  8
图层2
 62
     6
100
AcDbMText
 10
9241.998581608081
 20
2683.470272344488
 30
0.0
 40
25.0
 41
0.0
 71
     5
 72
     1
  1
6,35
 11
0.0000000000000001
 21
1.0
 31
0.0
 73
     1
 44
1.0
1001
ACAD
1000
MTEXTBEGIN
1070
    73
1070
     1
1070
    44
1040
1.0
1070
    74
1070
     0
1000
MTEXTEND
  0
POINT
  5
2359
330
2350
100
AcDbEntity
  8
Defpoints
 62
     0
100
AcDbPoint
 10
9291.657566144854
 20
2593.830077679742
 30
0.0
  0
POINT
  5
235A
330
2350
100
AcDbEntity
  8
Defpoints
 62
     0
100
AcDbPoint
 10
9282.259731523973
 20
2600.180077679743
 30
0.0
  0
POINT
  5
235B
330
2350
100
AcDbEntity
  8
Defpoints
 62
     0
100
AcDbPoint
 10
9260.571761132231
 20
2600.180077679743
 30
0.0
  0
ENDBLK
  5
235D
330
2350
100
AcDbEntity
  8
0
100
AcDbBlockEnd
  0
BLOCK
  5
236B
330
235F
100
AcDbEntity
  8
0
100
AcDbBlockBegin
  2
*D87
 70
     1
 10
0.0
 20
0.0
 30
0.0
  3
*D87
  1

  0
LINE
  5
2360
330
235F
100
AcDbEntity
  8
图层2
 62
     6
370
     9
100
AcDbLine
 10
10049.99384372342
 20
2084.554414441473
 30
0.0
 11
10049.99384372342
 21
2045.255054300799
 31
0.0
  0
LINE
  5
2361
330
235F
100
AcDbEntity
  8
图层2
 62
     6
370
     9
100
AcDbLine
 10
10056.34384372342
 20
2084.554414441473
 30
0.0
 11
10056.34384372342
 21
2045.255054300799
 31
0.0
  0
LINE
  5
2362
330
235F
100
AcDbEntity
  8
图层2
 62
     6
370
     9
100
AcDbLine
 10
10024.99384372342
 20
2046.5050543008
 30
0.0
 11
9999.993843723423
 21
2046.5050543008
 31
0.0
  0
LINE
  5
2363
330
235F
100
AcDbEntity
  8
图层2
 62
     6
370
     9
100
AcDbLine
 10
10081.34384372342
 20
2046.5050543008
 30
0.0
 11
10172.92423305291
 21
2046.5050543008
 31
0.0
  0
LINE
  5
2364
330
235F
100
AcDbEntity
  8
图层2
 62
     6
370
     9
100
AcDbLine
 10
10049.99384372342
 20
2046.5050543008
 30
0.0
 11
10056.34384372342
 21
2046.5050543008
 31
0.0
  0
SOLID
  5
2365
330
235F
100
AcDbEntity
  8
图层2
 62
     6
100
AcDbTrace
 10
10024.99384372342
 20
2050.671720967466
 30
0.0
 11
10024.99384372342
 21
2042.338387634133
 31
0.0
 12
10049.99384372342
 22
2046.5050543008
 32
0.0
 13
10049.99384372342
 23
2046.5050543008
 33
0.0
  0
SOLID
  5
2366
330
235F
100
AcDbEntity
  8
图层2
 62
     6
100
AcDbTrace
 10
10081.34384372342
 20
2050.671720967466
 30
0.0
 11
10081.34384372342
 21
2042.338387634133
 31
0.0
 12
10056.34384372342
 22
2046.5050543008
 32
0.0
 13
10056.34384372342
 23
2046.5050543008
 33
0.0
  0
MTEXT
  5
2367
330
235F
100
AcDbEntity
  8
图层2
 62
     6
100
AcDbMText
 10
10139.63403838817
 20
2065.078233824952
 30
0.0
 40
25.0
 41
0.0
 71
     5
 72
     1
  1
6,35
 73
     1
 44
1.0
1001
ACAD
1000
MTEXTBEGIN
1070
    73
1070
     1
1070
    44
1040
1.0
1070
    74
1070
     0
1000
MTEXTEND
  0
POINT
  5
2368
330
235F
100
AcDbEntity
  8
Defpoints
 62
     0
100
AcDbPoint
 10
10049.99384372342
 20
2084.554414441473
 30
0.0
  0
POINT
  5
2369
330
235F
100
AcDbEntity
  8
Defpoints
 62
     0
100
AcDbPoint
 10
10056.34384372342
 20
2084.554414441473
 30
0.0
  0
POINT
  5
236A
330
235F
100
AcDbEntity
  8
Defpoints
 62
     0
100
AcDbPoint
 10
10056.34384372342
 20
2046.5050543008
 30
0.0
  0
ENDBLK
  5
236C
330
235F
100
AcDbEntity
  8
0
100
AcDbBlockEnd
  0
BLOCK
  5
237A
330
236E
100
AcDbEntity
  8
0
100
AcDbBlockBegin
  2
*D88
 70
     1
 10
0.0
 20
0.0
 30
0.0
  3
*D88
  1

  0
LINE
  5
236F
330
236E
100
AcDbEntity
  8
图层2
 62
     6
370
     9
100
AcDbLine
 10
10065.18254118853
 20
2537.830077679741
 30
0.0
 11
10112.14504604484
 21
2537.830077679741
 31
0.0
  0
LINE
  5
2370
330
236E
100
AcDbEntity
  8
图层2
 62
     6
370
     9
100
AcDbLine
 10
10065.18254118853
 20
2544.180077679741
 30
0.0
 11
10112.14504604484
 21
2544.180077679741
 31
0.0
  0
LINE
  5
2371
330
236E
100
AcDbEntity
  8
图层2
 62
     6
370
     9
100
AcDbLine
 10
10110.89504604484
 20
2512.830077679741
 30
0.0
 11
10110.89504604484
 21
2487.830077679741
 31
0.0
  0
LINE
  5
2372
330
236E
100
AcDbEntity
  8
图层2
 62
     6
370
     9
100
AcDbLine
 10
10110.89504604484
 20
2569.180077679741
 30
0.0
 11
10110.89504604484
 21
2660.760467009229
 31
0.0
  0
LINE
  5
2373
330
236E
100
AcDbEntity
  8
图层2
 62
     6
370
     9
100
AcDbLine
 10
10110.89504604484
 20
2537.830077679741
 30
0.0
 11
10110.89504604484
 21
2544.180077679741
 31
0.0
  0
SOLID
  5
2374
330
236E
100
AcDbEntity
  8
图层2
 62
     6
100
AcDbTrace
 10
10106.72837937817
 20
2512.830077679741
 30
0.0
 11
10115.0617127115
 21
2512.830077679741
 31
0.0
 12
10110.89504604484
 22
2537.830077679741
 32
0.0
 13
10110.89504604484
 23
2537.830077679741
 33
0.0
  0
SOLID
  5
2375
330
236E
100
AcDbEntity
  8
图层2
 62
     6
100
AcDbTrace
 10
10106.72837937817
 20
2569.180077679741
 30
0.0
 11
10115.0617127115
 21
2569.180077679741
 31
0.0
 12
10110.89504604484
 22
2544.180077679741
 32
0.0
 13
10110.89504604484
 23
2544.180077679741
 33
0.0
  0
MTEXT
  5
2376
330
236E
100
AcDbEntity
  8
图层2
 62
     6
100
AcDbMText
 10
10092.32186652068
 20
2627.470272344487
 30
0.0
 40
25.0
 41
0.0
 71
     5
 72
     1
  1
6,35
 11
0.0000000000000001
 21
1.0
 31
0.0
 73
     1
 44
1.0
1001
ACAD
1000
MTEXTBEGIN
1070
    73
1070
     1
1070
    44
1040
1.0
1070
    74
1070
     0
1000
MTEXTEND
  0
POINT
  5
2377
330
236E
100
AcDbEntity
  8
Defpoints
 62
     0
100
AcDbPoint
 10
10065.18254118853
 20
2537.830077679741
 30
0.0
  0
POINT
  5
2378
330
236E
100
AcDbEntity
  8
Defpoints
 62
     0
100
AcDbPoint
 10
10065.18254118853
 20
2544.180077679741
 30
0.0
  0
POINT
  5
2379
330
236E
100
AcDbEntity
  8
Defpoints
 62
     0
100
AcDbPoint
 10
10110.89504604484
 20
2544.180077679741
 30
0.0
  0
ENDBLK
  5
237B
330
236E
100
AcDbEntity
  8
0
100
AcDbBlockEnd
  0
BLOCK
  5
24DA
330
24D0
100
AcDbEntity
  8
0
100
AcDbBlockBegin
  2
*D89
 70
     1
 10
0.0
 20
0.0
 30
0.0
  3
*D89
  1

  0
LINE
  5
24DD
330
24D0
100
AcDbEntity
  8
图层2
 62
     6
370
     9
100
AcDbLine
 10
9291.343843723423
 20
2358.180077679744
 30
0.0
 11
9291.343843723423
 21
2050.387862777655
 31
0.0
  0
LINE
  5
24DE
330
24D0
100
AcDbEntity
  8
图层2
 62
     6
370
     9
100
AcDbLine
 10
10049.34384372342
 20
2330.18007767974
 30
0.0
 11
10049.34384372342
 21
2050.387862777655
 31
0.0
  0
LINE
  5
24DF
330
24D0
100
AcDbEntity
  8
图层2
 62
     6
370
     9
100
AcDbLine
 10
9316.343843723421
 20
2051.637862777655
 30
0.0
 11
10024.34384372342
 21
2051.637862777655
 31
0.0
  0
SOLID
  5
24E0
330
24D0
100
AcDbEntity
  8
图层2
 62
     6
100
AcDbTrace
 10
9316.343843723421
 20
2055.804529444321
 30
0.0
 11
9316.343843723421
 21
2047.471196110988
 31
0.0
 12
9291.343843723423
 22
2051.637862777655
 32
0.0
 13
9291.343843723423
 23
2051.637862777655
 33
0.0
  0
SOLID
  5
24E1
330
24D0
100
AcDbEntity
  8
图层2
 62
     6
100
AcDbTrace
 10
10024.34384372342
 20
2055.804529444321
 30
0.0
 11
10024.34384372342
 21
2047.471196110988
 31
0.0
 12
10049.34384372342
 22
2051.637862777655
 32
0.0
 13
10049.34384372342
 23
2051.637862777655
 33
0.0
  0
MTEXT
  5
24E2
330
24D0
100
AcDbEntity
  8
图层2
 62
     6
100
AcDbMText
 10
9670.343843723422
 20
2067.39020596439
 30
0.0
 40
25.0
 41
0.0
 71
     5
 72
     1
  1
758
 73
     1
 44
1.0
1001
ACAD
1000
MTEXTBEGIN
1070
    73
1070
     1
1070
    44
1040
1.0
1070
    74
1070
     0
1000
MTEXTEND
  0
POINT
  5
24E3
330
24D0
100
AcDbEntity
  8
Defpoints
 62
     0
100
AcDbPoint
 10
9291.343843723423
 20
2358.180077679744
 30
0.0
  0
POINT
  5
24E4
330
24D0
100
AcDbEntity
  8
Defpoints
 62
     0
100
AcDbPoint
 10
10049.34384372342
 20
2330.18007767974
 30
0.0
  0
POINT
  5
24E5
330
24D0
100
AcDbEntity
  8
Defpoints
 62
     0
100
AcDbPoint
 10
10049.34384372342
 20
2051.637862777655
 30
0.0
  0
ENDBLK
  5
24DB
330
24D0
100
AcDbEntity
  8
0
100
AcDbBlockEnd
  0
BLOCK
  5
24F2
330
24E8
100
AcDbEntity
  8
0
100
AcDbBlockBegin
  2
*D90
 70
     1
 10
0.0
 20
0.0
 30
0.0
  3
*D90
  1

  0
LINE
  5
24F5
330
24E8
100
AcDbEntity
  8
图层2
 62
     6
370
     9
100
AcDbLine
 10
9488.343843723422
 20
2593.180077679742
 30
0.0
 11
9255.66080540902
 21
2593.180077679742
 31
0.0
  0
LINE
  5
24F6
330
24E8
100
AcDbEntity
  8
图层2
 62
     6
370
     9
100
AcDbLine
 10
9488.343843723422
 20
2123.180077679743
 30
0.0
 11
9255.66080540902
 21
2123.180077679743
 31
0.0
  0
LINE
  5
24F7
330
24E8
100
AcDbEntity
  8
图层2
 62
     6
370
     9
100
AcDbLine
 10
9256.910805409019
 20
2568.180077679742
 30
0.0
 11
9256.910805409019
 21
2148.180077679743
 31
0.0
  0
SOLID
  5
24F8
330
24E8
100
AcDbEntity
  8
图层2
 62
     6
100
AcDbTrace
 10
9252.744138742356
 20
2568.180077679742
 30
0.0
 11
9261.077472075688
 21
2568.180077679742
 31
0.0
 12
9256.910805409019
 22
2593.180077679742
 32
0.0
 13
9256.910805409019
 23
2593.180077679742
 33
0.0
  0
SOLID
  5
24F9
330
24E8
100
AcDbEntity
  8
图层2
 62
     6
100
AcDbTrace
 10
9252.744138742356
 20
2148.180077679743
 30
0.0
 11
9261.077472075688
 21
2148.180077679743
 31
0.0
 12
9256.910805409019
 22
2123.180077679743
 32
0.0
 13
9256.910805409019
 23
2123.180077679743
 33
0.0
  0
MTEXT
  5
24FA
330
24E8
100
AcDbEntity
  8
图层2
 62
     6
100
AcDbMText
 10
9241.158462222287
 20
2358.180077679744
 30
0.0
 40
25.0
 41
0.0
 71
     5
 72
     1
  1
470
 11
0.0000000000000001
 21
1.0
 31
0.0
 73
     1
 44
1.0
1001
ACAD
1000
MTEXTBEGIN
1070
    73
1070
     1
1070
    44
1040
1.0
1070
    74
1070
     0
1000
MTEXTEND
  0
POINT
  5
24FB
330
24E8
100
AcDbEntity
  8
Defpoints
 62
     0
100
AcDbPoint
 10
9488.343843723422
 20
2593.180077679742
 30
0.0
  0
POINT
  5
24FC
330
24E8
100
AcDbEntity
  8
Defpoints
 62
     0
100
AcDbPoint
 10
9488.343843723422
 20
2123.180077679743
 30
0.0
  0
POINT
  5
24FD
330
24E8
100
AcDbEntity
  8
Defpoints
 62
     0
100
AcDbPoint
 10
9256.910805409019
 20
2123.180077679743
 30
0.0
  0
ENDBLK
  5
24F3
330
24E8
100
AcDbEntity
  8
0
100
AcDbBlockEnd
  0
BLOCK
  5
250A
330
2500
100
AcDbEntity
  8
0
100
AcDbBlockBegin
  2
*D91
 70
     1
 10
0.0
 20
0.0
 30
0.0
  3
*D91
  1

  0
LINE
  5
250D
330
2500
100
AcDbEntity
  8
图层2
 62
     6
370
     9
100
AcDbLine
 10
9887.343843723421
 20
2537.180077679741
 30
0.0
 11
10109.45586071534
 21
2537.180077679741
 31
0.0
  0
LINE
  5
250E
330
2500
100
AcDbEntity
  8
图层2
 62
     6
370
     9
100
AcDbLine
 10
9887.343843723421
 20
2123.180077679743
 30
0.0
 11
10109.45586071534
 21
2123.180077679743
 31
0.0
  0
LINE
  5
250F
330
2500
100
AcDbEntity
  8
图层2
 62
     6
370
     9
100
AcDbLine
 10
10108.20586071534
 20
2512.180077679741
 30
0.0
 11
10108.20586071534
 21
2148.180077679743
 31
0.0
  0
SOLID
  5
2510
330
2500
100
AcDbEntity
  8
图层2
 62
     6
100
AcDbTrace
 10
10104.03919404867
 20
2512.180077679741
 30
0.0
 11
10112.372527382
 21
2512.180077679741
 31
0.0
 12
10108.20586071534
 22
2537.180077679741
 32
0.0
 13
10108.20586071534
 23
2537.180077679741
 33
0.0
  0
SOLID
  5
2511
330
2500
100
AcDbEntity
  8
图层2
 62
     6
100
AcDbTrace
 10
10104.03919404867
 20
2148.180077679743
 30
0.0
 11
10112.372527382
 21
2148.180077679743
 31
0.0
 12
10108.20586071534
 22
2123.180077679743
 32
0.0
 13
10108.20586071534
 23
2123.180077679743
 33
0.0
  0
MTEXT
  5
2512
330
2500
100
AcDbEntity
  8
图层2
 62
     6
100
AcDbMText
 10
10092.70586071534
 20
2330.180077679743
 30
0.0
 40
25.0
 41
0.0
 71
     5
 72
     1
  1
414
 11
0.0000000000000001
 21
1.0
 31
0.0
 73
     1
 44
1.0
1001
ACAD
1000
MTEXTBEGIN
1070
    73
1070
     1
1070
    44
1040
1.0
1070
    74
1070
     0
1000
MTEXTEND
  0
POINT
  5
2513
330
2500
100
AcDbEntity
  8
Defpoints
 62
     0
100
AcDbPoint
 10
9887.343843723421
 20
2537.180077679741
 30
0.0
  0
POINT
  5
2514
330
2500
100
AcDbEntity
  8
Defpoints
 62
     0
100
AcDbPoint
 10
9887.343843723421
 20
2123.180077679743
 30
0.0
  0
POINT
  5
2515
330
2500
100
AcDbEntity
  8
Defpoints
 62
     0
100
AcDbPoint
 10
10108.20586071534
 20
2123.180077679743
 30
0.0
  0
ENDBLK
  5
250B
330
2500
100
AcDbEntity
  8
0
100
AcDbBlockEnd
  0
BLOCK
  5
2524
330
2518
100
AcDbEntity
  8
0
100
AcDbBlockBegin
  2
*D92
 70
     1
 10
0.0
 20
0.0
 30
0.0
  3
*D92
  1

  0
LINE
  5
2519
330
2518
100
AcDbEntity
  8
图层2
 62
     6
370
     9
100
AcDbLine
 10
9284.832013941935
 20
2593.180077679742
 30
0.0
 11
9255.66080540902
 21
2593.180077679742
 31
0.0
  0
LINE
  5
251A
330
2518
100
AcDbEntity
  8
图层2
 62
     6
370
     9
100
AcDbLine
 10
9284.832013941935
 20
2600.180077679743
 30
0.0
 11
9255.66080540902
 21
2600.180077679743
 31
0.0
  0
LINE
  5
251B
330
2518
100
AcDbEntity
  8
图层2
 62
     6
370
     9
100
AcDbLine
 10
9256.910805409019
 20
2568.180077679742
 30
0.0
 11
9256.910805409019
 21
2543.180077679743
 31
0.0
  0
LINE
  5
251C
330
2518
100
AcDbEntity
  8
图层2
 62
     6
370
     9
100
AcDbLine
 10
9256.910805409019
 20
2625.180077679742
 30
0.0
 11
9256.910805409019
 21
2671.627085610528
 31
0.0
  0
LINE
  5
251D
330
2518
100
AcDbEntity
  8
图层2
 62
     6
370
     9
100
AcDbLine
 10
9256.910805409019
 20
2593.180077679742
 30
0.0
 11
9256.910805409019
 21
2600.180077679743
 31
0.0
  0
SOLID
  5
251E
330
2518
100
AcDbEntity
  8
图层2
 62
     6
100
AcDbTrace
 10
9252.744138742356
 20
2568.180077679742
 30
0.0
 11
9261.077472075688
 21
2568.180077679742
 31
0.0
 12
9256.910805409019
 22
2593.180077679742
 32
0.0
 13
9256.910805409019
 23
2593.180077679742
 33
0.0
  0
SOLID
  5
251F
330
2518
100
AcDbEntity
  8
图层2
 62
     6
100
AcDbTrace
 10
9252.744138742356
 20
2625.180077679742
 30
0.0
 11
9261.077472075688
 21
2625.180077679742
 31
0.0
 12
9256.910805409019
 22
2600.180077679743
 32
0.0
 13
9256.910805409019
 23
2600.180077679743
 33
0.0
  0
MTEXT
  5
2520
330
2518
100
AcDbEntity
  8
图层2
 62
     6
100
AcDbMText
 10
9241.158462222287
 20
2660.903581645137
 30
0.0
 40
25.0
 41
0.0
 71
     5
 72
     1
  1
7
 11
0.0000000000000001
 21
1.0
 31
0.0
 73
     1
 44
1.0
1001
ACAD
1000
MTEXTBEGIN
1070
    73
1070
     1
1070
    44
1040
1.0
1070
    74
1070
     0
1000
MTEXTEND
  0
POINT
  5
2521
330
2518
100
AcDbEntity
  8
Defpoints
 62
     0
100
AcDbPoint
 10
9284.832013941935
 20
2593.180077679742
 30
0.0
  0
POINT
  5
2522
330
2518
100
AcDbEntity
  8
Defpoints
 62
     0
100
AcDbPoint
 10
9284.832013941935
 20
2600.180077679743
 30
0.0
  0
POINT
  5
2523
330
2518
100
AcDbEntity
  8
Defpoints
 62
     0
100
AcDbPoint
 10
9256.910805409019
 20
2600.180077679743
 30
0.0
  0
ENDBLK
  5
2525
330
2518
100
AcDbEntity
  8
0
100
AcDbBlockEnd
  0
BLOCK
  5
2533
330
2527
100
AcDbEntity
  8
0
100
AcDbBlockBegin
  2
*D93
 70
     1
 10
0.0
 20
0.0
 30
0.0
  3
*D93
  1

  0
LINE
  5
2528
330
2527
100
AcDbEntity
  8
图层2
 62
     6
370
     9
100
AcDbLine
 10
10049.34384372342
 20
2077.408101729858
 30
0.0
 11
10049.34384372342
 21
2050.387862777655
 31
0.0
  0
LINE
  5
2529
330
2527
100
AcDbEntity
  8
图层2
 62
     6
370
     9
100
AcDbLine
 10
10056.34384372342
 20
2077.408101729858
 30
0.0
 11
10056.34384372342
 21
2050.387862777655
 31
0.0
  0
LINE
  5
252A
330
2527
100
AcDbEntity
  8
图层2
 62
     6
370
     9
100
AcDbLine
 10
10024.34384372342
 20
2051.637862777655
 30
0.0
 11
9999.343843723423
 21
2051.637862777655
 31
0.0
  0
LINE
  5
252B
330
2527
100
AcDbEntity
  8
图层2
 62
     6
370
     9
100
AcDbLine
 10
10081.34384372342
 20
2051.637862777655
 30
0.0
 11
10127.79085165421
 21
2051.637862777655
 31
0.0
  0
LINE
  5
252C
330
2527
100
AcDbEntity
  8
图层2
 62
     6
370
     9
100
AcDbLine
 10
10049.34384372342
 20
2051.637862777655
 30
0.0
 11
10056.34384372342
 21
2051.637862777655
 31
0.0
  0
SOLID
  5
252D
330
2527
100
AcDbEntity
  8
图层2
 62
     6
100
AcDbTrace
 10
10024.34384372342
 20
2055.804529444321
 30
0.0
 11
10024.34384372342
 21
2047.471196110988
 31
0.0
 12
10049.34384372342
 22
2051.637862777655
 32
0.0
 13
10049.34384372342
 23
2051.637862777655
 33
0.0
  0
SOLID
  5
252E
330
2527
100
AcDbEntity
  8
图层2
 62
     6
100
AcDbTrace
 10
10081.34384372342
 20
2055.804529444321
 30
0.0
 11
10081.34384372342
 21
2047.471196110988
 31
0.0
 12
10056.34384372342
 22
2051.637862777655
 32
0.0
 13
10056.34384372342
 23
2051.637862777655
 33
0.0
  0
MTEXT
  5
252F
330
2527
100
AcDbEntity
  8
图层2
 62
     6
100
AcDbMText
 10
10117.06734768882
 20
2067.39020596439
 30
0.0
 40
25.0
 41
0.0
 71
     5
 72
     1
  1
7
 73
     1
 44
1.0
1001
ACAD
1000
MTEXTBEGIN
1070
    73
1070
     1
1070
    44
1040
1.0
1070
    74
1070
     0
1000
MTEXTEND
  0
POINT
  5
2530
330
2527
100
AcDbEntity
  8
Defpoints
 62
     0
100
AcDbPoint
 10
10049.34384372342
 20
2077.408101729858
 30
0.0
  0
POINT
  5
2531
330
2527
100
AcDbEntity
  8
Defpoints
 62
     0
100
AcDbPoint
 10
10056.34384372342
 20
2077.408101729858
 30
0.0
  0
POINT
  5
2532
330
2527
100
AcDbEntity
  8
Defpoints
 62
     0
100
AcDbPoint
 10
10056.34384372342
 20
2051.637862777655
 30
0.0
  0
ENDBLK
  5
2534
330
2527
100
AcDbEntity
  8
0
100
AcDbBlockEnd
  0
BLOCK
  5
2542
330
2536
100
AcDbEntity
  8
0
100
AcDbBlockBegin
  2
*D94
 70
     1
 10
0.0
 20
0.0
 30
0.0
  3
*D94
  1

  0
LINE
  5
2537
330
2536
100
AcDbEntity
  8
图层2
 62
     6
370
     9
100
AcDbLine
 10
10090.78846245665
 20
2537.180077679741
 30
0.0
 11
10109.45586071534
 21
2537.180077679741
 31
0.0
  0
LINE
  5
2538
330
2536
100
AcDbEntity
  8
图层2
 62
     6
370
     9
100
AcDbLine
 10
10090.78846245665
 20
2544.180077679741
 30
0.0
 11
10109.45586071534
 21
2544.180077679741
 31
0.0
  0
LINE
  5
2539
330
2536
100
AcDbEntity
  8
图层2
 62
     6
370
     9
100
AcDbLine
 10
10108.20586071534
 20
2512.180077679741
 30
0.0
 11
10108.20586071534
 21
2487.180077679741
 31
0.0
  0
LINE
  5
253A
330
2536
100
AcDbEntity
  8
图层2
 62
     6
370
     9
100
AcDbLine
 10
10108.20586071534
 20
2569.180077679741
 30
0.0
 11
10108.20586071534
 21
2615.627085610527
 31
0.0
  0
LINE
  5
253B
330
2536
100
AcDbEntity
  8
图层2
 62
     6
370
     9
100
AcDbLine
 10
10108.20586071534
 20
2537.180077679741
 30
0.0
 11
10108.20586071534
 21
2544.180077679741
 31
0.0
  0
SOLID
  5
253C
330
2536
100
AcDbEntity
  8
图层2
 62
     6
100
AcDbTrace
 10
10104.03919404867
 20
2512.180077679741
 30
0.0
 11
10112.372527382
 21
2512.180077679741
 31
0.0
 12
10108.20586071534
 22
2537.180077679741
 32
0.0
 13
10108.20586071534
 23
2537.180077679741
 33
0.0
  0
SOLID
  5
253D
330
2536
100
AcDbEntity
  8
图层2
 62
     6
100
AcDbTrace
 10
10104.03919404867
 20
2569.180077679741
 30
0.0
 11
10112.372527382
 21
2569.180077679741
 31
0.0
 12
10108.20586071534
 22
2544.180077679741
 32
0.0
 13
10108.20586071534
 23
2544.180077679741
 33
0.0
  0
MTEXT
  5
253E
330
2536
100
AcDbEntity
  8
图层2
 62
     6
100
AcDbMText
 10
10092.45351752861
 20
2604.903581645136
 30
0.0
 40
25.0
 41
0.0
 71
     5
 72
     1
  1
7
 11
0.0000000000000001
 21
1.0
 31
0.0
 73
     1
 44
1.0
1001
ACAD
1000
MTEXTBEGIN
1070
    73
1070
     1
1070
    44
1040
1.0
1070
    74
1070
     0
1000
MTEXTEND
  0
POINT
  5
253F
330
2536
100
AcDbEntity
  8
Defpoints
 62
     0
100
AcDbPoint
 10
10090.78846245665
 20
2537.180077679741
 30
0.0
  0
POINT
  5
2540
330
2536
100
AcDbEntity
  8
Defpoints
 62
     0
100
AcDbPoint
 10
10090.78846245665
 20
2544.180077679741
 30
0.0
  0
POINT
  5
2541
330
2536
100
AcDbEntity
  8
Defpoints
 62
     0
100
AcDbPoint
 10
10108.20586071534
 20
2544.180077679741
 30
0.0
  0
ENDBLK
  5
2543
330
2536
100
AcDbEntity
  8
0
100
AcDbBlockEnd
  0
ENDSEC
  0
SECTION
  2
ENTITIES
  0
LINE
  5
15A4
330
1F
100
AcDbEntity
  8
图层1
 48
150.0
100
AcDbLine
 10
5797.984674744062
 20
2090.762042616767
 30
0.0
 11
5398.984674744063
 21
2090.762042616767
 31
0.0
  0
ARC
  5
15AE
102
{ACAD_REACTORS
330
166C
102
}
330
1F
100
AcDbEntity
  8
图层1
 48
150.0
100
AcDbCircle
 10
6994.984674744063
 20
2332.762042616769
 30
0.0
 40
1800.0
100
AcDbArc
 50
175.2028061101978
 51
180.0
  0
ARC
  5
15AF
102
{ACAD_REACTORS
330
160C
102
}
330
1F
100
AcDbEntity
  8
图层1
 48
150.0
100
AcDbCircle
 10
6994.984674744063
 20
2332.762042616769
 30
0.0
 40
1800.0
100
AcDbArc
 50
180.0
 51
184.7971938898021
  0
ARC
  5
15B7
330
1F
100
AcDbEntity
  8
图层1
 48
150.0
100
AcDbCircle
 10
5398.984674744063
 20
1274.762042616767
 30
0.0
 40
1300.0
100
AcDbArc
 50
90.0
 51
94.90476838262301
  0
ARC
  5
15B8
102
{ACAD_REACTORS
330
1624
330
167C
102
}
330
1F
100
AcDbEntity
  8
图层1
 48
150.0
100
AcDbCircle
 10
5398.984674744063
 20
1274.762042616767
 30
0.0
 40
1300.0
100
AcDbArc
 50
85.09523161737694
 51
90.0
  0
ARC
  5
15BB
102
{ACAD_REACTORS
330
1624
330
168C
102
}
330
1F
100
AcDbEntity
  8
图层1
 48
150.0
100
AcDbCircle
 10
5398.984674744063
 20
3390.762042616767
 30
0.0
 40
1300.0
100
AcDbArc
 50
265.095231617377
 51
270.0
  0
LINE
  5
15D0
330
1F
100
AcDbEntity
  8
图层1
 48
150.0
100
AcDbLine
 10
5797.984674744062
 20
2518.762042616767
 30
0.0
 11
5597.948716022585
 21
2518.762042616767
 31
0.0
  0
ARC
  5
15D8
330
1F
100
AcDbEntity
  8
图层1
 48
150.0
100
AcDbCircle
 10
4666.984674744063
 20
2304.762042616761
 30
0.0
 40
1300.0
100
AcDbArc
 50
354.1053936889303
 51
0.0
  0
ARC
  5
15D9
102
{ACAD_REACTORS
330
160C
330
16BC
102
}
330
1F
100
AcDbEntity
  8
图层1
 48
150.0
100
AcDbCircle
 10
4666.984674744063
 20
2304.762042616765
 30
0.0
 40
1300.0
100
AcDbArc
 50
0.0
 51
5.894606311069987
  0
ARC
  5
15E0
102
{ACAD_REACTORS
330
163C
330
16DC
102
}
330
1F
100
AcDbEntity
  8
图层1
 48
150.0
100
AcDbCircle
 10
5797.984674744062
 20
2890.762042616767
 30
0.0
 40
800.0
100
AcDbArc
 50
270.0
 51
276.2287072133255
  0
ARC
  5
15E5
102
{ACAD_REACTORS
330
163C
330
16EC
102
}
330
1F
100
AcDbEntity
  8
图层1
 48
150.0
100
AcDbCircle
 10
5797.984674744062
 20
1718.762042616766
 30
0.0
 40
800.0
100
AcDbArc
 50
83.77129278667458
 51
90.00000000000005
  0
ARC
  5
15E6
102
{ACAD_REACTORS
330
164C
102
}
330
1F
100
AcDbEntity
  8
图层1
 48
150.0
100
AcDbCircle
 10
5295.957364339674
 20
2190.17453089143
 30
0.0
 40
95.0
100
AcDbArc
 50
184.7971938898023
 51
265.0952316173772
  0
ARC
  5
15E7
102
{ACAD_REACTORS
330
165C
102
}
330
1F
100
AcDbEntity
  8
图层1
 48
150.0
100
AcDbCircle
 10
5295.957364339674
 20
2475.349554342104
 30
0.0
 40
95.0
100
AcDbArc
 50
94.90476838262273
 51
175.2028061101977
  0
ARC
  5
15E8
102
{ACAD_REACTORS
330
169C
102
}
330
1F
100
AcDbEntity
  8
图层1
 48
150.0
100
AcDbCircle
 10
5502.011985148454
 20
2475.349554342104
 30
0.0
 40
95.0
100
AcDbArc
 50
33.46400075787741
 51
85.09523161737673
  0
ARC
  5
15EC
102
{ACAD_REACTORS
330
16CC
102
}
330
1F
100
AcDbEntity
  8
图层1
 48
150.0
100
AcDbCircle
 10
5875.560349311054
 20
2179.982882317679
 30
0.0
 40
85.0
100
AcDbArc
 50
276.2287072133254
 51
354.1053936889297
  0
ARC
  5
15EE
102
{ACAD_REACTORS
330
16AC
102
}
330
1F
100
AcDbEntity
  8
图层1
 48
150.0
100
AcDbCircle
 10
5875.560349311054
 20
2429.541202915854
 30
0.0
 40
85.0
100
AcDbArc
 50
5.89460631106997
 51
83.77129278667464
  0
DIMENSION
  5
15F5
102
{ACAD_XDICTIONARY
360
1602
102
}
102
{ACAD_REACTORS
330
160C
102
}
330
1F
100
AcDbEntity
  8
图层2
100
AcDbDimension
  2
*D1
 10
5966.984674744065
 20
2005.92374718543
 30
0.0
 11
5580.984674744065
 21
2021.676090372164
 31
0.0
 70
    32
 71
     5
 42
772.0000000000017
  3
ISO-25
100
AcDbAlignedDimension
 13
5194.984674744063
 23
2332.762042616769
 33
0.0
 14
5966.984674744065
 24
2304.762042616765
 34
0.0
100
AcDbRotatedDimension
  0
DIMENSION
  5
160D
102
{ACAD_XDICTIONARY
360
161A
102
}
102
{ACAD_REACTORS
330
1624
102
}
330
1F
100
AcDbEntity
  8
图层2
100
AcDbDimension
  2
*D2
 10
5121.967604072313
 20
2090.762042616767
 30
0.0
 11
5106.251309912256
 21
2332.762042616768
 31
0.0
 70
    32
 71
     5
 42
484.0
  3
ISO-25
100
AcDbAlignedDimension
 13
5398.984674744063
 23
2574.762042616767
 33
0.0
 14
5398.984674744063
 24
2090.762042616767
 34
0.0
 50
90.0
100
AcDbRotatedDimension
  0
DIMENSION
  5
1625
102
{ACAD_XDICTIONARY
360
1632
102
}
102
{ACAD_REACTORS
330
163C
102
}
330
1F
100
AcDbEntity
  8
图层2
100
AcDbDimension
  2
*D3
 10
6048.190979341183
 20
2090.762042616767
 30
0.0
 11
6032.474685181125
 21
2304.762042616768
 31
0.0
 70
    32
 71
     5
 42
428.0
  3
ISO-25
100
AcDbAlignedDimension
 13
5797.984674744062
 23
2518.762042616767
 33
0.0
 14
5797.984674744062
 24
2090.762042616767
 34
0.0
 50
90.0
100
AcDbRotatedDimension
  0
DIMENSION
  5
163D
102
{ACAD_XDICTIONARY
360
1646
102
}
102
{ACAD_REACTORS
330
164C
102
}
330
1F
100
AcDbEntity
  8
图层2
100
AcDbDimension
  2
*D4
 10
5295.95736433967
 20
2190.17453089143
 30
0.0
 11
5285.886441924899
 21
2182.332188875404
 31
0.0
 70
   164
 71
     5
 42
94.99999999999728
  3
ISO-25
100
AcDbRadialDimension
 15
5221.002829094384
 25
2131.806580386358
 35
0.0
 40
0.0
1001
ACAD
1000
DSTYLE
1002
{
1070
   288
1070
     1
1002
}
  0
DIMENSION
  5
164D
102
{ACAD_XDICTIONARY
360
1656
102
}
102
{ACAD_REACTORS
330
165C
102
}
330
1F
100
AcDbEntity
  8
图层2
100
AcDbDimension
  2
*D5
 10
5295.95736433967
 20
2475.349554342106
 30
0.0
 11
5285.314580607439
 21
2482.396323886347
 31
0.0
 70
   164
 71
     5
 42
95.00000000000182
  3
ISO-25
100
AcDbRadialDimension
 15
5216.746654981463
 25
2527.796322812335
 35
0.0
 40
0.0
1001
ACAD
1000
DSTYLE
1002
{
1070
   288
1070
     1
1002
}
  0
DIMENSION
  5
165D
102
{ACAD_XDICTIONARY
360
1666
102
}
102
{ACAD_REACTORS
330
166C
102
}
330
1F
100
AcDbEntity
  8
图层2
100
AcDbDimension
  2
*D6
 10
6994.98467474407
 20
2332.762042616769
 30
0.0
 11
5296.727743865799
 21
2373.620919020569
 31
0.0
 70
   164
 71
     5
 42
1800.000000000001
  3
ISO-25
100
AcDbRadialDimension
 15
5195.505413694886
 25
2376.056257633095
 35
0.0
 40
0.0
1001
ACAD
1000
DSTYLE
1002
{
1070
   288
1070
     1
1002
}
  0
DIMENSION
  5
166D
102
{ACAD_XDICTIONARY
360
1676
102
}
102
{ACAD_REACTORS
330
167C
102
}
330
1F
100
AcDbEntity
  8
图层2
100
AcDbDimension
  2
*D7
 10
5398.98467474407
 20
1274.762042616768
 30
0.0
 11
5420.250199140053
 21
2473.321782778028
 31
0.0
 70
   164
 71
     5
 42
1299.999999999996
  3
ISO-25
100
AcDbRadialDimension
 15
5422.04637995835
 25
2574.557471810377
 35
0.0
 40
0.0
1001
ACAD
1000
DSTYLE
1002
{
1070
   288
1070
     1
1002
}
  0
DIMENSION
  5
167D
102
{ACAD_XDICTIONARY
360
1686
102
}
102
{ACAD_REACTORS
330
168C
102
}
330
1F
100
AcDbEntity
  8
图层2
100
AcDbDimension
  2
*D8
 10
5398.984674744068
 20
3390.762042616774
 30
0.0
 11
5341.929151396243
 21
2193.372239537266
 31
0.0
 70
   164
 71
     5
 42
1300.000000000006
  3
ISO-25
100
AcDbRadialDimension
 15
5337.109988007325
 25
2092.23536859685
 35
0.0
 40
0.0
1001
ACAD
1000
DSTYLE
1002
{
1070
   288
1070
     1
1002
}
  0
DIMENSION
  5
168D
102
{ACAD_XDICTIONARY
360
1696
102
}
102
{ACAD_REACTORS
330
169C
102
}
330
1F
100
AcDbEntity
  8
图层2
100
AcDbDimension
  2
*D9
 10
5502.011985148454
 20
2475.349554342105
 30
0.0
 11
5510.036603733146
 21
2485.27584786744
 31
0.0
 70
   164
 71
     5
 42
95.0000000000073
  3
ISO-25
100
AcDbRadialDimension
 15
5561.736559697227
 25
2549.227664733273
 35
0.0
 40
0.0
1001
ACAD
1000
DSTYLE
1002
{
1070
   288
1070
     1
1002
}
  0
DIMENSION
  5
169D
102
{ACAD_XDICTIONARY
360
16A6
102
}
102
{ACAD_REACTORS
330
16AC
102
}
330
1F
100
AcDbEntity
  8
图层2
100
AcDbDimension
  2
*D10
 10
5875.560349311052
 20
2429.541202915856
 30
0.0
 11
5877.329110075814
 21
2431.665468583565
 31
0.0
 70
   164
 71
     5
 42
84.99999999999728
  3
ISO-25
100
AcDbRadialDimension
 15
5929.949512159748
 25
2494.862095168011
 35
0.0
 40
0.0
1001
ACAD
1000
DSTYLE
1002
{
1070
   288
1070
     1
1002
}
  0
DIMENSION
  5
16AD
102
{ACAD_XDICTIONARY
360
16B6
102
}
102
{ACAD_REACTORS
330
16BC
102
}
330
1F
100
AcDbEntity
  8
图层2
100
AcDbDimension
  2
*D11
 10
4666.984674744067
 20
2304.762042616764
 30
0.0
 11
5865.464026843314
 21
2330.157236158621
 31
0.0
 70
   164
 71
     5
 42
1299.999999999997
  3
ISO-25
100
AcDbRadialDimension
 15
5966.692925942236
 25
2332.302227209274
 35
0.0
 40
0.0
1001
ACAD
1000
DSTYLE
1002
{
1070
   288
1070
     1
1002
}
  0
DIMENSION
  5
16BD
102
{ACAD_XDICTIONARY
360
16C6
102
}
102
{ACAD_REACTORS
330
16CC
102
}
330
1F
100
AcDbEntity
  8
图层2
100
AcDbDimension
  2
*D12
 10
5875.560349311063
 20
2179.982882317681
 30
0.0
 11
5877.321669974133
 21
2177.852443679324
 31
0.0
 70
   164
 71
     5
 42
84.99999999999909
  3
ISO-25
100
AcDbRadialDimension
 15
5929.720730003044
 25
2114.472172023109
 35
0.0
 40
0.0
1001
ACAD
1000
DSTYLE
1002
{
1070
   288
1070
     1
1002
}
  0
DIMENSION
  5
16CD
102
{ACAD_XDICTIONARY
360
16D6
102
}
102
{ACAD_REACTORS
330
16DC
102
}
330
1F
100
AcDbEntity
  8
图层2
100
AcDbDimension
  2
*D13
 10
5797.984674744059
 20
2890.762042616765
 30
0.0
 11
5834.956104647167
 21
2183.751119905332
 31
0.0
 70
   164
 71
     5
 42
799.9999999999992
  3
ISO-25
100
AcDbRadialDimension
 15
5839.761663127023
 25
2091.853610290726
 35
0.0
 40
0.0
1001
ACAD
1000
DSTYLE
1002
{
1070
   288
1070
     1
1002
}
  0
DIMENSION
  5
16DD
102
{ACAD_XDICTIONARY
360
16E6
102
}
102
{ACAD_REACTORS
330
16EC
102
}
330
1F
100
AcDbEntity
  8
图层2
100
AcDbDimension
  2
*D14
 10
5797.984674744085
 20
1718.76204261677
 30
0.0
 11
5830.683132942748
 21
2425.983466425309
 31
0.0
 70
   164
 71
     5
 42
799.9999999999977
  3
ISO-25
100
AcDbRadialDimension
 15
5834.933289171129
 25
2517.908337040962
 35
0.0
 40
0.0
1001
ACAD
1000
DSTYLE
1002
{
1070
   288
1070
     1
1002
}
  0
DIMENSION
  5
190C
330
1F
100
AcDbEntity
  8
图层2
100
AcDbDimension
  2
*D31
 10
5190.984674744061
 20
1957.624402490595
 30
0.0
 11
5580.984674744062
 21
1973.376745677329
 31
0.0
 70
    32
 71
     5
 42
780.0000000000009
  3
ISO-25
100
AcDbAlignedDimension
 13
5970.984674744062
 23
2304.762042616761
 33
0.0
 14
5190.984674744061
 24
2332.762042616769
 34
0.0
100
AcDbRotatedDimension
  0
DIMENSION
  5
1924
330
1F
100
AcDbEntity
  8
图层2
100
AcDbDimension
  2
*D32
 10
5082.153179418849
 20
2086.762042616767
 30
0.0
 11
5066.400836232115
 21
2332.762042616768
 31
0.0
 70
    32
 71
     5
 42
492.0
  3
ISO-25
100
AcDbAlignedDimension
 13
5398.984674744063
 23
2578.762042616767
 33
0.0
 14
5398.984674744063
 24
2086.762042616767
 34
0.0
 50
90.0
100
AcDbRotatedDimension
  0
DIMENSION
  5
193C
330
1F
100
AcDbEntity
  8
图层2
100
AcDbDimension
  2
*D33
 10
6098.616893454916
 20
2086.762042616767
 30
0.0
 11
6082.900599294859
 21
2304.762042616768
 31
0.0
 70
    32
 71
     5
 42
436.0
  3
ISO-25
100
AcDbAlignedDimension
 13
5797.984674744062
 23
2522.762042616767
 33
0.0
 14
5797.984674744062
 24
2086.762042616767
 34
0.0
 50
90.0
100
AcDbRotatedDimension
  0
DIMENSION
  5
198D
330
1F
100
AcDbEntity
  8
图层2
100
AcDbDimension
  2
*D34
 10
5970.984674744062
 20
2005.92374718543
 30
0.0
 11
6032.284963136277
 21
2021.42374718543
 31
0.0
 70
    32
 71
     5
 42
3.999999999998181
  3
ISO-25
100
AcDbAlignedDimension
 13
5966.984674744065
 23
2026.016822958835
 33
0.0
 14
5970.984674744062
 24
2036.120953729924
 34
0.0
100
AcDbRotatedDimension
  0
DIMENSION
  5
199C
330
1F
100
AcDbEntity
  8
图层2
100
AcDbDimension
  2
*D35
 10
6048.190979341183
 20
2522.762042616767
 30
0.0
 11
6032.690979341182
 21
2584.062331008981
 31
0.0
 70
    32
 71
     5
 42
4.0
  3
ISO-25
100
AcDbAlignedDimension
 13
6026.650707906751
 23
2518.762042616767
 33
0.0
 14
6026.650707906751
 24
2522.762042616767
 34
0.0
 50
90.0
100
AcDbRotatedDimension
  0
DIMENSION
  5
19AB
330
1F
100
AcDbEntity
  8
图层2
100
AcDbDimension
  2
*D36
 10
5121.967604072313
 20
2578.762042616768
 30
0.0
 11
5106.467604072314
 21
2640.062331008982
 31
0.0
 70
    32
 71
     5
 42
4.000000000000453
  3
ISO-25
100
AcDbAlignedDimension
 13
5137.401643362707
 23
2574.762042616767
 33
0.0
 14
5137.446762631352
 24
2578.762042616768
 34
0.0
 50
90.0
100
AcDbRotatedDimension
  0
ARC
  5
1AA1
330
1F
100
AcDbEntity
  8
图层1
 48
150.0
100
AcDbCircle
 10
5597.948716022585
 20
2538.762042616767
 30
0.0
 40
20.0
100
AcDbArc
 50
213.4640007578767
 51
270.0
  0
ARC
  5
28D8
330
1F
100
AcDbEntity
  8
Title Block
100
AcDbCircle
 10
5295.957364339674
 20
2190.17453089143
 30
0.0
 40
99.0
100
AcDbArc
 50
184.7971938898023
 51
265.0952316173772
  0
ARC
  5
28D9
330
1F
100
AcDbEntity
  8
Title Block
100
AcDbCircle
 10
6994.984674744063
 20
2332.762042616769
 30
0.0
 40
1804.0
100
AcDbArc
 50
180.0
 51
184.797193889802
  0
ARC
  5
28DA
330
1F
100
AcDbEntity
  8
Title Block
100
AcDbCircle
 10
6994.984674744063
 20
2332.762042616769
 30
0.0
 40
1804.0
100
AcDbArc
 50
175.2028061101978
 51
180.0
  0
ARC
  5
28DB
330
1F
100
AcDbEntity
  8
Title Block
100
AcDbCircle
 10
5295.957364339674
 20
2475.349554342104
 30
0.0
 40
99.0
100
AcDbArc
 50
94.90476838262273
 51
175.2028061101977
  0
ARC
  5
28DC
330
1F
100
AcDbEntity
  8
Title Block
100
AcDbCircle
 10
5398.984674744063
 20
1274.762042616767
 30
0.0
 40
1304.0
100
AcDbArc
 50
90.0
 51
94.90476838262301
  0
ARC
  5
28DD
330
1F
100
AcDbEntity
  8
Title Block
100
AcDbCircle
 10
5398.984674744063
 20
1274.762042616767
 30
0.0
 40
1304.0
100
AcDbArc
 50
85.09523161737694
 51
90.0
  0
ARC
  5
28DE
330
1F
100
AcDbEntity
  8
Title Block
100
AcDbCircle
 10
5502.011985148454
 20
2475.349554342104
 30
0.0
 40
99.0
100
AcDbArc
 50
33.4640007578774
 51
85.09523161737673
  0
ARC
  5
28DF
330
1F
100
AcDbEntity
  8
Title Block
100
AcDbCircle
 10
5597.948716022585
 20
2538.762042616767
 30
0.0
 40
16.0
100
AcDbArc
 50
213.4640007578787
 51
270.0
  0
LINE
  5
28E0
330
1F
100
AcDbEntity
  8
Title Block
100
AcDbLine
 10
5797.984674744062
 20
2522.762042616767
 30
0.0
 11
5597.948716022585
 21
2522.762042616767
 31
0.0
  0
ARC
  5
28E1
330
1F
100
AcDbEntity
  8
Title Block
100
AcDbCircle
 10
5797.984674744062
 20
1718.762042616766
 30
0.0
 40
804.0
100
AcDbArc
 50
83.77129278667458
 51
90.00000000000005
  0
ARC
  5
28E2
330
1F
100
AcDbEntity
  8
Title Block
100
AcDbCircle
 10
5875.560349311054
 20
2429.541202915854
 30
0.0
 40
89.0
100
AcDbArc
 50
5.89460631106997
 51
83.77129278667464
  0
ARC
  5
28E3
330
1F
100
AcDbEntity
  8
Title Block
100
AcDbCircle
 10
4666.984674744063
 20
2304.762042616765
 30
0.0
 40
1304.0
100
AcDbArc
 50
0.0
 51
5.894606311069987
  0
ARC
  5
28E4
330
1F
100
AcDbEntity
  8
Title Block
100
AcDbCircle
 10
4666.984674744063
 20
2304.762042616761
 30
0.0
 40
1304.0
100
AcDbArc
 50
354.1053936889303
 51
0.0
  0
ARC
  5
28E5
330
1F
100
AcDbEntity
  8
Title Block
100
AcDbCircle
 10
5875.560349311054
 20
2179.982882317679
 30
0.0
 40
89.0
100
AcDbArc
 50
276.2287072133254
 51
354.1053936889297
  0
ARC
  5
28E6
330
1F
100
AcDbEntity
  8
Title Block
100
AcDbCircle
 10
5797.984674744062
 20
2890.762042616767
 30
0.0
 40
804.0
100
AcDbArc
 50
270.0
 51
276.2287072133255
  0
LINE
  5
28E7
330
1F
100
AcDbEntity
  8
Title Block
100
AcDbLine
 10
5797.984674744062
 20
2086.762042616767
 30
0.0
 11
5398.984674744063
 21
2086.762042616767
 31
0.0
  0
ARC
  5
28E8
330
1F
100
AcDbEntity
  8
Title Block
100
AcDbCircle
 10
5398.984674744063
 20
3390.762042616767
 30
0.0
 40
1304.0
100
AcDbArc
 50
265.095231617377
 51
270.0
  0
ENDSEC
  0
SECTION
  2
OBJECTS
  0
DICTIONARY
  5
C
330
0
100
AcDbDictionary
281
     1
  3
ACAD_COLOR
350
73
  3
ACAD_GROUP
350
D
  3
ACAD_LAYOUT
350
1A
  3
ACAD_MATERIAL
350
72
  3
ACAD_MLINESTYLE
350
17
  3
ACAD_PLOTSETTINGS
350
19
  3
ACAD_PLOTSTYLENAME
350
E
  3
ACAD_TABLESTYLE
350
296E
  3
ACDBHEADERROUNDTRIPXREC
350
297A
  3
AcDbVariableDictionary
350
66
  3
ASE_INDEX_DICTIONARY
350
28EA
  0
DICTIONARY
  5
1602
330
15F5
100
AcDbDictionary
280
     1
281
     1
  3
ACAD_DIMASSOC
360
160C
  0
DICTIONARY
  5
161A
330
160D
100
AcDbDictionary
280
     1
281
     1
  3
ACAD_DIMASSOC
360
1624
  0
DICTIONARY
  5
1632
330
1625
100
AcDbDictionary
280
     1
281
     1
  3
ACAD_DIMASSOC
360
163C
  0
DICTIONARY
  5
1646
330
163D
100
AcDbDictionary
280
     1
281
     1
  3
ACAD_DIMASSOC
360
164C
  0
DICTIONARY
  5
1656
330
164D
100
AcDbDictionary
280
     1
281
     1
  3
ACAD_DIMASSOC
360
165C
  0
DICTIONARY
  5
1666
330
165D
100
AcDbDictionary
280
     1
281
     1
  3
ACAD_DIMASSOC
360
166C
  0
DICTIONARY
  5
1676
330
166D
100
AcDbDictionary
280
     1
281
     1
  3
ACAD_DIMASSOC
360
167C
  0
DICTIONARY
  5
1686
330
167D
100
AcDbDictionary
280
     1
281
     1
  3
ACAD_DIMASSOC
360
168C
  0
DICTIONARY
  5
1696
330
168D
100
AcDbDictionary
280
     1
281
     1
  3
ACAD_DIMASSOC
360
169C
  0
DICTIONARY
  5
16A6
330
169D
100
AcDbDictionary
280
     1
281
     1
  3
ACAD_DIMASSOC
360
16AC
  0
DICTIONARY
  5
16B6
330
16AD
100
AcDbDictionary
280
     1
281
     1
  3
ACAD_DIMASSOC
360
16BC
  0
DICTIONARY
  5
16C6
330
16BD
100
AcDbDictionary
280
     1
281
     1
  3
ACAD_DIMASSOC
360
16CC
  0
DICTIONARY
  5
16D6
330
16CD
100
AcDbDictionary
280
     1
281
     1
  3
ACAD_DIMASSOC
360
16DC
  0
DICTIONARY
  5
16E6
330
16DD
100
AcDbDictionary
280
     1
281
     1
  3
ACAD_DIMASSOC
360
16EC
  0
DICTIONARY
  5
73
102
{ACAD_REACTORS
330
C
102
}
330
C
100
AcDbDictionary
281
     1
  0
DICTIONARY
  5
D
102
{ACAD_REACTORS
330
C
102
}
330
C
100
AcDbDictionary
281
     1
  0
DICTIONARY
  5
1A
102
{ACAD_REACTORS
330
C
102
}
330
C
100
AcDbDictionary
281
     1
  3
Model
350
22
  3
布局1
350
59
  3
布局2
350
5E
  0
DICTIONARY
  5
72
102
{ACAD_REACTORS
330
C
102
}
330
C
100
AcDbDictionary
281
     1
  0
DICTIONARY
  5
17
102
{ACAD_REACTORS
330
C
102
}
330
C
100
AcDbDictionary
281
     1
  3
Standard
350
18
  0
DICTIONARY
  5
19
102
{ACAD_REACTORS
330
C
102
}
330
C
100
AcDbDictionary
281
     1
  0
ACDBDICTIONARYWDFLT
  5
E
102
{ACAD_REACTORS
330
C
102
}
330
C
100
AcDbDictionary
281
     1
  3
Normal
350
F
100
AcDbDictionaryWithDefault
340
F
  0
DICTIONARY
  5
296E
102
{ACAD_REACTORS
330
C
102
}
330
C
100
AcDbDictionary
281
     1
  3
Standard
350
296F
  0
DICTIONARY
  5
297A
102
{ACAD_REACTORS
330
C
102
}
330
C
100
AcDbDictionary
281
     1
  0
DICTIONARY
  5
66
102
{ACAD_REACTORS
330
C
102
}
330
C
100
AcDbDictionary
281
     1
  3
CTABLESTYLE
350
2978
  3
DIMASSOC
350
67
  3
HIDETEXT
350
6B
  3
PROJECTNAME
350
1A8E
  0
DICTIONARY
  5
28EA
102
{ACAD_REACTORS
330
C
102
}
330
C
100
AcDbDictionary
281
     1
  3
ASEBlockHierarchyIndexRecord
350
28EC
1001
DCO15
1040
1626777034.265
  0
DIMASSOC
  5
160C
102
{ACAD_REACTORS
330
1602
102
}
330
1602
100
AcDbDimAssoc
330
15F5
 90
        3
 70
     0
 71
     0
  1
AcDbOsnapPointRef
 72
    13
331
15AF
 73
     2
 91
        0
 40
3.141592653589792
 10
0.0
 20
0.0
 30
2.000000000000000E+50
 75
     0
  1
AcDbOsnapPointRef
 72
    13
331
15D9
 73
     2
 91
        0
 40
0.0
 10
0.0
 20
0.0
 30
2.000000000000000E+50
 75
     0
  0
DIMASSOC
  5
1624
102
{ACAD_REACTORS
330
161A
102
}
330
161A
100
AcDbDimAssoc
330
160D
 90
        3
 70
     0
 71
     0
  1
AcDbOsnapPointRef
 72
     1
331
15B8
 73
     2
 91
        0
 40
1.570796326794896
 10
0.0
 20
0.0
 30
2.000000000000000E+50
 75
     0
  1
AcDbOsnapPointRef
 72
     1
331
15BB
 73
     2
 91
        0
 40
4.712388980384688
 10
0.0
 20
0.0
 30
2.000000000000000E+50
 75
     0
  0
DIMASSOC
  5
163C
102
{ACAD_REACTORS
330
1632
102
}
330
1632
100
AcDbDimAssoc
330
1625
 90
        3
 70
     0
 71
     0
  1
AcDbOsnapPointRef
 72
     1
331
15E5
 73
     2
 91
        0
 40
1.570796326794896
 10
0.0
 20
0.0
 30
2.000000000000000E+50
 75
     0
  1
AcDbOsnapPointRef
 72
    13
331
15E0
 73
     2
 91
        0
 40
4.712388980384688
 10
0.0
 20
0.0
 30
2.000000000000000E+50
 75
     0
  0
DIMASSOC
  5
164C
102
{ACAD_REACTORS
330
1646
102
}
330
1646
100
AcDbDimAssoc
330
163D
 90
        2
 70
     0
 71
     0
  1
AcDbOsnapPointRef
 72
     3
331
15E6
 73
     2
 91
        0
 40
0.0
 10
0.0
 20
0.0
 30
0.0
 75
     0
  0
DIMASSOC
  5
165C
102
{ACAD_REACTORS
330
1656
102
}
330
1656
100
AcDbDimAssoc
330
164D
 90
        2
 70
     0
 71
     0
  1
AcDbOsnapPointRef
 72
     3
331
15E7
 73
     2
 91
        0
 40
0.0
 10
0.0
 20
0.0
 30
0.0
 75
     0
  0
DIMASSOC
  5
166C
102
{ACAD_REACTORS
330
1666
102
}
330
1666
100
AcDbDimAssoc
330
165D
 90
        2
 70
     0
 71
     0
  1
AcDbOsnapPointRef
 72
     3
331
15AE
 73
     2
 91
        0
 40
0.0
 10
0.0
 20
0.0
 30
0.0
 75
     0
  0
DIMASSOC
  5
167C
102
{ACAD_REACTORS
330
1676
102
}
330
1676
100
AcDbDimAssoc
330
166D
 90
        2
 70
     0
 71
     0
  1
AcDbOsnapPointRef
 72
     3
331
15B8
 73
     2
 91
        0
 40
0.0
 10
0.0
 20
0.0
 30
0.0
 75
     0
  0
DIMASSOC
  5
168C
102
{ACAD_REACTORS
330
1686
102
}
330
1686
100
AcDbDimAssoc
330
167D
 90
        2
 70
     0
 71
     0
  1
AcDbOsnapPointRef
 72
     3
331
15BB
 73
     2
 91
        0
 40
0.0
 10
0.0
 20
0.0
 30
0.0
 75
     0
  0
DIMASSOC
  5
169C
102
{ACAD_REACTORS
330
1696
102
}
330
1696
100
AcDbDimAssoc
330
168D
 90
        2
 70
     0
 71
     0
  1
AcDbOsnapPointRef
 72
     3
331
15E8
 73
     2
 91
        0
 40
0.0
 10
0.0
 20
0.0
 30
0.0
 75
     0
  0
DIMASSOC
  5
16AC
102
{ACAD_REACTORS
330
16A6
102
}
330
16A6
100
AcDbDimAssoc
330
169D
 90
        2
 70
     0
 71
     0
  1
AcDbOsnapPointRef
 72
     3
331
15EE
 73
     2
 91
        0
 40
0.0
 10
0.0
 20
0.0
 30
0.0
 75
     0
  0
DIMASSOC
  5
16BC
102
{ACAD_REACTORS
330
16B6
102
}
330
16B6
100
AcDbDimAssoc
330
16AD
 90
        2
 70
     0
 71
     0
  1
AcDbOsnapPointRef
 72
     3
331
15D9
 73
     2
 91
        0
 40
0.0
 10
0.0
 20
0.0
 30
0.0
 75
     0
  0
DIMASSOC
  5
16CC
102
{ACAD_REACTORS
330
16C6
102
}
330
16C6
100
AcDbDimAssoc
330
16BD
 90
        2
 70
     0
 71
     0
  1
AcDbOsnapPointRef
 72
     3
331
15EC
 73
     2
 91
        0
 40
0.0
 10
0.0
 20
0.0
 30
0.0
 75
     0
  0
DIMASSOC
  5
16DC
102
{ACAD_REACTORS
330
16D6
102
}
330
16D6
100
AcDbDimAssoc
330
16CD
 90
        2
 70
     0
 71
     0
  1
AcDbOsnapPointRef
 72
     3
331
15E0
 73
     2
 91
        0
 40
0.0
 10
0.0
 20
0.0
 30
0.0
 75
     0
  0
DIMASSOC
  5
16EC
102
{ACAD_REACTORS
330
16E6
102
}
330
16E6
100
AcDbDimAssoc
330
16DD
 90
        2
 70
     0
 71
     0
  1
AcDbOsnapPointRef
 72
     3
331
15E5
 73
     2
 91
        0
 40
0.0
 10
0.0
 20
0.0
 30
0.0
 75
     0
  0
LAYOUT
  5
22
102
{ACAD_XDICTIONARY
360
297B
102
}
102
{ACAD_REACTORS
330
1A
102
}
330
1A
100
AcDbPlotSettings
  1

  2
none_device
  4
ANSI_A_(8.50_x_11.00_Inches)
  6

 40
6.349999904632567
 41
19.04999923706055
 42
6.350006103515625
 43
19.04998779296875
 44
215.8999938964844
 45
279.3999938964844
 46
0.0
 47
0.0
 48
0.0
 49
0.0
140
0.0
141
0.0
142
1.0
143
2.584895464708373
 70
 11952
 72
     0
 73
     1
 74
     0
  7

 75
     0
147
0.3868628397755418
148
0.0
149
0.0
100
AcDbLayout
  1
Model
 70
     1
 71
     0
 10
0.0
 20
0.0
 11
12.0
 21
9.0
 12
0.0
 22
0.0
 32
0.0
 14
0.0
 24
0.0
 34
0.0
 15
0.0
 25
0.0
 35
0.0
146
0.0
 13
0.0
 23
0.0
 33
0.0
 16
1.0
 26
0.0
 36
0.0
 17
0.0
 27
1.0
 37
0.0
 76
     0
330
1F
  0
LAYOUT
  5
59
102
{ACAD_XDICTIONARY
360
297D
102
}
102
{ACAD_REACTORS
330
1A
102
}
330
1A
100
AcDbPlotSettings
  1

  2
None
  4

  6

 40
0.0
 41
0.0
 42
0.0
 43
0.0
 44
0.0
 45
0.0
 46
0.0
 47
0.0
 48
0.0
 49
0.0
140
0.0
141
0.0
142
1.0
143
1.0
 70
   688
 72
     0
 73
     0
 74
     5
  7

 75
    16
147
1.0
148
0.0
149
0.0
100
AcDbLayout
  1
布局1
 70
     1
 71
     1
 10
0.0
 20
0.0
 11
12.0
 21
9.0
 12
0.0
 22
0.0
 32
0.0
 14
0.0
 24
0.0
 34
0.0
 15
0.0
 25
0.0
 35
0.0
146
0.0
 13
0.0
 23
0.0
 33
0.0
 16
1.0
 26
0.0
 36
0.0
 17
0.0
 27
1.0
 37
0.0
 76
     0
330
58
  0
LAYOUT
  5
5E
102
{ACAD_XDICTIONARY
360
297F
102
}
102
{ACAD_REACTORS
330
1A
102
}
330
1A
100
AcDbPlotSettings
  1

  2
None
  4

  6

 40
0.0
 41
0.0
 42
0.0
 43
0.0
 44
0.0
 45
0.0
 46
0.0
 47
0.0
 48
0.0
 49
0.0
140
0.0
141
0.0
142
1.0
143
1.0
 70
   688
 72
     0
 73
     0
 74
     5
  7

 75
    16
147
1.0
148
0.0
149
0.0
100
AcDbLayout
  1
布局2
 70
     1
 71
     2
 10
0.0
 20
0.0
 11
12.0
 21
9.0
 12
0.0
 22
0.0
 32
0.0
 14
0.0
 24
0.0
 34
0.0
 15
0.0
 25
0.0
 35
0.0
146
0.0
 13
0.0
 23
0.0
 33
0.0
 16
1.0
 26
0.0
 36
0.0
 17
0.0
 27
1.0
 37
0.0
 76
     0
330
5D
  0
MLINESTYLE
  5
18
102
{ACAD_REACTORS
330
17
102
}
330
17
100
AcDbMlineStyle
  2
STANDARD
 70
     0
  3

 62
   256
 51
90.0
 52
90.0
 71
     2
 49
0.5
 62
   256
  6
BYLAYER
 49
-0.5
 62
   256
  6
BYLAYER
  0
ACDBPLACEHOLDER
  5
F
102
{ACAD_REACTORS
330
E
102
}
330
E
  0
TABLESTYLE
  5
296F
102
{ACAD_REACTORS
330
296E
102
}
330
296E
100
AcDbTableStyle
  3
Standard
 70
     0
 71
     0
 40
0.06
 41
0.06
280
     0
281
     0
  7
Standard
140
0.18
170
     2
 62
     0
 63
     7
283
     0
274
    -2
284
     1
 64
     0
275
    -2
285
     1
 65
     0
276
    -2
286
     1
 66
     0
277
    -2
287
     1
 67
     0
278
    -2
288
     1
 68
     0
279
    -2
289
     1
 69
     0
  7
Standard
140
0.25
170
     5
 62
     0
 63
     7
283
     0
274
    -2
284
     1
 64
     0
275
    -2
285
     1
 65
     0
276
    -2
286
     1
 66
     0
277
    -2
287
     1
 67
     0
278
    -2
288
     1
 68
     0
279
    -2
289
     1
 69
     0
  7
Standard
140
0.18
170
     5
 62
     0
 63
     7
283
     0
274
    -2
284
     1
 64
     0
275
    -2
285
     1
 65
     0
276
    -2
286
     1
 66
     0
277
    -2
287
     1
 67
     0
278
    -2
288
     1
 68
     0
279
    -2
289
     1
 69
     0
  0
DICTIONARYVAR
  5
2978
102
{ACAD_REACTORS
330
66
102
}
330
66
100
DictionaryVariables
280
     0
  1
STANDARD
  0
DICTIONARYVAR
  5
67
102
{ACAD_REACTORS
330
66
102
}
330
66
100
DictionaryVariables
280
     0
  1
2
  0
DICTIONARYVAR
  5
6B
102
{ACAD_REACTORS
330
66
102
}
330
66
100
DictionaryVariables
280
     0
  1
1
  0
DICTIONARYVAR
  5
1A8E
102
{ACAD_REACTORS
330
66
102
}
330
66
100
DictionaryVariables
280
     0
  1

  0
XRECORD
  5
28EC
102
{ACAD_REACTORS
330
28EA
102
}
330
28EA
100
AcDbXrecord
280
     1
  0
DICTIONARY
  5
297B
330
22
100
AcDbDictionary
280
     1
281
     1
  3
ACAD_XREC_ROUNDTRIP
360
297C
  0
DICTIONARY
  5
297D
330
59
100
AcDbDictionary
280
     1
281
     1
  3
ACAD_XREC_ROUNDTRIP
360
297E
  0
DICTIONARY
  5
297F
330
5E
100
AcDbDictionary
280
     1
281
     1
  3
ACAD_XREC_ROUNDTRIP
360
2980
  0
XRECORD
  5
297C
102
{ACAD_REACTORS
330
297B
102
}
330
297B
100
AcDbXrecord
280
     1
102
SHADEPLOT
 70
     0
102
SHADEPLOTRESLEVEL
 70
     2
102
SHADEPLOTCUSTOMDPI
 70
   300
  0
XRECORD
  5
297E
102
{ACAD_REACTORS
330
297D
102
}
330
297D
100
AcDbXrecord
280
     1
102
SHADEPLOT
 70
     0
102
SHADEPLOTRESLEVEL
 70
     2
102
SHADEPLOTCUSTOMDPI
 70
   300
  0
XRECORD
  5
2980
102
{ACAD_REACTORS
330
297F
102
}
330
297F
100
AcDbXrecord
280
     1
102
SHADEPLOT
 70
     0
102
SHADEPLOTRESLEVEL
 70
     2
102
SHADEPLOTCUSTOMDPI
 70
   300
  0
ENDSEC
  0
EOF
