  0
SECTION
  2
HEADER
  9
$ACADVER
  1
AC1015
  9
$ACADMAINTVER
 70
    20
  9
$DWGCODEPAGE
  3
ANSI_936
  9
$INSBASE
 10
0.0
 20
0.0
 30
0.0
  9
$EXTMIN
 10
7056.657558319006
 20
1274.743588571724
 30
-0.0015258207003583
  9
$EXTMAX
 10
9385.105364735537
 20
3390.865528357166
 30
0.0000000349246037
  9
$LIMMIN
 10
0.0
 20
0.0
  9
$LIMMAX
 10
12.0
 20
9.0
  9
$ORTHOMODE
 70
     1
  9
$REGENMODE
 70
     1
  9
$FILLMODE
 70
     1
  9
$QTEXTMODE
 70
     0
  9
$MIRRTEXT
 70
     0
  9
$LTSCALE
 40
1.0
  9
$ATTMODE
 70
     1
  9
$TEXTSIZE
 40
0.2
  9
$TRACEWID
 40
0.05
  9
$TEXTSTYLE
  7
Standard
  9
$CLAYER
  8
图层2
  9
$CELTYPE
  6
ByLayer
  9
$CECOLOR
 62
   256
  9
$CELTSCALE
 40
1.0
  9
$DISPSILH
 70
     0
  9
$DIMSCALE
 40
1.0
  9
$DIMASZ
 40
25.0
  9
$DIMEXO
 40
0.625
  9
$DIMDLI
 40
3.75
  9
$DIMRND
 40
0.0
  9
$DIMDLE
 40
0.0
  9
$DIMEXE
 40
1.25
  9
$DIMTP
 40
0.0
  9
$DIMTM
 40
0.0
  9
$DIMTXT
 40
25.0
  9
$DIMCEN
 40
12.0
  9
$DIMTSZ
 40
0.0
  9
$DIMTOL
 70
     0
  9
$DIMLIM
 70
     0
  9
$DIMTIH
 70
     0
  9
$DIMTOH
 70
     0
  9
$DIMSE1
 70
     0
  9
$DIMSE2
 70
     0
  9
$DIMTAD
 70
     1
  9
$DIMZIN
 70
     8
  9
$DIMBLK
  1

  9
$DIMASO
 70
     1
  9
$DIMSHO
 70
     1
  9
$DIMPOST
  1

  9
$DIMAPOST
  1

  9
$DIMALT
 70
     0
  9
$DIMALTD
 70
     3
  9
$DIMALTF
 40
0.03937007874016
  9
$DIMLFAC
 40
1.0
  9
$DIMTOFL
 70
     1
  9
$DIMTVP
 40
0.0
  9
$DIMTIX
 70
     0
  9
$DIMSOXD
 70
     0
  9
$DIMSAH
 70
     0
  9
$DIMBLK1
  1

  9
$DIMBLK2
  1

  9
$DIMSTYLE
  2
ISO-25
  9
$DIMCLRD
 70
   256
  9
$DIMCLRE
 70
   256
  9
$DIMCLRT
 70
     0
  9
$DIMTFAC
 40
1.0
  9
$DIMGAP
 40
3.0
  9
$DIMJUST
 70
     0
  9
$DIMSD1
 70
     0
  9
$DIMSD2
 70
     0
  9
$DIMTOLJ
 70
     0
  9
$DIMTZIN
 70
     8
  9
$DIMALTZ
 70
     0
  9
$DIMALTTZ
 70
     0
  9
$DIMUPT
 70
     0
  9
$DIMDEC
 70
     2
  9
$DIMTDEC
 70
     2
  9
$DIMALTU
 70
     2
  9
$DIMALTTD
 70
     3
  9
$DIMTXSTY
  7
Standard
  9
$DIMAUNIT
 70
     0
  9
$DIMADEC
 70
     0
  9
$DIMALTRND
 40
0.0
  9
$DIMAZIN
 70
     0
  9
$DIMDSEP
 70
    44
  9
$DIMATFIT
 70
     3
  9
$DIMFRAC
 70
     0
  9
$DIMLDRBLK
  1

  9
$DIMLUNIT
 70
     2
  9
$DIMLWD
 70
     9
  9
$DIMLWE
 70
     9
  9
$DIMTMOVE
 70
     0
  9
$LUNITS
 70
     2
  9
$LUPREC
 70
     4
  9
$SKETCHINC
 40
0.1
  9
$FILLETRAD
 40
13.0
  9
$AUNITS
 70
     0
  9
$AUPREC
 70
     0
  9
$MENU
  1
.
  9
$ELEVATION
 40
0.0
  9
$PELEVATION
 40
0.0
  9
$THICKNESS
 40
0.0
  9
$LIMCHECK
 70
     0
  9
$CHAMFERA
 40
0.0
  9
$CHAMFERB
 40
0.0
  9
$CHAMFERC
 40
0.0
  9
$CHAMFERD
 40
0.0
  9
$SKPOLY
 70
     0
  9
$TDCREATE
 40
2453580.365318461
  9
$TDUCREATE
 40
2453580.031985127
  9
$TDUPDATE
 40
2454725.595765335
  9
$TDUUPDATE
 40
2454725.262432003
  9
$TDINDWG
 40
0.4660325926
  9
$TDUSRTIMER
 40
0.4660291551
  9
$USRTIMER
 70
     1
  9
$ANGBASE
 50
0.0
  9
$ANGDIR
 70
     0
  9
$PDMODE
 70
     0
  9
$PDSIZE
 40
0.0
  9
$PLINEWID
 40
0.0
  9
$SPLFRAME
 70
     0
  9
$SPLINETYPE
 70
     6
  9
$SPLINESEGS
 70
     8
  9
$HANDSEED
  5
1C05
  9
$SURFTAB1
 70
     6
  9
$SURFTAB2
 70
     6
  9
$SURFTYPE
 70
     6
  9
$SURFU
 70
     6
  9
$SURFV
 70
     6
  9
$UCSBASE
  2

  9
$UCSNAME
  2

  9
$UCSORG
 10
0.0
 20
0.0
 30
0.0
  9
$UCSXDIR
 10
1.0
 20
0.0
 30
0.0
  9
$UCSYDIR
 10
0.0
 20
1.0
 30
0.0
  9
$UCSORTHOREF
  2

  9
$UCSORTHOVIEW
 70
     1
  9
$UCSORGTOP
 10
0.0
 20
0.0
 30
0.0
  9
$UCSORGBOTTOM
 10
0.0
 20
0.0
 30
0.0
  9
$UCSORGLEFT
 10
0.0
 20
0.0
 30
0.0
  9
$UCSORGRIGHT
 10
0.0
 20
0.0
 30
0.0
  9
$UCSORGFRONT
 10
0.0
 20
0.0
 30
0.0
  9
$UCSORGBACK
 10
0.0
 20
0.0
 30
0.0
  9
$PUCSBASE
  2

  9
$PUCSNAME
  2

  9
$PUCSORG
 10
0.0
 20
0.0
 30
0.0
  9
$PUCSXDIR
 10
1.0
 20
0.0
 30
0.0
  9
$PUCSYDIR
 10
0.0
 20
1.0
 30
0.0
  9
$PUCSORTHOREF
  2

  9
$PUCSORTHOVIEW
 70
     0
  9
$PUCSORGTOP
 10
0.0
 20
0.0
 30
0.0
  9
$PUCSORGBOTTOM
 10
0.0
 20
0.0
 30
0.0
  9
$PUCSORGLEFT
 10
0.0
 20
0.0
 30
0.0
  9
$PUCSORGRIGHT
 10
0.0
 20
0.0
 30
0.0
  9
$PUCSORGFRONT
 10
0.0
 20
0.0
 30
0.0
  9
$PUCSORGBACK
 10
0.0
 20
0.0
 30
0.0
  9
$USERI1
 70
     0
  9
$USERI2
 70
     0
  9
$USERI3
 70
     0
  9
$USERI4
 70
     0
  9
$USERI5
 70
     0
  9
$USERR1
 40
0.0
  9
$USERR2
 40
0.0
  9
$USERR3
 40
0.0
  9
$USERR4
 40
0.0
  9
$USERR5
 40
0.0
  9
$WORLDVIEW
 70
     1
  9
$SHADEDGE
 70
     3
  9
$SHADEDIF
 70
    70
  9
$TILEMODE
 70
     1
  9
$MAXACTVP
 70
    64
  9
$PINSBASE
 10
0.0
 20
0.0
 30
0.0
  9
$PLIMCHECK
 70
     0
  9
$PEXTMIN
 10
0.0
 20
0.0
 30
0.0
  9
$PEXTMAX
 10
0.0
 20
0.0
 30
0.0
  9
$PLIMMIN
 10
0.0
 20
0.0
  9
$PLIMMAX
 10
12.0
 20
9.0
  9
$UNITMODE
 70
     0
  9
$VISRETAIN
 70
     1
  9
$PLINEGEN
 70
     0
  9
$PSLTSCALE
 70
     1
  9
$TREEDEPTH
 70
  3020
  9
$CMLSTYLE
  2
Standard
  9
$CMLJUST
 70
     0
  9
$CMLSCALE
 40
1.0
  9
$PROXYGRAPHICS
 70
     1
  9
$MEASUREMENT
 70
     0
  9
$CELWEIGHT
370
    -1
  9
$ENDCAPS
280
     0
  9
$JOINSTYLE
280
     0
  9
$LWDISPLAY
290
     0
  9
$INSUNITS
 70
     1
  9
$HYPERLINKBASE
  1

  9
$STYLESHEET
  1

  9
$XEDIT
290
     1
  9
$CEPSNTYPE
380
     0
  9
$PSTYLEMODE
290
     1
  9
$FINGERPRINTGUID
  2
{FDEAD576-A652-11D2-9A35-0060089B3A3F}
  9
$VERSIONGUID
  2
{B4CFD1E4-41F1-4234-9E11-407ABF735631}
  9
$EXTNAMES
290
     1
  9
$PSVPSCALE
 40
0.0
  9
$OLESTARTUP
290
     0
  0
ENDSEC
  0
SECTION
  2
CLASSES
  0
CLASS
  1
ACDBDICTIONARYWDFLT
  2
AcDbDictionaryWithDefault
  3
ObjectDBX Classes
 90
        0
280
     0
281
     0
  0
CLASS
  1
ACDBPLACEHOLDER
  2
AcDbPlaceHolder
  3
ObjectDBX Classes
 90
        0
280
     0
281
     0
  0
CLASS
  1
LAYOUT
  2
AcDbLayout
  3
ObjectDBX Classes
 90
        0
280
     0
281
     0
  0
CLASS
  1
DICTIONARYVAR
  2
AcDbDictionaryVar
  3
ObjectDBX Classes
 90
        0
280
     0
281
     0
  0
CLASS
  1
DIMASSOC
  2
AcDbDimAssoc
  3
"AcDbDimAssoc|Product Desc:     AcDim ARX App For Dimension|Company:          Autodesk, Inc.|WEB Address:      www.autodesk.com"
 90
        0
280
     0
281
     0
  0
CLASS
  1
TABLESTYLE
  2
AcDbTableStyle
  3
ObjectDBX Classes
 90
     2047
280
     0
281
     0
  0
ENDSEC
  0
SECTION
  2
TABLES
  0
TABLE
  2
VPORT
  5
8
330
0
100
AcDbSymbolTable
 70
     3
  0
VPORT
  5
1BFD
330
8
100
AcDbSymbolTableRecord
100
AcDbViewportTableRecord
  2
*Active
 70
     0
 10
0.0
 20
0.0
 11
1.0
 21
1.0
 12
8452.706918396156
 22
2301.379562817435
 13
0.0
 23
0.0
 14
0.5
 24
0.5
 15
0.5
 25
0.5
 16
0.0
 26
0.0
 36
1.0
 17
0.0
 27
0.0
 37
0.0
 40
1047.985703216858
 41
1.523038605230386
 42
50.0
 43
0.0
 44
0.0
 50
0.0
 51
0.0
 71
     0
 72
  1000
 73
     1
 74
     3
 75
     0
 76
     0
 77
     0
 78
     0
281
     0
 65
     1
110
0.0
120
0.0
130
0.0
111
1.0
121
0.0
131
0.0
112
0.0
122
1.0
132
0.0
 79
     1
146
0.0
  0
ENDTAB
  0
TABLE
  2
LTYPE
  5
5
330
0
100
AcDbSymbolTable
 70
     2
  0
LTYPE
  5
14
330
5
100
AcDbSymbolTableRecord
100
AcDbLinetypeTableRecord
  2
ByBlock
 70
     0
  3

 72
    65
 73
     0
 40
0.0
  0
LTYPE
  5
15
330
5
100
AcDbSymbolTableRecord
100
AcDbLinetypeTableRecord
  2
ByLayer
 70
     0
  3

 72
    65
 73
     0
 40
0.0
  0
LTYPE
  5
16
330
5
100
AcDbSymbolTableRecord
100
AcDbLinetypeTableRecord
  2
Continuous
 70
     0
  3
Solid line
 72
    65
 73
     0
 40
0.0
  0
LTYPE
  5
AD0
330
5
100
AcDbSymbolTableRecord
100
AcDbLinetypeTableRecord
  2
HIDDEN2
 70
     0
  3
Hidden (.5x) _ _ _ _ _ _ _ _ _ _ _ _ _ _ _ _ _
 72
    65
 73
     2
 40
0.1875
 49
0.125
 74
     0
 49
-0.0625
 74
     0
  0
ENDTAB
  0
TABLE
  2
LAYER
  5
2
330
0
100
AcDbSymbolTable
 70
     5
  0
LAYER
  5
10
330
2
100
AcDbSymbolTableRecord
100
AcDbLayerTableRecord
  2
0
 70
     0
 62
     7
  6
Continuous
370
    -3
390
F
  0
LAYER
  5
167
330
2
100
AcDbSymbolTableRecord
100
AcDbLayerTableRecord
  2
Defpoints
 70
     0
 62
     7
  6
Continuous
290
     0
370
    -3
390
F
  0
LAYER
  5
168
330
2
100
AcDbSymbolTableRecord
100
AcDbLayerTableRecord
  2
Title Block
 70
     0
 62
     7
  6
Continuous
370
    -3
390
F
  0
LAYER
  5
AD1
330
2
100
AcDbSymbolTableRecord
100
AcDbLayerTableRecord
  2
图层1
 70
     0
 62
     7
  6
HIDDEN2
370
    -3
390
F
  0
LAYER
  5
AD2
330
2
100
AcDbSymbolTableRecord
100
AcDbLayerTableRecord
  2
图层2
 70
     0
 62
     7
  6
Continuous
370
    -3
390
F
  0
ENDTAB
  0
TABLE
  2
STYLE
  5
3
330
0
100
AcDbSymbolTable
 70
     3
  0
STYLE
  5
11
330
3
100
AcDbSymbolTableRecord
100
AcDbTextStyleTableRecord
  2
Standard
 70
     0
 40
0.0
 41
1.0
 50
0.0
 71
     0
 42
0.2
  3
TIMES.TTF
  4

1001
ACAD
1000
Times New Roman
1071
       18
  0
STYLE
  5
169
330
3
100
AcDbSymbolTableRecord
100
AcDbTextStyleTableRecord
  2
Roman
 70
     0
 40
0.0
 41
1.0
 50
0.0
 71
     0
 42
0.065
  3
romans
  4

  0
STYLE
  5
ACF
330
3
100
AcDbSymbolTableRecord
100
AcDbTextStyleTableRecord
  2

 70
     1
 40
0.0
 41
1.0
 50
0.0
 71
     0
 42
0.2
  3
ltypeshp.shx
  4

  0
ENDTAB
  0
TABLE
  2
VIEW
  5
6
330
0
100
AcDbSymbolTable
 70
     0
  0
ENDTAB
  0
TABLE
  2
UCS
  5
7
330
0
100
AcDbSymbolTable
 70
     0
  0
ENDTAB
  0
TABLE
  2
APPID
  5
9
330
0
100
AcDbSymbolTable
 70
     2
  0
APPID
  5
12
330
9
100
AcDbSymbolTableRecord
100
AcDbRegAppTableRecord
  2
ACAD
 70
     0
  0
APPID
  5
1B68
330
9
100
AcDbSymbolTableRecord
100
AcDbRegAppTableRecord
  2
DCO15
 70
     0
  0
ENDTAB
  0
TABLE
  2
DIMSTYLE
  5
A
330
0
100
AcDbSymbolTable
 70
     2
100
AcDbDimStyleTable
 71
     2
340
16A
340
27
  0
DIMSTYLE
105
27
330
A
100
AcDbSymbolTableRecord
100
AcDbDimStyleTableRecord
  2
Standard
 70
     0
340
11
  0
DIMSTYLE
105
16A
102
{ACAD_REACTORS
330
17A3
330
17A0
330
179D
330
179A
330
1797
330
1794
330
1791
330
178E
330
178B
330
1788
330
1785
330
1782
330
177F
330
19BF
330
19D7
330
19EF
330
1A0D
330
1A1C
330
1A2B
102
}
330
A
100
AcDbSymbolTableRecord
100
AcDbDimStyleTableRecord
  2
ISO-25
 70
     0
 41
25.0
 42
0.625
 43
3.75
 44
1.25
 73
     0
 74
     0
 77
     1
 78
     8
140
25.0
141
12.0
143
0.03937007874016
147
3.0
171
     3
172
     1
176
   256
177
   256
271
     2
272
     2
274
     3
278
    44
283
     0
284
     8
340
11
371
     9
372
     9
  0
ENDTAB
  0
TABLE
  2
BLOCK_RECORD
  5
1
330
0
100
AcDbSymbolTable
 70
    43
  0
BLOCK_RECORD
  5
1F
330
1
100
AcDbSymbolTableRecord
100
AcDbBlockTableRecord
  2
*Model_Space
340
22
  0
BLOCK_RECORD
  5
58
330
1
100
AcDbSymbolTableRecord
100
AcDbBlockTableRecord
  2
*Paper_Space
340
59
  0
BLOCK_RECORD
  5
5D
330
1
100
AcDbSymbolTableRecord
100
AcDbBlockTableRecord
  2
*Paper_Space0
340
5E
  0
BLOCK_RECORD
  5
15F6
330
1
100
AcDbSymbolTableRecord
100
AcDbBlockTableRecord
  2
*D1
340
0
  0
BLOCK_RECORD
  5
160E
330
1
100
AcDbSymbolTableRecord
100
AcDbBlockTableRecord
  2
*D2
340
0
  0
BLOCK_RECORD
  5
1626
330
1
100
AcDbSymbolTableRecord
100
AcDbBlockTableRecord
  2
*D3
340
0
  0
BLOCK_RECORD
  5
163E
330
1
100
AcDbSymbolTableRecord
100
AcDbBlockTableRecord
  2
*D4
340
0
  0
BLOCK_RECORD
  5
164E
330
1
100
AcDbSymbolTableRecord
100
AcDbBlockTableRecord
  2
*D5
340
0
  0
BLOCK_RECORD
  5
165E
330
1
100
AcDbSymbolTableRecord
100
AcDbBlockTableRecord
  2
*D6
340
0
  0
BLOCK_RECORD
  5
166E
330
1
100
AcDbSymbolTableRecord
100
AcDbBlockTableRecord
  2
*D7
340
0
  0
BLOCK_RECORD
  5
167E
330
1
100
AcDbSymbolTableRecord
100
AcDbBlockTableRecord
  2
*D8
340
0
  0
BLOCK_RECORD
  5
168E
330
1
100
AcDbSymbolTableRecord
100
AcDbBlockTableRecord
  2
*D9
340
0
  0
BLOCK_RECORD
  5
169E
330
1
100
AcDbSymbolTableRecord
100
AcDbBlockTableRecord
  2
*D10
340
0
  0
BLOCK_RECORD
  5
16AE
330
1
100
AcDbSymbolTableRecord
100
AcDbBlockTableRecord
  2
*D11
340
0
  0
BLOCK_RECORD
  5
16BE
330
1
100
AcDbSymbolTableRecord
100
AcDbBlockTableRecord
  2
*D12
340
0
  0
BLOCK_RECORD
  5
16CE
330
1
100
AcDbSymbolTableRecord
100
AcDbBlockTableRecord
  2
*D13
340
0
  0
BLOCK_RECORD
  5
16DE
330
1
100
AcDbSymbolTableRecord
100
AcDbBlockTableRecord
  2
*D14
340
0
  0
BLOCK_RECORD
  5
16F2
330
1
100
AcDbSymbolTableRecord
100
AcDbBlockTableRecord
  2
*D15
340
0
  0
BLOCK_RECORD
  5
17B6
330
1
100
AcDbSymbolTableRecord
100
AcDbBlockTableRecord
  2
*D16
340
0
  0
BLOCK_RECORD
  5
17C2
330
1
100
AcDbSymbolTableRecord
100
AcDbBlockTableRecord
  2
*D17
340
0
  0
BLOCK_RECORD
  5
17CE
330
1
100
AcDbSymbolTableRecord
100
AcDbBlockTableRecord
  2
*D18
340
0
  0
BLOCK_RECORD
  5
17DA
330
1
100
AcDbSymbolTableRecord
100
AcDbBlockTableRecord
  2
*D19
340
0
  0
BLOCK_RECORD
  5
17E2
330
1
100
AcDbSymbolTableRecord
100
AcDbBlockTableRecord
  2
*D20
340
0
  0
BLOCK_RECORD
  5
17EA
330
1
100
AcDbSymbolTableRecord
100
AcDbBlockTableRecord
  2
*D21
340
0
  0
BLOCK_RECORD
  5
17F2
330
1
100
AcDbSymbolTableRecord
100
AcDbBlockTableRecord
  2
*D22
340
0
  0
BLOCK_RECORD
  5
17FA
330
1
100
AcDbSymbolTableRecord
100
AcDbBlockTableRecord
  2
*D23
340
0
  0
BLOCK_RECORD
  5
1802
330
1
100
AcDbSymbolTableRecord
100
AcDbBlockTableRecord
  2
*D24
340
0
  0
BLOCK_RECORD
  5
180A
330
1
100
AcDbSymbolTableRecord
100
AcDbBlockTableRecord
  2
*D25
340
0
  0
BLOCK_RECORD
  5
1812
330
1
100
AcDbSymbolTableRecord
100
AcDbBlockTableRecord
  2
*D26
340
0
  0
BLOCK_RECORD
  5
181A
330
1
100
AcDbSymbolTableRecord
100
AcDbBlockTableRecord
  2
*D27
340
0
  0
BLOCK_RECORD
  5
1822
330
1
100
AcDbSymbolTableRecord
100
AcDbBlockTableRecord
  2
*D28
340
0
  0
BLOCK_RECORD
  5
182A
330
1
100
AcDbSymbolTableRecord
100
AcDbBlockTableRecord
  2
*D29
340
0
  0
BLOCK_RECORD
  5
1832
330
1
100
AcDbSymbolTableRecord
100
AcDbBlockTableRecord
  2
*D30
340
0
  0
BLOCK_RECORD
  5
190D
330
1
100
AcDbSymbolTableRecord
100
AcDbBlockTableRecord
  2
*D31
340
0
  0
BLOCK_RECORD
  5
1925
330
1
100
AcDbSymbolTableRecord
100
AcDbBlockTableRecord
  2
*D32
340
0
  0
BLOCK_RECORD
  5
193D
330
1
100
AcDbSymbolTableRecord
100
AcDbBlockTableRecord
  2
*D33
340
0
  0
BLOCK_RECORD
  5
198E
330
1
100
AcDbSymbolTableRecord
100
AcDbBlockTableRecord
  2
*D34
340
0
  0
BLOCK_RECORD
  5
199D
330
1
100
AcDbSymbolTableRecord
100
AcDbBlockTableRecord
  2
*D35
340
0
  0
BLOCK_RECORD
  5
19AC
330
1
100
AcDbSymbolTableRecord
100
AcDbBlockTableRecord
  2
*D36
340
0
  0
BLOCK_RECORD
  5
19C0
330
1
100
AcDbSymbolTableRecord
100
AcDbBlockTableRecord
  2
*D37
340
0
  0
BLOCK_RECORD
  5
19D8
330
1
100
AcDbSymbolTableRecord
100
AcDbBlockTableRecord
  2
*D38
340
0
  0
BLOCK_RECORD
  5
19F0
330
1
100
AcDbSymbolTableRecord
100
AcDbBlockTableRecord
  2
*D39
340
0
  0
BLOCK_RECORD
  5
1A0E
330
1
100
AcDbSymbolTableRecord
100
AcDbBlockTableRecord
  2
*D40
340
0
  0
BLOCK_RECORD
  5
1A1D
330
1
100
AcDbSymbolTableRecord
100
AcDbBlockTableRecord
  2
*D41
340
0
  0
BLOCK_RECORD
  5
1A2C
330
1
100
AcDbSymbolTableRecord
100
AcDbBlockTableRecord
  2
*D42
340
0
  0
ENDTAB
  0
ENDSEC
  0
SECTION
  2
BLOCKS
  0
BLOCK
  5
20
330
1F
100
AcDbEntity
  8
0
100
AcDbBlockBegin
  2
*Model_Space
 70
     0
 10
0.0
 20
0.0
 30
0.0
  3
*Model_Space
  1

  0
ENDBLK
  5
21
330
1F
100
AcDbEntity
  8
0
100
AcDbBlockEnd
  0
BLOCK
  5
5A
330
58
100
AcDbEntity
 67
     1
  8
0
100
AcDbBlockBegin
  2
*Paper_Space
 70
     0
 10
0.0
 20
0.0
 30
0.0
  3
*Paper_Space
  1

  0
ENDBLK
  5
5B
330
58
100
AcDbEntity
 67
     1
  8
0
100
AcDbBlockEnd
  0
BLOCK
  5
5F
330
5D
100
AcDbEntity
 67
     1
  8
0
100
AcDbBlockBegin
  2
*Paper_Space0
 70
     0
 10
0.0
 20
0.0
 30
0.0
  3
*Paper_Space0
  1

  0
ENDBLK
  5
60
330
5D
100
AcDbEntity
 67
     1
  8
0
100
AcDbBlockEnd
  0
BLOCK
  5
1600
330
15F6
100
AcDbEntity
  8
0
100
AcDbBlockBegin
  2
*D1
 70
     1
 10
0.0
 20
0.0
 30
0.0
  3
*D1
  1

  0
LINE
  5
1603
330
15F6
100
AcDbEntity
  8
图层2
370
     9
100
AcDbLine
 10
5194.984674744063
 20
2332.137042616768
 30
0.0
 11
5194.984674744063
 21
2004.67374718543
 31
0.0
  0
LINE
  5
1604
330
15F6
100
AcDbEntity
  8
图层2
370
     9
100
AcDbLine
 10
5966.984674744065
 20
2304.137042616765
 30
0.0
 11
5966.984674744065
 21
2004.67374718543
 31
0.0
  0
LINE
  5
1605
330
15F6
100
AcDbEntity
  8
图层2
370
     9
100
AcDbLine
 10
5219.984674744065
 20
2005.92374718543
 30
0.0
 11
5941.984674744062
 21
2005.92374718543
 31
0.0
  0
SOLID
  5
1606
330
15F6
100
AcDbEntity
  8
图层2
100
AcDbTrace
 10
5219.984674744065
 20
2010.090413852097
 30
0.0
 11
5219.984674744065
 21
2001.757080518764
 31
0.0
 12
5194.984674744063
 22
2005.92374718543
 32
0.0
 13
5194.984674744063
 23
2005.92374718543
 33
0.0
  0
SOLID
  5
1607
330
15F6
100
AcDbEntity
  8
图层2
100
AcDbTrace
 10
5941.984674744062
 20
2010.090413852097
 30
0.0
 11
5941.984674744062
 21
2001.757080518764
 31
0.0
 12
5966.984674744065
 22
2005.92374718543
 32
0.0
 13
5966.984674744065
 23
2005.92374718543
 33
0.0
  0
MTEXT
  5
1608
330
15F6
100
AcDbEntity
  8
图层2
 62
     0
100
AcDbMText
 10
5580.984674744065
 20
2021.676090372164
 30
0.0
 40
25.0
 41
0.0
 71
     5
 72
     1
  1
772
 73
     1
 44
1.0
1001
ACAD
1000
MTEXTBEGIN
1070
    73
1070
     1
1070
    44
1040
1.0
1070
    74
1070
     0
1000
MTEXTEND
  0
POINT
  5
1609
330
15F6
100
AcDbEntity
  8
Defpoints
 62
     0
100
AcDbPoint
 10
5194.984674744063
 20
2332.762042616769
 30
0.0
  0
POINT
  5
160A
330
15F6
100
AcDbEntity
  8
Defpoints
 62
     0
100
AcDbPoint
 10
5966.984674744065
 20
2304.762042616765
 30
0.0
  0
POINT
  5
160B
330
15F6
100
AcDbEntity
  8
Defpoints
 62
     0
100
AcDbPoint
 10
5966.984674744065
 20
2005.92374718543
 30
0.0
  0
ENDBLK
  5
1601
330
15F6
100
AcDbEntity
  8
0
100
AcDbBlockEnd
  0
BLOCK
  5
1618
330
160E
100
AcDbEntity
  8
0
100
AcDbBlockBegin
  2
*D2
 70
     1
 10
0.0
 20
0.0
 30
0.0
  3
*D2
  1

  0
LINE
  5
161B
330
160E
100
AcDbEntity
  8
图层2
370
     9
100
AcDbLine
 10
5398.359674744064
 20
2574.762042616767
 30
0.0
 11
5120.717604072313
 21
2574.762042616767
 31
0.0
  0
LINE
  5
161C
330
160E
100
AcDbEntity
  8
图层2
370
     9
100
AcDbLine
 10
5398.359674744064
 20
2090.762042616767
 30
0.0
 11
5120.717604072313
 21
2090.762042616767
 31
0.0
  0
LINE
  5
161D
330
160E
100
AcDbEntity
  8
图层2
370
     9
100
AcDbLine
 10
5121.967604072313
 20
2549.762042616767
 30
0.0
 11
5121.967604072313
 21
2115.762042616767
 31
0.0
  0
SOLID
  5
161E
330
160E
100
AcDbEntity
  8
图层2
100
AcDbTrace
 10
5117.800937405647
 20
2549.762042616768
 30
0.0
 11
5126.13427073898
 21
2549.762042616767
 31
0.0
 12
5121.967604072313
 22
2574.762042616767
 32
0.0
 13
5121.967604072313
 23
2574.762042616767
 33
0.0
  0
SOLID
  5
161F
330
160E
100
AcDbEntity
  8
图层2
100
AcDbTrace
 10
5117.800937405647
 20
2115.762042616768
 30
0.0
 11
5126.13427073898
 21
2115.762042616767
 31
0.0
 12
5121.967604072313
 22
2090.762042616767
 32
0.0
 13
5121.967604072313
 23
2090.762042616767
 33
0.0
  0
MTEXT
  5
1620
330
160E
100
AcDbEntity
  8
图层2
 62
     0
100
AcDbMText
 10
5106.251309912256
 20
2332.762042616768
 30
0.0
 40
25.0
 41
0.0
 71
     5
 72
     1
  1
484
 11
0.0000000000000001
 21
1.0
 31
0.0
 73
     1
 44
1.0
1001
ACAD
1000
MTEXTBEGIN
1070
    73
1070
     1
1070
    44
1040
1.0
1070
    74
1070
     0
1000
MTEXTEND
  0
POINT
  5
1621
330
160E
100
AcDbEntity
  8
Defpoints
 62
     0
100
AcDbPoint
 10
5398.984674744063
 20
2574.762042616767
 30
0.0
  0
POINT
  5
1622
330
160E
100
AcDbEntity
  8
Defpoints
 62
     0
100
AcDbPoint
 10
5398.984674744063
 20
2090.762042616767
 30
0.0
  0
POINT
  5
1623
330
160E
100
AcDbEntity
  8
Defpoints
 62
     0
100
AcDbPoint
 10
5121.967604072313
 20
2090.762042616767
 30
0.0
  0
ENDBLK
  5
1619
330
160E
100
AcDbEntity
  8
0
100
AcDbBlockEnd
  0
BLOCK
  5
1630
330
1626
100
AcDbEntity
  8
0
100
AcDbBlockBegin
  2
*D3
 70
     1
 10
0.0
 20
0.0
 30
0.0
  3
*D3
  1

  0
LINE
  5
1633
330
1626
100
AcDbEntity
  8
图层2
370
     9
100
AcDbLine
 10
5798.609674744064
 20
2518.762042616767
 30
0.0
 11
6049.440979341183
 21
2518.762042616767
 31
0.0
  0
LINE
  5
1634
330
1626
100
AcDbEntity
  8
图层2
370
     9
100
AcDbLine
 10
5798.609674744064
 20
2090.762042616767
 30
0.0
 11
6049.440979341183
 21
2090.762042616767
 31
0.0
  0
LINE
  5
1635
330
1626
100
AcDbEntity
  8
图层2
370
     9
100
AcDbLine
 10
6048.190979341183
 20
2493.762042616767
 30
0.0
 11
6048.190979341183
 21
2115.762042616767
 31
0.0
  0
SOLID
  5
1636
330
1626
100
AcDbEntity
  8
图层2
100
AcDbTrace
 10
6044.024312674516
 20
2493.762042616767
 30
0.0
 11
6052.35764600785
 21
2493.762042616767
 31
0.0
 12
6048.190979341183
 22
2518.762042616767
 32
0.0
 13
6048.190979341183
 23
2518.762042616767
 33
0.0
  0
SOLID
  5
1637
330
1626
100
AcDbEntity
  8
图层2
100
AcDbTrace
 10
6044.024312674516
 20
2115.762042616767
 30
0.0
 11
6052.35764600785
 21
2115.762042616767
 31
0.0
 12
6048.190979341183
 22
2090.762042616767
 32
0.0
 13
6048.190979341183
 23
2090.762042616767
 33
0.0
  0
MTEXT
  5
1638
330
1626
100
AcDbEntity
  8
图层2
 62
     0
100
AcDbMText
 10
6032.474685181125
 20
2304.762042616767
 30
0.0
 40
25.0
 41
0.0
 71
     5
 72
     1
  1
428
 11
0.0000000000000001
 21
1.0
 31
0.0
 73
     1
 44
1.0
1001
ACAD
1000
MTEXTBEGIN
1070
    73
1070
     1
1070
    44
1040
1.0
1070
    74
1070
     0
1000
MTEXTEND
  0
POINT
  5
1639
330
1626
100
AcDbEntity
  8
Defpoints
 62
     0
100
AcDbPoint
 10
5797.984674744062
 20
2518.762042616767
 30
0.0
  0
POINT
  5
163A
330
1626
100
AcDbEntity
  8
Defpoints
 62
     0
100
AcDbPoint
 10
5797.984674744062
 20
2090.762042616767
 30
0.0
  0
POINT
  5
163B
330
1626
100
AcDbEntity
  8
Defpoints
 62
     0
100
AcDbPoint
 10
6048.190979341183
 20
2090.762042616767
 30
0.0
  0
ENDBLK
  5
1631
330
1626
100
AcDbEntity
  8
0
100
AcDbBlockEnd
  0
BLOCK
  5
1644
330
163E
100
AcDbEntity
  8
0
100
AcDbBlockBegin
  2
*D4
 70
     1
 10
0.0
 20
0.0
 30
0.0
  3
*D4
  1

  0
LINE
  5
1647
330
163E
100
AcDbEntity
  8
图层2
370
     9
100
AcDbLine
 10
5311.320299363161
 20
2202.137823414411
 30
0.0
 11
5240.727706790514
 21
2147.166567361377
 31
0.0
  0
MTEXT
  5
1648
330
163E
100
AcDbEntity
  8
图层2
 62
     0
100
AcDbMText
 10
5276.208210477932
 20
2194.760710586835
 30
0.0
 40
25.0
 41
0.0
 71
     5
 72
     1
  1
R95
 11
0.7889951078451563
 21
0.6143994790007641
 31
0.0
 73
     1
 44
1.0
1001
ACAD
1000
MTEXTBEGIN
1070
    73
1070
     1
1070
    44
1040
1.0
1070
    74
1070
     0
1000
MTEXTEND
  0
SOLID
  5
1649
330
163E
100
AcDbEntity
  8
图层2
100
AcDbTrace
 10
5238.167708961344
 20
2150.454046977399
 30
0.0
 11
5243.287704619683
 21
2143.879087745355
 31
0.0
 12
5221.002829094384
 22
2131.806580386358
 32
0.0
 13
5221.002829094384
 23
2131.806580386358
 33
0.0
  0
POINT
  5
164A
330
163E
100
AcDbEntity
  8
Defpoints
 62
     0
100
AcDbPoint
 10
5221.002829094384
 20
2131.806580386358
 30
0.0
  0
POINT
  5
164B
330
163E
100
AcDbEntity
  8
Defpoints
 62
     0
100
AcDbPoint
 10
5295.95736433967
 20
2190.174530891429
 30
0.0
  0
ENDBLK
  5
1645
330
163E
100
AcDbEntity
  8
0
100
AcDbBlockEnd
  0
BLOCK
  5
1654
330
164E
100
AcDbEntity
  8
0
100
AcDbBlockBegin
  2
*D5
 70
     1
 10
0.0
 20
0.0
 30
0.0
  3
*D5
  1

  0
LINE
  5
1657
330
164E
100
AcDbEntity
  8
图层2
370
     9
100
AcDbLine
 10
5312.192659202781
 20
2464.599887313113
 30
0.0
 11
5237.591578496786
 21
2513.994541635959
 31
0.0
  0
MTEXT
  5
1658
330
164E
100
AcDbEntity
  8
图层2
 62
     0
100
AcDbMText
 10
5294.010996354579
 20
2495.530579442928
 30
0.0
 40
25.0
 41
0.0
 71
     5
 72
     1
  1
R95
 11
0.8337969406127093
 21
-0.5520712470550211
 31
0.0
 73
     1
 44
1.0
1001
ACAD
1000
MTEXTBEGIN
1070
    73
1070
     1
1070
    44
1040
1.0
1070
    74
1070
     0
1000
MTEXTEND
  0
SOLID
  5
1659
330
164E
100
AcDbEntity
  8
图层2
100
AcDbTrace
 10
5239.891875359514
 20
2517.468695555179
 30
0.0
 11
5235.291281634056
 21
2510.520387716738
 31
0.0
 12
5216.746654981466
 22
2527.796322812334
 32
0.0
 13
5216.746654981466
 23
2527.796322812334
 33
0.0
  0
POINT
  5
165A
330
164E
100
AcDbEntity
  8
Defpoints
 62
     0
100
AcDbPoint
 10
5216.746654981466
 20
2527.796322812334
 30
0.0
  0
POINT
  5
165B
330
164E
100
AcDbEntity
  8
Defpoints
 62
     0
100
AcDbPoint
 10
5295.957364339674
 20
2475.349554342106
 30
0.0
  0
ENDBLK
  5
1655
330
164E
100
AcDbEntity
  8
0
100
AcDbBlockEnd
  0
BLOCK
  5
1664
330
165E
100
AcDbEntity
  8
0
100
AcDbBlockBegin
  2
*D6
 70
     1
 10
0.0
 20
0.0
 30
0.0
  3
*D6
  1

  0
LINE
  5
1667
330
165E
100
AcDbEntity
  8
图层2
370
     9
100
AcDbLine
 10
5347.964539007564
 20
2372.388197491828
 30
0.0
 11
5220.498181209453
 21
2375.4549490912
 31
0.0
  0
MTEXT
  5
1668
330
165E
100
AcDbEntity
  8
图层2
 62
     0
100
AcDbMText
 10
5297.105757542809
 20
2389.332666465886
 30
0.0
 40
25.0
 41
0.0
 71
     5
 72
     1
  1
R1800
 11
0.9997107005828805
 21
-0.0240523416757359
 31
0.0
 73
     1
 44
1.0
1001
ACAD
1000
MTEXTBEGIN
1070
    73
1070
     1
1070
    44
1040
1.0
1070
    74
1070
     0
1000
MTEXTEND
  0
SOLID
  5
1669
330
165E
100
AcDbEntity
  8
图层2
100
AcDbTrace
 10
5220.598399299768
 20
2379.620410343628
 30
0.0
 11
5220.397963119137
 21
2371.289487838772
 31
0.0
 12
5195.505413694881
 22
2376.056257633094
 32
0.0
 13
5195.505413694881
 23
2376.056257633094
 33
0.0
  0
POINT
  5
166A
330
165E
100
AcDbEntity
  8
Defpoints
 62
     0
100
AcDbPoint
 10
5195.505413694881
 20
2376.056257633094
 30
0.0
  0
POINT
  5
166B
330
165E
100
AcDbEntity
  8
Defpoints
 62
     0
100
AcDbPoint
 10
6994.984674744067
 20
2332.762042616768
 30
0.0
  0
ENDBLK
  5
1665
330
165E
100
AcDbEntity
  8
0
100
AcDbBlockEnd
  0
BLOCK
  5
1674
330
166E
100
AcDbEntity
  8
0
100
AcDbBlockBegin
  2
*D7
 70
     1
 10
0.0
 20
0.0
 30
0.0
  3
*D7
  1

  0
LINE
  5
1677
330
166E
100
AcDbEntity
  8
图层2
370
     9
100
AcDbLine
 10
5419.341006983843
 20
2422.078225637737
 30
0.0
 11
5421.602885627307
 21
2549.561405864348
 31
0.0
  0
MTEXT
  5
1678
330
166E
100
AcDbEntity
  8
图层2
 62
     0
100
AcDbMText
 10
5404.536378129972
 20
2473.600586272628
 30
0.0
 40
25.0
 41
0.0
 71
     5
 72
     1
  1
R1300
 11
0.0177397732417538
 21
0.999842637841241
 31
0.0
 73
     1
 44
1.0
1001
ACAD
1000
MTEXTBEGIN
1070
    73
1070
     1
1070
    44
1040
1.0
1070
    74
1070
     0
1000
MTEXTEND
  0
SOLID
  5
1679
330
166E
100
AcDbEntity
  8
图层2
100
AcDbTrace
 10
5417.436874636301
 20
2549.635321586189
 30
0.0
 11
5425.768896618311
 21
2549.487490142508
 31
0.0
 12
5422.04637995835
 22
2574.557471810379
 32
0.0
 13
5422.04637995835
 23
2574.557471810379
 33
0.0
  0
POINT
  5
167A
330
166E
100
AcDbEntity
  8
Defpoints
 62
     0
100
AcDbPoint
 10
5422.04637995835
 20
2574.557471810379
 30
0.0
  0
POINT
  5
167B
330
166E
100
AcDbEntity
  8
Defpoints
 62
     0
100
AcDbPoint
 10
5398.98467474407
 20
1274.762042616768
 30
0.0
  0
ENDBLK
  5
1675
330
166E
100
AcDbEntity
  8
0
100
AcDbBlockEnd
  0
BLOCK
  5
1684
330
167E
100
AcDbEntity
  8
0
100
AcDbBlockBegin
  2
*D8
 70
     1
 10
0.0
 20
0.0
 30
0.0
  3
*D8
  1

  0
LINE
  5
1687
330
167E
100
AcDbEntity
  8
图层2
370
     9
100
AcDbLine
 10
5344.368519141442
 20
2244.565776861529
 30
0.0
 11
5338.299885829183
 21
2117.207035404926
 31
0.0
  0
MTEXT
  5
1688
330
167E
100
AcDbEntity
  8
图层2
 62
     0
100
AcDbMText
 10
5326.230668947336
 20
2194.120270904815
 30
0.0
 40
25.0
 41
0.0
 71
     5
 72
     1
  1
R1300
 11
0.0475959128744175
 21
0.9988666723230137
 31
0.0
 73
     1
 44
1.0
1001
ACAD
1000
MTEXTBEGIN
1070
    73
1070
     1
1070
    44
1040
1.0
1070
    74
1070
     0
1000
MTEXTEND
  0
SOLID
  5
1689
330
167E
100
AcDbEntity
  8
图层2
100
AcDbTrace
 10
5334.13794136117
 20
2117.405351708569
 30
0.0
 11
5342.461830297196
 21
2117.008719101282
 31
0.0
 12
5337.109988007323
 22
2092.23536859685
 32
0.0
 13
5337.109988007323
 23
2092.23536859685
 33
0.0
  0
POINT
  5
168A
330
167E
100
AcDbEntity
  8
Defpoints
 62
     0
100
AcDbPoint
 10
5337.109988007323
 20
2092.23536859685
 30
0.0
  0
POINT
  5
168B
330
167E
100
AcDbEntity
  8
Defpoints
 62
     0
100
AcDbPoint
 10
5398.984674744066
 20
3390.762042616774
 30
0.0
  0
ENDBLK
  5
1685
330
167E
100
AcDbEntity
  8
0
100
AcDbBlockEnd
  0
BLOCK
  5
1694
330
168E
100
AcDbEntity
  8
0
100
AcDbBlockBegin
  2
*D9
 70
     1
 10
0.0
 20
0.0
 30
0.0
  3
*D9
  1

  0
LINE
  5
1AA2
330
168E
100
AcDbEntity
  8
图层2
370
     9
100
AcDbLine
 10
5489.77063437368
 20
2460.207246996955
 30
0.0
 11
5546.019566394921
 21
2529.786056735597
 31
0.0
  0
MTEXT
  5
1AA3
330
168E
100
AcDbEntity
  8
图层2
 62
     0
100
AcDbMText
 10
5497.786568481894
 20
2495.1790267619
 30
0.0
 40
25.0
 41
0.0
 71
     5
 72
     1
  1
R95
 11
0.6286797320922961
 21
0.7776643199069628
 31
0.0
 73
     1
 44
1.0
1001
ACAD
1000
MTEXTBEGIN
1070
    73
1070
     1
1070
    44
1040
1.0
1070
    74
1070
     0
1000
MTEXTEND
  0
SOLID
  5
1AA4
330
168E
100
AcDbEntity
  8
图层2
100
AcDbTrace
 10
5542.779298395307
 20
2532.405555619315
 30
0.0
 11
5549.259834394531
 21
2527.16655785188
 31
0.0
 12
5561.736559697227
 22
2549.227664733271
 32
0.0
 13
5561.736559697227
 23
2549.227664733271
 33
0.0
  0
POINT
  5
1AA5
330
168E
100
AcDbEntity
  8
Defpoints
 62
     0
100
AcDbPoint
 10
5561.736559697227
 20
2549.227664733271
 30
0.0
  0
POINT
  5
1AA6
330
168E
100
AcDbEntity
  8
Defpoints
 62
     0
100
AcDbPoint
 10
5502.011985148453
 20
2475.349554342103
 30
0.0
  0
ENDBLK
  5
1695
330
168E
100
AcDbEntity
  8
0
100
AcDbBlockEnd
  0
BLOCK
  5
16A4
330
169E
100
AcDbEntity
  8
0
100
AcDbBlockBegin
  2
*D10
 70
     1
 10
0.0
 20
0.0
 30
0.0
  3
*D10
  1

  0
LINE
  5
16A7
330
169E
100
AcDbEntity
  8
图层2
370
     9
100
AcDbLine
 10
5856.702333197
 20
2406.892896265095
 30
0.0
 11
5913.952699557192
 21
2475.650068035023
 31
0.0
  0
MTEXT
  5
16A8
330
169E
100
AcDbEntity
  8
图层2
 62
     0
100
AcDbMText
 10
5865.251435282496
 20
2441.721893082971
 30
0.0
 40
25.0
 41
0.0
 71
     5
 72
     1
  1
R85
 11
0.6398725041023559
 21
0.7684810853194636
 31
0.0
 73
     1
 44
1.0
1001
ACAD
1000
MTEXTBEGIN
1070
    73
1070
     1
1070
    44
1040
1.0
1070
    74
1070
     0
1000
MTEXTEND
  0
SOLID
  5
16A9
330
169E
100
AcDbEntity
  8
图层2
100
AcDbTrace
 10
5910.750695035027
 20
2478.316203468782
 30
0.0
 11
5917.154704079355
 21
2472.983932601263
 31
0.0
 12
5929.949512159751
 22
2494.862095168011
 32
0.0
 13
5929.949512159751
 23
2494.862095168011
 33
0.0
  0
POINT
  5
16AA
330
169E
100
AcDbEntity
  8
Defpoints
 62
     0
100
AcDbPoint
 10
5929.949512159751
 20
2494.862095168011
 30
0.0
  0
POINT
  5
16AB
330
169E
100
AcDbEntity
  8
Defpoints
 62
     0
100
AcDbPoint
 10
5875.560349311051
 20
2429.541202915856
 30
0.0
  0
ENDBLK
  5
16A5
330
169E
100
AcDbEntity
  8
0
100
AcDbBlockEnd
  0
BLOCK
  5
16B4
330
16AE
100
AcDbEntity
  8
0
100
AcDbBlockBegin
  2
*D11
 70
     1
 10
0.0
 20
0.0
 30
0.0
  3
*D11
  1

  0
LINE
  5
16B7
330
16AE
100
AcDbEntity
  8
图层2
370
     9
100
AcDbLine
 10
5814.223906636629
 20
2329.071482976909
 30
0.0
 11
5941.698536496119
 21
2331.772608274803
 31
0.0
  0
MTEXT
  5
16B8
330
16AE
100
AcDbEntity
  8
图层2
 62
     0
100
AcDbMText
 10
5865.131080964637
 20
2345.87000323407
 30
0.0
 40
25.0
 41
0.0
 71
     5
 72
     1
  1
R1300
 11
0.9997755778447478
 21
0.0211847573788537
 31
0.0
 73
     1
 44
1.0
1001
ACAD
1000
MTEXTBEGIN
1070
    73
1070
     1
1070
    44
1040
1.0
1070
    74
1070
     0
1000
MTEXTEND
  0
SOLID
  5
16B9
330
16AE
100
AcDbEntity
  8
图层2
100
AcDbTrace
 10
5941.610266673706
 20
2335.938339849156
 30
0.0
 11
5941.786806318528
 21
2327.60687670045
 31
0.0
 12
5966.692925942236
 22
2332.302227209274
 32
0.0
 13
5966.692925942236
 23
2332.302227209274
 33
0.0
  0
POINT
  5
16BA
330
16AE
100
AcDbEntity
  8
Defpoints
 62
     0
100
AcDbPoint
 10
5966.692925942236
 20
2332.302227209274
 30
0.0
  0
POINT
  5
16BB
330
16AE
100
AcDbEntity
  8
Defpoints
 62
     0
100
AcDbPoint
 10
4666.984674744067
 20
2304.762042616764
 30
0.0
  0
ENDBLK
  5
16B5
330
16AE
100
AcDbEntity
  8
0
100
AcDbBlockEnd
  0
BLOCK
  5
16C4
330
16BE
100
AcDbEntity
  8
0
100
AcDbBlockBegin
  2
*D12
 70
     1
 10
0.0
 20
0.0
 30
0.0
  3
*D12
  1

  0
LINE
  5
16C7
330
16BE
100
AcDbEntity
  8
图层2
370
     9
100
AcDbLine
 10
5856.781657411096
 20
2202.697003397553
 30
0.0
 11
5913.791206270107
 21
2133.740027992102
 31
0.0
  0
MTEXT
  5
16C8
330
16BE
100
AcDbEntity
  8
图层2
 62
     0
100
AcDbMText
 10
5889.434441663826
 20
2187.866566911982
 30
0.0
 40
25.0
 41
0.0
 71
     5
 72
     1
  1
R85
 11
0.6371809493174453
 21
-0.770714238759684
 31
0.0
 73
     1
 44
1.0
1001
ACAD
1000
MTEXTBEGIN
1070
    73
1070
     1
1070
    44
1040
1.0
1070
    74
1070
     0
1000
MTEXTEND
  0
SOLID
  5
16C9
330
16BE
100
AcDbEntity
  8
图层2
100
AcDbTrace
 10
5917.002515598273
 20
2136.394948614258
 30
0.0
 11
5910.579896941943
 21
2131.085107369946
 31
0.0
 12
5929.720730003044
 22
2114.47217202311
 32
0.0
 13
5929.720730003044
 23
2114.47217202311
 33
0.0
  0
POINT
  5
16CA
330
16BE
100
AcDbEntity
  8
Defpoints
 62
     0
100
AcDbPoint
 10
5929.720730003044
 20
2114.47217202311
 30
0.0
  0
POINT
  5
16CB
330
16BE
100
AcDbEntity
  8
Defpoints
 62
     0
100
AcDbPoint
 10
5875.560349311061
 20
2179.982882317681
 30
0.0
  0
ENDBLK
  5
16C5
330
16BE
100
AcDbEntity
  8
0
100
AcDbBlockEnd
  0
BLOCK
  5
16D4
330
16CE
100
AcDbEntity
  8
0
100
AcDbBlockBegin
  2
*D13
 70
     1
 10
0.0
 20
0.0
 30
0.0
  3
*D13
  1

  0
LINE
  5
16D7
330
16CE
100
AcDbEntity
  8
图层2
370
     9
100
AcDbLine
 10
5832.761607941247
 20
2225.71685249956
 30
0.0
 11
5838.456132240056
 21
2116.819498800916
 31
0.0
  0
MTEXT
  5
16D8
330
16CE
100
AcDbEntity
  8
图层2
 62
     0
100
AcDbMText
 10
5850.650954558902
 20
2184.571844203517
 30
0.0
 40
25.0
 41
0.0
 71
     5
 72
     1
  1
R800
 11
0.0522212354787074
 21
-0.9986355404075489
 31
0.0
 73
     1
 44
1.0
1001
ACAD
1000
MTEXTBEGIN
1070
    73
1070
     1
1070
    44
1040
1.0
1070
    74
1070
     0
1000
MTEXTEND
  0
SOLID
  5
16D9
330
16CE
100
AcDbEntity
  8
图层2
100
AcDbTrace
 10
5842.617113658421
 20
2117.037087282076
 30
0.0
 11
5834.295150821692
 21
2116.601910319754
 31
0.0
 12
5839.761663127023
 22
2091.853610290726
 32
0.0
 13
5839.761663127023
 23
2091.853610290726
 33
0.0
  0
POINT
  5
16DA
330
16CE
100
AcDbEntity
  8
Defpoints
 62
     0
100
AcDbPoint
 10
5839.761663127023
 20
2091.853610290726
 30
0.0
  0
POINT
  5
16DB
330
16CE
100
AcDbEntity
  8
Defpoints
 62
     0
100
AcDbPoint
 10
5797.984674744059
 20
2890.762042616763
 30
0.0
  0
ENDBLK
  5
16D5
330
16CE
100
AcDbEntity
  8
0
100
AcDbBlockEnd
  0
BLOCK
  5
16E4
330
16DE
100
AcDbEntity
  8
0
100
AcDbBlockBegin
  2
*D14
 70
     1
 10
0.0
 20
0.0
 30
0.0
  3
*D14
  1

  0
LINE
  5
16E7
330
16DE
100
AcDbEntity
  8
图层2
370
     9
100
AcDbLine
 10
5828.742265116059
 20
2384.00523921117
 30
0.0
 11
5833.778644970283
 21
2492.935015340205
 31
0.0
  0
MTEXT
  5
16E8
330
16DE
100
AcDbEntity
  8
图层2
 62
     0
100
AcDbMText
 10
5814.983610142635
 20
2426.709335541736
 30
0.0
 40
25.0
 41
0.0
 71
     5
 72
     1
  1
R800
 11
0.0461857680338058
 21
0.9989328680302433
 31
0.0
 73
     1
 44
1.0
1001
ACAD
1000
MTEXTBEGIN
1070
    73
1070
     1
1070
    44
1040
1.0
1070
    74
1070
     0
1000
MTEXTEND
  0
SOLID
  5
16E9
330
16DE
100
AcDbEntity
  8
图层2
100
AcDbTrace
 10
5829.616424686824
 20
2493.127456040346
 30
0.0
 11
5837.940865253742
 21
2492.742574640064
 31
0.0
 12
5834.933289171129
 22
2517.908337040962
 32
0.0
 13
5834.933289171129
 23
2517.908337040962
 33
0.0
  0
POINT
  5
16EA
330
16DE
100
AcDbEntity
  8
Defpoints
 62
     0
100
AcDbPoint
 10
5834.933289171129
 20
2517.908337040962
 30
0.0
  0
POINT
  5
16EB
330
16DE
100
AcDbEntity
  8
Defpoints
 62
     0
100
AcDbPoint
 10
5797.984674744085
 20
1718.76204261677
 30
0.0
  0
ENDBLK
  5
16E5
330
16DE
100
AcDbEntity
  8
0
100
AcDbBlockEnd
  0
BLOCK
  5
16FC
330
16F2
100
AcDbEntity
  8
0
100
AcDbBlockBegin
  2
*D15
 70
     1
 10
0.0
 20
0.0
 30
0.0
  3
*D15
  1

  0
LINE
  5
16FF
330
16F2
100
AcDbEntity
  8
图层2
370
     9
100
AcDbLine
 10
5586.51261154733
 20
2519.387042616767
 30
0.0
 11
5586.51261154733
 21
2641.169107529659
 31
0.0
  0
LINE
  5
1700
330
16F2
100
AcDbEntity
  8
图层2
370
     9
100
AcDbLine
 10
5194.984674744063
 20
2333.387042616768
 30
0.0
 11
5194.984674744063
 21
2641.169107529659
 31
0.0
  0
LINE
  5
1701
330
16F2
100
AcDbEntity
  8
图层2
370
     9
100
AcDbLine
 10
5561.512611547329
 20
2639.919107529659
 30
0.0
 11
5219.984674744065
 21
2639.919107529659
 31
0.0
  0
SOLID
  5
1702
330
16F2
100
AcDbEntity
  8
图层2
100
AcDbTrace
 10
5561.512611547329
 20
2644.085774196325
 30
0.0
 11
5561.512611547329
 21
2635.752440862992
 31
0.0
 12
5586.51261154733
 22
2639.919107529659
 32
0.0
 13
5586.51261154733
 23
2639.919107529659
 33
0.0
  0
SOLID
  5
1703
330
16F2
100
AcDbEntity
  8
图层2
100
AcDbTrace
 10
5219.984674744065
 20
2644.085774196325
 30
0.0
 11
5219.984674744065
 21
2635.752440862992
 31
0.0
 12
5194.984674744063
 22
2639.919107529659
 32
0.0
 13
5194.984674744063
 23
2639.919107529659
 33
0.0
  0
MTEXT
  5
1704
330
16F2
100
AcDbEntity
  8
图层2
 62
     0
100
AcDbMText
 10
5390.748643145697
 20
2658.492287053811
 30
0.0
 40
25.0
 41
0.0
 71
     5
 72
     1
  1
391,53
 73
     1
 44
1.0
1001
ACAD
1000
MTEXTBEGIN
1070
    73
1070
     1
1070
    44
1040
1.0
1070
    74
1070
     0
1000
MTEXTEND
  0
POINT
  5
1705
330
16F2
100
AcDbEntity
  8
Defpoints
 62
     0
100
AcDbPoint
 10
5586.51261154733
 20
2518.762042616767
 30
0.0
  0
POINT
  5
1706
330
16F2
100
AcDbEntity
  8
Defpoints
 62
     0
100
AcDbPoint
 10
5194.984674744063
 20
2332.762042616769
 30
0.0
  0
POINT
  5
1707
330
16F2
100
AcDbEntity
  8
Defpoints
 62
     0
100
AcDbPoint
 10
5194.984674744063
 20
2639.919107529659
 30
0.0
  0
ENDBLK
  5
16FD
330
16F2
100
AcDbEntity
  8
0
100
AcDbBlockEnd
  0
BLOCK
  5
17C0
330
17B6
100
AcDbEntity
  8
0
100
AcDbBlockBegin
  2
*D16
 70
     1
 10
0.0
 20
0.0
 30
0.0
  3
*D16
  1

  0
LINE
  5
17B7
330
17B6
100
AcDbEntity
  8
图层2
370
     9
100
AcDbLine
 10
8856.818940939254
 20
2332.137042616768
 30
0.0
 11
8856.818940939254
 21
2004.67374718543
 31
0.0
  0
LINE
  5
17B8
330
17B6
100
AcDbEntity
  8
图层2
370
     9
100
AcDbLine
 10
8084.818940939255
 20
2304.137042616765
 30
0.0
 11
8084.818940939255
 21
2004.67374718543
 31
0.0
  0
LINE
  5
17B9
330
17B6
100
AcDbEntity
  8
图层2
370
     9
100
AcDbLine
 10
8831.818940939255
 20
2005.92374718543
 30
0.0
 11
8109.818940939254
 21
2005.92374718543
 31
0.0
  0
SOLID
  5
17BA
330
17B6
100
AcDbEntity
  8
图层2
100
AcDbTrace
 10
8831.818940939255
 20
2010.090413852097
 30
0.0
 11
8831.818940939255
 21
2001.757080518764
 31
0.0
 12
8856.818940939254
 22
2005.92374718543
 32
0.0
 13
8856.818940939254
 23
2005.92374718543
 33
0.0
  0
SOLID
  5
17BB
330
17B6
100
AcDbEntity
  8
图层2
100
AcDbTrace
 10
8109.818940939254
 20
2010.090413852097
 30
0.0
 11
8109.818940939254
 21
2001.757080518764
 31
0.0
 12
8084.818940939255
 22
2005.92374718543
 32
0.0
 13
8084.818940939255
 23
2005.92374718543
 33
0.0
  0
MTEXT
  5
17BC
330
17B6
100
AcDbEntity
  8
图层2
 62
     0
100
AcDbMText
 10
8470.818940939254
 20
2021.676090372164
 30
0.0
 40
25.0
 41
0.0
 71
     5
 72
     1
  1
772
 73
     1
 44
1.0
1001
ACAD
1000
MTEXTBEGIN
1070
    73
1070
     1
1070
    44
1040
1.0
1070
    74
1070
     0
1000
MTEXTEND
  0
POINT
  5
17BD
330
17B6
100
AcDbEntity
  8
Defpoints
 62
     0
100
AcDbPoint
 10
8856.818940939254
 20
2332.762042616769
 30
0.0
  0
POINT
  5
17BE
330
17B6
100
AcDbEntity
  8
Defpoints
 62
     0
100
AcDbPoint
 10
8084.818940939255
 20
2304.762042616765
 30
0.0
  0
POINT
  5
17BF
330
17B6
100
AcDbEntity
  8
Defpoints
 62
     0
100
AcDbPoint
 10
8084.818940939255
 20
2005.92374718543
 30
0.0
  0
ENDBLK
  5
17C1
330
17B6
100
AcDbEntity
  8
0
100
AcDbBlockEnd
  0
BLOCK
  5
17CC
330
17C2
100
AcDbEntity
  8
0
100
AcDbBlockBegin
  2
*D17
 70
     1
 10
0.0
 20
0.0
 30
0.0
  3
*D17
  1

  0
LINE
  5
17C3
330
17C2
100
AcDbEntity
  8
图层2
370
     9
100
AcDbLine
 10
8653.443940939254
 20
2574.762042616767
 30
0.0
 11
8931.086011611006
 21
2574.762042616767
 31
0.0
  0
LINE
  5
17C4
330
17C2
100
AcDbEntity
  8
图层2
370
     9
100
AcDbLine
 10
8653.443940939254
 20
2090.762042616767
 30
0.0
 11
8931.086011611006
 21
2090.762042616767
 31
0.0
  0
LINE
  5
17C5
330
17C2
100
AcDbEntity
  8
图层2
370
     9
100
AcDbLine
 10
8929.836011611007
 20
2549.762042616767
 30
0.0
 11
8929.836011611007
 21
2115.762042616767
 31
0.0
  0
SOLID
  5
17C6
330
17C2
100
AcDbEntity
  8
图层2
100
AcDbTrace
 10
8925.669344944338
 20
2549.762042616767
 30
0.0
 11
8934.002678277671
 21
2549.762042616767
 31
0.0
 12
8929.836011611007
 22
2574.762042616767
 32
0.0
 13
8929.836011611007
 23
2574.762042616767
 33
0.0
  0
SOLID
  5
17C7
330
17C2
100
AcDbEntity
  8
图层2
100
AcDbTrace
 10
8925.669344944338
 20
2115.762042616767
 30
0.0
 11
8934.002678277671
 21
2115.762042616767
 31
0.0
 12
8929.836011611007
 22
2090.762042616767
 32
0.0
 13
8929.836011611007
 23
2090.762042616767
 33
0.0
  0
MTEXT
  5
17C8
330
17C2
100
AcDbEntity
  8
图层2
 62
     0
100
AcDbMText
 10
8914.119717450947
 20
2332.762042616769
 30
0.0
 40
25.0
 41
0.0
 71
     5
 72
     1
  1
484
 11
0.0000000000000001
 21
1.0
 31
0.0
 73
     1
 44
1.0
1001
ACAD
1000
MTEXTBEGIN
1070
    73
1070
     1
1070
    44
1040
1.0
1070
    74
1070
     0
1000
MTEXTEND
  0
POINT
  5
17C9
330
17C2
100
AcDbEntity
  8
Defpoints
 62
     0
100
AcDbPoint
 10
8652.818940939253
 20
2574.762042616767
 30
0.0
  0
POINT
  5
17CA
330
17C2
100
AcDbEntity
  8
Defpoints
 62
     0
100
AcDbPoint
 10
8652.818940939253
 20
2090.762042616767
 30
0.0
  0
POINT
  5
17CB
330
17C2
100
AcDbEntity
  8
Defpoints
 62
     0
100
AcDbPoint
 10
8929.836011611007
 20
2090.762042616767
 30
0.0
  0
ENDBLK
  5
17CD
330
17C2
100
AcDbEntity
  8
0
100
AcDbBlockEnd
  0
BLOCK
  5
17D8
330
17CE
100
AcDbEntity
  8
0
100
AcDbBlockBegin
  2
*D18
 70
     1
 10
0.0
 20
0.0
 30
0.0
  3
*D18
  1

  0
LINE
  5
17CF
330
17CE
100
AcDbEntity
  8
图层2
370
     9
100
AcDbLine
 10
8253.193940939254
 20
2518.762042616767
 30
0.0
 11
8002.362636342137
 21
2518.762042616767
 31
0.0
  0
LINE
  5
17D0
330
17CE
100
AcDbEntity
  8
图层2
370
     9
100
AcDbLine
 10
8253.193940939254
 20
2090.762042616767
 30
0.0
 11
8002.362636342137
 21
2090.762042616767
 31
0.0
  0
LINE
  5
17D1
330
17CE
100
AcDbEntity
  8
图层2
370
     9
100
AcDbLine
 10
8003.612636342136
 20
2493.762042616767
 30
0.0
 11
8003.612636342136
 21
2115.762042616767
 31
0.0
  0
SOLID
  5
17D2
330
17CE
100
AcDbEntity
  8
图层2
100
AcDbTrace
 10
7999.445969675469
 20
2493.762042616767
 30
0.0
 11
8007.779303008803
 21
2493.762042616767
 31
0.0
 12
8003.612636342136
 22
2518.762042616767
 32
0.0
 13
8003.612636342136
 23
2518.762042616767
 33
0.0
  0
SOLID
  5
17D3
330
17CE
100
AcDbEntity
  8
图层2
100
AcDbTrace
 10
7999.445969675469
 20
2115.762042616767
 30
0.0
 11
8007.779303008803
 21
2115.762042616767
 31
0.0
 12
8003.612636342136
 22
2090.762042616767
 32
0.0
 13
8003.612636342136
 23
2090.762042616767
 33
0.0
  0
MTEXT
  5
17D4
330
17CE
100
AcDbEntity
  8
图层2
 62
     0
100
AcDbMText
 10
7987.896342182077
 20
2304.762042616768
 30
0.0
 40
25.0
 41
0.0
 71
     5
 72
     1
  1
428
 11
0.0000000000000001
 21
1.0
 31
0.0
 73
     1
 44
1.0
1001
ACAD
1000
MTEXTBEGIN
1070
    73
1070
     1
1070
    44
1040
1.0
1070
    74
1070
     0
1000
MTEXTEND
  0
POINT
  5
17D5
330
17CE
100
AcDbEntity
  8
Defpoints
 62
     0
100
AcDbPoint
 10
8253.818940939254
 20
2518.762042616767
 30
0.0
  0
POINT
  5
17D6
330
17CE
100
AcDbEntity
  8
Defpoints
 62
     0
100
AcDbPoint
 10
8253.818940939254
 20
2090.762042616767
 30
0.0
  0
POINT
  5
17D7
330
17CE
100
AcDbEntity
  8
Defpoints
 62
     0
100
AcDbPoint
 10
8003.612636342136
 20
2090.762042616767
 30
0.0
  0
ENDBLK
  5
17D9
330
17CE
100
AcDbEntity
  8
0
100
AcDbBlockEnd
  0
BLOCK
  5
17E0
330
17DA
100
AcDbEntity
  8
0
100
AcDbBlockBegin
  2
*D19
 70
     1
 10
0.0
 20
0.0
 30
0.0
  3
*D19
  1

  0
LINE
  5
17DB
330
17DA
100
AcDbEntity
  8
图层2
370
     9
100
AcDbLine
 10
8740.483316320158
 20
2202.137823414412
 30
0.0
 11
8811.075908892807
 21
2147.166567361377
 31
0.0
  0
MTEXT
  5
17DC
330
17DA
100
AcDbEntity
  8
图层2
 62
     0
100
AcDbMText
 10
8775.595405205386
 20
2194.760710586837
 30
0.0
 40
25.0
 41
0.0
 71
     5
 72
     1
  1
R95
 11
0.788995107845159
 21
-0.6143994790007607
 31
0.0
 73
     1
 44
1.0
1001
ACAD
1000
MTEXTBEGIN
1070
    73
1070
     1
1070
    44
1040
1.0
1070
    74
1070
     0
1000
MTEXTEND
  0
SOLID
  5
17DD
330
17DA
100
AcDbEntity
  8
图层2
100
AcDbTrace
 10
8813.635906721978
 20
2150.454046977399
 30
0.0
 11
8808.515911063638
 21
2143.879087745355
 31
0.0
 12
8830.800786588936
 22
2131.806580386359
 32
0.0
 13
8830.800786588936
 23
2131.806580386359
 33
0.0
  0
POINT
  5
17DE
330
17DA
100
AcDbEntity
  8
Defpoints
 62
     0
100
AcDbPoint
 10
8830.800786588936
 20
2131.806580386359
 30
0.0
  0
POINT
  5
17DF
330
17DA
100
AcDbEntity
  8
Defpoints
 62
     0
100
AcDbPoint
 10
8755.846251343646
 20
2190.174530891429
 30
0.0
  0
ENDBLK
  5
17E1
330
17DA
100
AcDbEntity
  8
0
100
AcDbBlockEnd
  0
BLOCK
  5
17E8
330
17E2
100
AcDbEntity
  8
0
100
AcDbBlockBegin
  2
*D20
 70
     1
 10
0.0
 20
0.0
 30
0.0
  3
*D20
  1

  0
LINE
  5
17E3
330
17E2
100
AcDbEntity
  8
图层2
370
     9
100
AcDbLine
 10
8739.610956480538
 20
2464.599887313112
 30
0.0
 11
8814.212037186534
 21
2513.994541635959
 31
0.0
  0
MTEXT
  5
17E4
330
17E2
100
AcDbEntity
  8
图层2
 62
     0
100
AcDbMText
 10
8757.792619328737
 20
2495.530579442928
 30
0.0
 40
25.0
 41
0.0
 71
     5
 72
     1
  1
R95
 11
0.8337969406127031
 21
0.5520712470550306
 31
0.0
 73
     1
 44
1.0
1001
ACAD
1000
MTEXTBEGIN
1070
    73
1070
     1
1070
    44
1040
1.0
1070
    74
1070
     0
1000
MTEXTEND
  0
SOLID
  5
17E5
330
17E2
100
AcDbEntity
  8
图层2
100
AcDbTrace
 10
8811.911740323806
 20
2517.468695555177
 30
0.0
 11
8816.512334049262
 21
2510.520387716739
 31
0.0
 12
8835.056960701852
 22
2527.796322812334
 32
0.0
 13
8835.056960701852
 23
2527.796322812334
 33
0.0
  0
POINT
  5
17E6
330
17E2
100
AcDbEntity
  8
Defpoints
 62
     0
100
AcDbPoint
 10
8835.056960701852
 20
2527.796322812334
 30
0.0
  0
POINT
  5
17E7
330
17E2
100
AcDbEntity
  8
Defpoints
 62
     0
100
AcDbPoint
 10
8755.846251343644
 20
2475.349554342106
 30
0.0
  0
ENDBLK
  5
17E9
330
17E2
100
AcDbEntity
  8
0
100
AcDbBlockEnd
  0
BLOCK
  5
17F0
330
17EA
100
AcDbEntity
  8
0
100
AcDbBlockBegin
  2
*D21
 70
     1
 10
0.0
 20
0.0
 30
0.0
  3
*D21
  1

  0
LINE
  5
17EB
330
17EA
100
AcDbEntity
  8
图层2
370
     9
100
AcDbLine
 10
8703.839076675754
 20
2372.388197491828
 30
0.0
 11
8831.305434473865
 21
2375.4549490912
 31
0.0
  0
MTEXT
  5
17EC
330
17EA
100
AcDbEntity
  8
图层2
 62
     0
100
AcDbMText
 10
8754.697858140509
 20
2389.332666465886
 30
0.0
 40
25.0
 41
0.0
 71
     5
 72
     1
  1
R1800
 11
0.9997107005828805
 21
0.0240523416757362
 31
0.0
 73
     1
 44
1.0
1001
ACAD
1000
MTEXTBEGIN
1070
    73
1070
     1
1070
    44
1040
1.0
1070
    74
1070
     0
1000
MTEXTEND
  0
SOLID
  5
17ED
330
17EA
100
AcDbEntity
  8
图层2
100
AcDbTrace
 10
8831.205216383549
 20
2379.620410343628
 30
0.0
 11
8831.405652564184
 21
2371.289487838772
 31
0.0
 12
8856.298201988437
 22
2376.056257633094
 32
0.0
 13
8856.298201988437
 23
2376.056257633094
 33
0.0
  0
POINT
  5
17EE
330
17EA
100
AcDbEntity
  8
Defpoints
 62
     0
100
AcDbPoint
 10
8856.298201988437
 20
2376.056257633094
 30
0.0
  0
POINT
  5
17EF
330
17EA
100
AcDbEntity
  8
Defpoints
 62
     0
100
AcDbPoint
 10
7056.81894093925
 20
2332.762042616768
 30
0.0
  0
ENDBLK
  5
17F1
330
17EA
100
AcDbEntity
  8
0
100
AcDbBlockEnd
  0
BLOCK
  5
17F8
330
17F2
100
AcDbEntity
  8
0
100
AcDbBlockBegin
  2
*D22
 70
     1
 10
0.0
 20
0.0
 30
0.0
  3
*D22
  1

  0
LINE
  5
17F3
330
17F2
100
AcDbEntity
  8
图层2
370
     9
100
AcDbLine
 10
8632.462608699478
 20
2422.078225637737
 30
0.0
 11
8630.200730056015
 21
2549.561405864348
 31
0.0
  0
MTEXT
  5
17F4
330
17F2
100
AcDbEntity
  8
图层2
 62
     0
100
AcDbMText
 10
8647.267237553348
 20
2473.600586272627
 30
0.0
 40
25.0
 41
0.0
 71
     5
 72
     1
  1
R1300
 11
0.0177397732417547
 21
-0.999842637841241
 31
0.0
 73
     1
 44
1.0
1001
ACAD
1000
MTEXTBEGIN
1070
    73
1070
     1
1070
    44
1040
1.0
1070
    74
1070
     0
1000
MTEXTEND
  0
SOLID
  5
17F5
330
17F2
100
AcDbEntity
  8
图层2
100
AcDbTrace
 10
8634.366741047019
 20
2549.635321586189
 30
0.0
 11
8626.03471906501
 21
2549.487490142507
 31
0.0
 12
8629.757235724971
 22
2574.557471810379
 32
0.0
 13
8629.757235724971
 23
2574.557471810379
 33
0.0
  0
POINT
  5
17F6
330
17F2
100
AcDbEntity
  8
Defpoints
 62
     0
100
AcDbPoint
 10
8629.757235724971
 20
2574.557471810379
 30
0.0
  0
POINT
  5
17F7
330
17F2
100
AcDbEntity
  8
Defpoints
 62
     0
100
AcDbPoint
 10
8652.818940939249
 20
1274.762042616768
 30
0.0
  0
ENDBLK
  5
17F9
330
17F2
100
AcDbEntity
  8
0
100
AcDbBlockEnd
  0
BLOCK
  5
1800
330
17FA
100
AcDbEntity
  8
0
100
AcDbBlockBegin
  2
*D23
 70
     1
 10
0.0
 20
0.0
 30
0.0
  3
*D23
  1

  0
LINE
  5
17FB
330
17FA
100
AcDbEntity
  8
图层2
370
     9
100
AcDbLine
 10
8707.435096541876
 20
2244.565776861529
 30
0.0
 11
8713.503729854133
 21
2117.207035404926
 31
0.0
  0
MTEXT
  5
17FC
330
17FA
100
AcDbEntity
  8
图层2
 62
     0
100
AcDbMText
 10
8725.572946735985
 20
2194.120270904815
 30
0.0
 40
25.0
 41
0.0
 71
     5
 72
     1
  1
R1300
 11
0.0475959128744168
 21
-0.9988666723230137
 31
0.0
 73
     1
 44
1.0
1001
ACAD
1000
MTEXTBEGIN
1070
    73
1070
     1
1070
    44
1040
1.0
1070
    74
1070
     0
1000
MTEXTEND
  0
SOLID
  5
17FD
330
17FA
100
AcDbEntity
  8
图层2
100
AcDbTrace
 10
8717.665674322146
 20
2117.405351708569
 30
0.0
 11
8709.34178538612
 21
2117.008719101282
 31
0.0
 12
8714.693627675991
 22
2092.23536859685
 32
0.0
 13
8714.693627675991
 23
2092.23536859685
 33
0.0
  0
POINT
  5
17FE
330
17FA
100
AcDbEntity
  8
Defpoints
 62
     0
100
AcDbPoint
 10
8714.693627675991
 20
2092.23536859685
 30
0.0
  0
POINT
  5
17FF
330
17FA
100
AcDbEntity
  8
Defpoints
 62
     0
100
AcDbPoint
 10
8652.818940939253
 20
3390.762042616774
 30
0.0
  0
ENDBLK
  5
1801
330
17FA
100
AcDbEntity
  8
0
100
AcDbBlockEnd
  0
BLOCK
  5
1808
330
1802
100
AcDbEntity
  8
0
100
AcDbBlockBegin
  2
*D24
 70
     1
 10
0.0
 20
0.0
 30
0.0
  3
*D24
  1

  0
LINE
  5
1AA8
330
1802
100
AcDbEntity
  8
图层2
370
     9
100
AcDbLine
 10
8562.032981309641
 20
2460.207246996955
 30
0.0
 11
8505.784049288399
 21
2529.786056735598
 31
0.0
  0
MTEXT
  5
1AA9
330
1802
100
AcDbEntity
  8
图层2
 62
     0
100
AcDbMText
 10
8554.01704720143
 20
2495.1790267619
 30
0.0
 40
25.0
 41
0.0
 71
     5
 72
     1
  1
R95
 11
0.628679732092308
 21
-0.7776643199069531
 31
0.0
 73
     1
 44
1.0
1001
ACAD
1000
MTEXTBEGIN
1070
    73
1070
     1
1070
    44
1040
1.0
1070
    74
1070
     0
1000
MTEXTEND
  0
SOLID
  5
1AAA
330
1802
100
AcDbEntity
  8
图层2
100
AcDbTrace
 10
8509.024317288011
 20
2532.405555619315
 30
0.0
 11
8502.543781288787
 21
2527.16655785188
 31
0.0
 12
8490.067055986093
 22
2549.227664733272
 32
0.0
 13
8490.067055986093
 23
2549.227664733272
 33
0.0
  0
POINT
  5
1AAB
330
1802
100
AcDbEntity
  8
Defpoints
 62
     0
100
AcDbPoint
 10
8490.067055986093
 20
2549.227664733272
 30
0.0
  0
POINT
  5
1AAC
330
1802
100
AcDbEntity
  8
Defpoints
 62
     0
100
AcDbPoint
 10
8549.791630534867
 20
2475.349554342103
 30
0.0
  0
ENDBLK
  5
1809
330
1802
100
AcDbEntity
  8
0
100
AcDbBlockEnd
  0
BLOCK
  5
1810
330
180A
100
AcDbEntity
  8
0
100
AcDbBlockBegin
  2
*D25
 70
     1
 10
0.0
 20
0.0
 30
0.0
  3
*D25
  1

  0
LINE
  5
180B
330
180A
100
AcDbEntity
  8
图层2
370
     9
100
AcDbLine
 10
8195.101282486321
 20
2406.892896265095
 30
0.0
 11
8137.850916126124
 21
2475.650068035023
 31
0.0
  0
MTEXT
  5
180C
330
180A
100
AcDbEntity
  8
图层2
 62
     0
100
AcDbMText
 10
8186.552180400823
 20
2441.721893082971
 30
0.0
 40
25.0
 41
0.0
 71
     5
 72
     1
  1
R85
 11
0.6398725041023591
 21
-0.7684810853194609
 31
0.0
 73
     1
 44
1.0
1001
ACAD
1000
MTEXTBEGIN
1070
    73
1070
     1
1070
    44
1040
1.0
1070
    74
1070
     0
1000
MTEXTEND
  0
SOLID
  5
180D
330
180A
100
AcDbEntity
  8
图层2
100
AcDbTrace
 10
8141.05292064829
 20
2478.316203468783
 30
0.0
 11
8134.64891160396
 21
2472.983932601263
 31
0.0
 12
8121.854103523567
 22
2494.862095168011
 32
0.0
 13
8121.854103523567
 23
2494.862095168011
 33
0.0
  0
POINT
  5
180E
330
180A
100
AcDbEntity
  8
Defpoints
 62
     0
100
AcDbPoint
 10
8121.854103523567
 20
2494.862095168011
 30
0.0
  0
POINT
  5
180F
330
180A
100
AcDbEntity
  8
Defpoints
 62
     0
100
AcDbPoint
 10
8176.243266372265
 20
2429.541202915856
 30
0.0
  0
ENDBLK
  5
1811
330
180A
100
AcDbEntity
  8
0
100
AcDbBlockEnd
  0
BLOCK
  5
1818
330
1812
100
AcDbEntity
  8
0
100
AcDbBlockBegin
  2
*D26
 70
     1
 10
0.0
 20
0.0
 30
0.0
  3
*D26
  1

  0
LINE
  5
1813
330
1812
100
AcDbEntity
  8
图层2
370
     9
100
AcDbLine
 10
8237.579709046691
 20
2329.071482976909
 30
0.0
 11
8110.105079187203
 21
2331.772608274803
 31
0.0
  0
MTEXT
  5
1814
330
1812
100
AcDbEntity
  8
图层2
 62
     0
100
AcDbMText
 10
8186.672534718679
 20
2345.87000323407
 30
0.0
 40
25.0
 41
0.0
 71
     5
 72
     1
  1
R1300
 11
0.9997755778447478
 21
-0.0211847573788537
 31
0.0
 73
     1
 44
1.0
1001
ACAD
1000
MTEXTBEGIN
1070
    73
1070
     1
1070
    44
1040
1.0
1070
    74
1070
     0
1000
MTEXTEND
  0
SOLID
  5
1815
330
1812
100
AcDbEntity
  8
图层2
100
AcDbTrace
 10
8110.193349009611
 20
2335.938339849155
 30
0.0
 11
8110.01680936479
 21
2327.60687670045
 31
0.0
 12
8085.110689741084
 22
2332.302227209274
 32
0.0
 13
8085.110689741084
 23
2332.302227209274
 33
0.0
  0
POINT
  5
1816
330
1812
100
AcDbEntity
  8
Defpoints
 62
     0
100
AcDbPoint
 10
8085.110689741084
 20
2332.302227209274
 30
0.0
  0
POINT
  5
1817
330
1812
100
AcDbEntity
  8
Defpoints
 62
     0
100
AcDbPoint
 10
9384.818940939252
 20
2304.762042616765
 30
0.0
  0
ENDBLK
  5
1819
330
1812
100
AcDbEntity
  8
0
100
AcDbBlockEnd
  0
BLOCK
  5
1820
330
181A
100
AcDbEntity
  8
0
100
AcDbBlockBegin
  2
*D27
 70
     1
 10
0.0
 20
0.0
 30
0.0
  3
*D27
  1

  0
LINE
  5
181B
330
181A
100
AcDbEntity
  8
图层2
370
     9
100
AcDbLine
 10
8195.021958272224
 20
2202.697003397552
 30
0.0
 11
8138.012409413212
 21
2133.740027992102
 31
0.0
  0
MTEXT
  5
181C
330
181A
100
AcDbEntity
  8
图层2
 62
     0
100
AcDbMText
 10
8162.369174019493
 20
2187.866566911981
 30
0.0
 40
25.0
 41
0.0
 71
     5
 72
     1
  1
R85
 11
0.6371809493174567
 21
0.7707142387596746
 31
0.0
 73
     1
 44
1.0
1001
ACAD
1000
MTEXTBEGIN
1070
    73
1070
     1
1070
    44
1040
1.0
1070
    74
1070
     0
1000
MTEXTEND
  0
SOLID
  5
181D
330
181A
100
AcDbEntity
  8
图层2
100
AcDbTrace
 10
8134.801100085047
 20
2136.394948614258
 30
0.0
 11
8141.223718741377
 21
2131.085107369946
 31
0.0
 12
8122.082885680276
 22
2114.47217202311
 32
0.0
 13
8122.082885680276
 23
2114.47217202311
 33
0.0
  0
POINT
  5
181E
330
181A
100
AcDbEntity
  8
Defpoints
 62
     0
100
AcDbPoint
 10
8122.082885680276
 20
2114.47217202311
 30
0.0
  0
POINT
  5
181F
330
181A
100
AcDbEntity
  8
Defpoints
 62
     0
100
AcDbPoint
 10
8176.243266372258
 20
2179.982882317681
 30
0.0
  0
ENDBLK
  5
1821
330
181A
100
AcDbEntity
  8
0
100
AcDbBlockEnd
  0
BLOCK
  5
1828
330
1822
100
AcDbEntity
  8
0
100
AcDbBlockBegin
  2
*D28
 70
     1
 10
0.0
 20
0.0
 30
0.0
  3
*D28
  1

  0
LINE
  5
1823
330
1822
100
AcDbEntity
  8
图层2
370
     9
100
AcDbLine
 10
8219.042007742073
 20
2225.71685249956
 30
0.0
 11
8213.347483443262
 21
2116.819498800915
 31
0.0
  0
MTEXT
  5
1824
330
1822
100
AcDbEntity
  8
图层2
 62
     0
100
AcDbMText
 10
8201.152661124419
 20
2184.571844203517
 30
0.0
 40
25.0
 41
0.0
 71
     5
 72
     1
  1
R800
 11
0.0522212354787054
 21
0.998635540407549
 31
0.0
 73
     1
 44
1.0
1001
ACAD
1000
MTEXTBEGIN
1070
    73
1070
     1
1070
    44
1040
1.0
1070
    74
1070
     0
1000
MTEXTEND
  0
SOLID
  5
1825
330
1822
100
AcDbEntity
  8
图层2
100
AcDbTrace
 10
8209.186502024897
 20
2117.037087282076
 30
0.0
 11
8217.508464861628
 21
2116.601910319754
 31
0.0
 12
8212.041952556296
 22
2091.853610290726
 32
0.0
 13
8212.041952556296
 23
2091.853610290726
 33
0.0
  0
POINT
  5
1826
330
1822
100
AcDbEntity
  8
Defpoints
 62
     0
100
AcDbPoint
 10
8212.041952556296
 20
2091.853610290726
 30
0.0
  0
POINT
  5
1827
330
1822
100
AcDbEntity
  8
Defpoints
 62
     0
100
AcDbPoint
 10
8253.818940939261
 20
2890.762042616763
 30
0.0
  0
ENDBLK
  5
1829
330
1822
100
AcDbEntity
  8
0
100
AcDbBlockEnd
  0
BLOCK
  5
1830
330
182A
100
AcDbEntity
  8
0
100
AcDbBlockBegin
  2
*D29
 70
     1
 10
0.0
 20
0.0
 30
0.0
  3
*D29
  1

  0
LINE
  5
182B
330
182A
100
AcDbEntity
  8
图层2
370
     9
100
AcDbLine
 10
8223.06135056726
 20
2384.00523921117
 30
0.0
 11
8218.024970713036
 21
2492.935015340205
 31
0.0
  0
MTEXT
  5
182C
330
182A
100
AcDbEntity
  8
图层2
 62
     0
100
AcDbMText
 10
8236.820005540684
 20
2426.709335541736
 30
0.0
 40
25.0
 41
0.0
 71
     5
 72
     1
  1
R800
 11
0.0461857680338045
 21
-0.9989328680302433
 31
0.0
 73
     1
 44
1.0
1001
ACAD
1000
MTEXTBEGIN
1070
    73
1070
     1
1070
    44
1040
1.0
1070
    74
1070
     0
1000
MTEXTEND
  0
SOLID
  5
182D
330
182A
100
AcDbEntity
  8
图层2
100
AcDbTrace
 10
8222.187190996494
 20
2493.127456040346
 30
0.0
 11
8213.862750429576
 21
2492.742574640064
 31
0.0
 12
8216.870326512189
 22
2517.908337040962
 32
0.0
 13
8216.870326512189
 23
2517.908337040962
 33
0.0
  0
POINT
  5
182E
330
182A
100
AcDbEntity
  8
Defpoints
 62
     0
100
AcDbPoint
 10
8216.870326512189
 20
2517.908337040962
 30
0.0
  0
POINT
  5
182F
330
182A
100
AcDbEntity
  8
Defpoints
 62
     0
100
AcDbPoint
 10
8253.818940939231
 20
1718.76204261677
 30
0.0
  0
ENDBLK
  5
1831
330
182A
100
AcDbEntity
  8
0
100
AcDbBlockEnd
  0
BLOCK
  5
183C
330
1832
100
AcDbEntity
  8
0
100
AcDbBlockBegin
  2
*D30
 70
     1
 10
0.0
 20
0.0
 30
0.0
  3
*D30
  1

  0
LINE
  5
1833
330
1832
100
AcDbEntity
  8
图层2
370
     9
100
AcDbLine
 10
8465.291004135989
 20
2519.387042616767
 30
0.0
 11
8465.291004135989
 21
2641.169107529659
 31
0.0
  0
LINE
  5
1834
330
1832
100
AcDbEntity
  8
图层2
370
     9
100
AcDbLine
 10
8856.818940939254
 20
2333.387042616768
 30
0.0
 11
8856.818940939254
 21
2641.169107529659
 31
0.0
  0
LINE
  5
1835
330
1832
100
AcDbEntity
  8
图层2
370
     9
100
AcDbLine
 10
8490.291004135992
 20
2639.919107529659
 30
0.0
 11
8831.818940939255
 21
2639.919107529659
 31
0.0
  0
SOLID
  5
1836
330
1832
100
AcDbEntity
  8
图层2
100
AcDbTrace
 10
8490.291004135992
 20
2644.085774196325
 30
0.0
 11
8490.291004135992
 21
2635.752440862992
 31
0.0
 12
8465.291004135989
 22
2639.919107529659
 32
0.0
 13
8465.291004135989
 23
2639.919107529659
 33
0.0
  0
SOLID
  5
1837
330
1832
100
AcDbEntity
  8
图层2
100
AcDbTrace
 10
8831.818940939255
 20
2644.085774196325
 30
0.0
 11
8831.818940939255
 21
2635.752440862992
 31
0.0
 12
8856.818940939254
 22
2639.919107529659
 32
0.0
 13
8856.818940939254
 23
2639.919107529659
 33
0.0
  0
MTEXT
  5
1838
330
1832
100
AcDbEntity
  8
图层2
 62
     0
100
AcDbMText
 10
8661.054972537625
 20
2658.492287053811
 30
0.0
 40
25.0
 41
0.0
 71
     5
 72
     1
  1
391,53
 73
     1
 44
1.0
1001
ACAD
1000
MTEXTBEGIN
1070
    73
1070
     1
1070
    44
1040
1.0
1070
    74
1070
     0
1000
MTEXTEND
  0
POINT
  5
1839
330
1832
100
AcDbEntity
  8
Defpoints
 62
     0
100
AcDbPoint
 10
8465.291004135989
 20
2518.762042616767
 30
0.0
  0
POINT
  5
183A
330
1832
100
AcDbEntity
  8
Defpoints
 62
     0
100
AcDbPoint
 10
8856.818940939254
 20
2332.762042616769
 30
0.0
  0
POINT
  5
183B
330
1832
100
AcDbEntity
  8
Defpoints
 62
     0
100
AcDbPoint
 10
8856.818940939254
 20
2639.919107529659
 30
0.0
  0
ENDBLK
  5
183D
330
1832
100
AcDbEntity
  8
0
100
AcDbBlockEnd
  0
BLOCK
  5
1917
330
190D
100
AcDbEntity
  8
0
100
AcDbBlockBegin
  2
*D31
 70
     1
 10
0.0
 20
0.0
 30
0.0
  3
*D31
  1

  0
LINE
  5
191A
330
190D
100
AcDbEntity
  8
图层2
370
     9
100
AcDbLine
 10
5973.984674744063
 20
2304.137042616765
 30
0.0
 11
5973.984674744063
 21
1956.374402490595
 31
0.0
  0
LINE
  5
191B
330
190D
100
AcDbEntity
  8
图层2
370
     9
100
AcDbLine
 10
5187.984674744065
 20
2332.137042616768
 30
0.0
 11
5187.984674744065
 21
1956.374402490595
 31
0.0
  0
LINE
  5
191C
330
190D
100
AcDbEntity
  8
图层2
370
     9
100
AcDbLine
 10
5948.984674744064
 20
1957.624402490595
 30
0.0
 11
5212.984674744063
 21
1957.624402490595
 31
0.0
  0
SOLID
  5
191D
330
190D
100
AcDbEntity
  8
图层2
100
AcDbTrace
 10
5948.984674744064
 20
1961.791069157262
 30
0.0
 11
5948.984674744064
 21
1953.457735823928
 31
0.0
 12
5973.984674744063
 22
1957.624402490595
 32
0.0
 13
5973.984674744063
 23
1957.624402490595
 33
0.0
  0
SOLID
  5
191E
330
190D
100
AcDbEntity
  8
图层2
100
AcDbTrace
 10
5212.984674744063
 20
1961.791069157262
 30
0.0
 11
5212.984674744063
 21
1953.457735823928
 31
0.0
 12
5187.984674744065
 22
1957.624402490595
 32
0.0
 13
5187.984674744065
 23
1957.624402490595
 33
0.0
  0
MTEXT
  5
191F
330
190D
100
AcDbEntity
  8
图层2
 62
     0
100
AcDbMText
 10
5580.984674744065
 20
1973.376745677329
 30
0.0
 40
25.0
 41
0.0
 71
     5
 72
     1
  1
786
 73
     1
 44
1.0
1001
ACAD
1000
MTEXTBEGIN
1070
    73
1070
     1
1070
    44
1040
1.0
1070
    74
1070
     0
1000
MTEXTEND
  0
POINT
  5
1920
330
190D
100
AcDbEntity
  8
Defpoints
 62
     0
100
AcDbPoint
 10
5973.984674744063
 20
2304.762042616765
 30
0.0
  0
POINT
  5
1921
330
190D
100
AcDbEntity
  8
Defpoints
 62
     0
100
AcDbPoint
 10
5187.984674744065
 20
2332.762042616769
 30
0.0
  0
POINT
  5
1922
330
190D
100
AcDbEntity
  8
Defpoints
 62
     0
100
AcDbPoint
 10
5187.984674744065
 20
1957.624402490595
 30
0.0
  0
ENDBLK
  5
1918
330
190D
100
AcDbEntity
  8
0
100
AcDbBlockEnd
  0
BLOCK
  5
192F
330
1925
100
AcDbEntity
  8
0
100
AcDbBlockBegin
  2
*D32
 70
     1
 10
0.0
 20
0.0
 30
0.0
  3
*D32
  1

  0
LINE
  5
1932
330
1925
100
AcDbEntity
  8
图层2
370
     9
100
AcDbLine
 10
5398.359674744064
 20
2581.762042616767
 30
0.0
 11
5080.903179418848
 21
2581.762042616768
 31
0.0
  0
LINE
  5
1933
330
1925
100
AcDbEntity
  8
图层2
370
     9
100
AcDbLine
 10
5398.359674744064
 20
2083.762042616767
 30
0.0
 11
5080.903179418848
 21
2083.762042616768
 31
0.0
  0
LINE
  5
1934
330
1925
100
AcDbEntity
  8
图层2
370
     9
100
AcDbLine
 10
5082.153179418849
 20
2556.762042616768
 30
0.0
 11
5082.153179418849
 21
2108.762042616767
 31
0.0
  0
SOLID
  5
1935
330
1925
100
AcDbEntity
  8
图层2
100
AcDbTrace
 10
5077.986512752182
 20
2556.762042616768
 30
0.0
 11
5086.319846085515
 21
2556.762042616768
 31
0.0
 12
5082.153179418849
 22
2581.762042616768
 32
0.0
 13
5082.153179418849
 23
2581.762042616768
 33
0.0
  0
SOLID
  5
1936
330
1925
100
AcDbEntity
  8
图层2
100
AcDbTrace
 10
5077.986512752182
 20
2108.762042616767
 30
0.0
 11
5086.319846085515
 21
2108.762042616767
 31
0.0
 12
5082.153179418849
 22
2083.762042616768
 32
0.0
 13
5082.153179418849
 23
2083.762042616768
 33
0.0
  0
MTEXT
  5
1937
330
1925
100
AcDbEntity
  8
图层2
 62
     0
100
AcDbMText
 10
5066.400836232115
 20
2332.762042616768
 30
0.0
 40
25.0
 41
0.0
 71
     5
 72
     1
  1
498
 11
0.0000000000000001
 21
1.0
 31
0.0
 73
     1
 44
1.0
1001
ACAD
1000
MTEXTBEGIN
1070
    73
1070
     1
1070
    44
1040
1.0
1070
    74
1070
     0
1000
MTEXTEND
  0
POINT
  5
1938
330
1925
100
AcDbEntity
  8
Defpoints
 62
     0
100
AcDbPoint
 10
5398.984674744063
 20
2581.762042616767
 30
0.0
  0
POINT
  5
1939
330
1925
100
AcDbEntity
  8
Defpoints
 62
     0
100
AcDbPoint
 10
5398.984674744063
 20
2083.762042616767
 30
0.0
  0
POINT
  5
193A
330
1925
100
AcDbEntity
  8
Defpoints
 62
     0
100
AcDbPoint
 10
5082.153179418849
 20
2083.762042616768
 30
0.0
  0
ENDBLK
  5
1930
330
1925
100
AcDbEntity
  8
0
100
AcDbBlockEnd
  0
BLOCK
  5
1947
330
193D
100
AcDbEntity
  8
0
100
AcDbBlockBegin
  2
*D33
 70
     1
 10
0.0
 20
0.0
 30
0.0
  3
*D33
  1

  0
LINE
  5
194A
330
193D
100
AcDbEntity
  8
图层2
370
     9
100
AcDbLine
 10
5798.609674744064
 20
2525.762042616767
 30
0.0
 11
6099.866893454917
 21
2525.762042616767
 31
0.0
  0
LINE
  5
194B
330
193D
100
AcDbEntity
  8
图层2
370
     9
100
AcDbLine
 10
5798.609674744064
 20
2083.762042616767
 30
0.0
 11
6099.866893454917
 21
2083.762042616767
 31
0.0
  0
LINE
  5
194C
330
193D
100
AcDbEntity
  8
图层2
370
     9
100
AcDbLine
 10
6098.616893454916
 20
2500.762042616767
 30
0.0
 11
6098.616893454916
 21
2108.762042616767
 31
0.0
  0
SOLID
  5
194D
330
193D
100
AcDbEntity
  8
图层2
100
AcDbTrace
 10
6094.45022678825
 20
2500.762042616767
 30
0.0
 11
6102.783560121585
 21
2500.762042616767
 31
0.0
 12
6098.616893454916
 22
2525.762042616767
 32
0.0
 13
6098.616893454916
 23
2525.762042616767
 33
0.0
  0
SOLID
  5
194E
330
193D
100
AcDbEntity
  8
图层2
100
AcDbTrace
 10
6094.45022678825
 20
2108.762042616767
 30
0.0
 11
6102.783560121585
 21
2108.762042616767
 31
0.0
 12
6098.616893454916
 22
2083.762042616767
 32
0.0
 13
6098.616893454916
 23
2083.762042616767
 33
0.0
  0
MTEXT
  5
194F
330
193D
100
AcDbEntity
  8
图层2
 62
     0
100
AcDbMText
 10
6083.116893454916
 20
2304.762042616768
 30
0.0
 40
25.0
 41
0.0
 71
     5
 72
     1
  1
442
 11
0.0000000000000001
 21
1.0
 31
0.0
 73
     1
 44
1.0
1001
ACAD
1000
MTEXTBEGIN
1070
    73
1070
     1
1070
    44
1040
1.0
1070
    74
1070
     0
1000
MTEXTEND
  0
POINT
  5
1950
330
193D
100
AcDbEntity
  8
Defpoints
 62
     0
100
AcDbPoint
 10
5797.984674744062
 20
2525.762042616767
 30
0.0
  0
POINT
  5
1951
330
193D
100
AcDbEntity
  8
Defpoints
 62
     0
100
AcDbPoint
 10
5797.984674744062
 20
2083.762042616767
 30
0.0
  0
POINT
  5
1952
330
193D
100
AcDbEntity
  8
Defpoints
 62
     0
100
AcDbPoint
 10
6098.616893454916
 20
2083.762042616767
 30
0.0
  0
ENDBLK
  5
1948
330
193D
100
AcDbEntity
  8
0
100
AcDbBlockEnd
  0
BLOCK
  5
199A
330
198E
100
AcDbEntity
  8
0
100
AcDbBlockBegin
  2
*D34
 70
     1
 10
0.0
 20
0.0
 30
0.0
  3
*D34
  1

  0
LINE
  5
198F
330
198E
100
AcDbEntity
  8
图层2
370
     9
100
AcDbLine
 10
5966.984674744065
 20
2025.391822958834
 30
0.0
 11
5966.984674744065
 21
2004.67374718543
 31
0.0
  0
LINE
  5
1990
330
198E
100
AcDbEntity
  8
图层2
370
     9
100
AcDbLine
 10
5973.984674744063
 20
2017.942765685486
 30
0.0
 11
5973.984674744063
 21
2004.67374718543
 31
0.0
  0
LINE
  5
1991
330
198E
100
AcDbEntity
  8
图层2
370
     9
100
AcDbLine
 10
5941.984674744062
 20
2005.92374718543
 30
0.0
 11
5916.984674744064
 21
2005.92374718543
 31
0.0
  0
LINE
  5
1992
330
198E
100
AcDbEntity
  8
图层2
370
     9
100
AcDbLine
 10
5998.984674744065
 20
2005.92374718543
 30
0.0
 11
6045.43168267485
 21
2005.92374718543
 31
0.0
  0
LINE
  5
1993
330
198E
100
AcDbEntity
  8
图层2
370
     9
100
AcDbLine
 10
5966.984674744065
 20
2005.92374718543
 30
0.0
 11
5973.984674744063
 21
2005.92374718543
 31
0.0
  0
SOLID
  5
1994
330
198E
100
AcDbEntity
  8
图层2
100
AcDbTrace
 10
5941.984674744062
 20
2010.090413852097
 30
0.0
 11
5941.984674744062
 21
2001.757080518764
 31
0.0
 12
5966.984674744065
 22
2005.92374718543
 32
0.0
 13
5966.984674744065
 23
2005.92374718543
 33
0.0
  0
SOLID
  5
1995
330
198E
100
AcDbEntity
  8
图层2
100
AcDbTrace
 10
5998.984674744065
 20
2010.090413852097
 30
0.0
 11
5998.984674744065
 21
2001.757080518764
 31
0.0
 12
5973.984674744063
 22
2005.92374718543
 32
0.0
 13
5973.984674744063
 23
2005.92374718543
 33
0.0
  0
MTEXT
  5
1996
330
198E
100
AcDbEntity
  8
图层2
 62
     0
100
AcDbMText
 10
6034.708178709458
 20
2021.676090372164
 30
0.0
 40
25.0
 41
0.0
 71
     5
 72
     1
  1
7
 73
     1
 44
1.0
1001
ACAD
1000
MTEXTBEGIN
1070
    73
1070
     1
1070
    44
1040
1.0
1070
    74
1070
     0
1000
MTEXTEND
  0
POINT
  5
1997
330
198E
100
AcDbEntity
  8
Defpoints
 62
     0
100
AcDbPoint
 10
5966.984674744065
 20
2026.016822958835
 30
0.0
  0
POINT
  5
1998
330
198E
100
AcDbEntity
  8
Defpoints
 62
     0
100
AcDbPoint
 10
5973.984674744063
 20
2018.567765685486
 30
0.0
  0
POINT
  5
1999
330
198E
100
AcDbEntity
  8
Defpoints
 62
     0
100
AcDbPoint
 10
5973.984674744063
 20
2005.92374718543
 30
0.0
  0
ENDBLK
  5
199B
330
198E
100
AcDbEntity
  8
0
100
AcDbBlockEnd
  0
BLOCK
  5
19A9
330
199D
100
AcDbEntity
  8
0
100
AcDbBlockBegin
  2
*D35
 70
     1
 10
0.0
 20
0.0
 30
0.0
  3
*D35
  1

  0
LINE
  5
199E
330
199D
100
AcDbEntity
  8
图层2
370
     9
100
AcDbLine
 10
6027.275707906749
 20
2518.762042616767
 30
0.0
 11
6049.440979341183
 21
2518.762042616767
 31
0.0
  0
LINE
  5
199F
330
199D
100
AcDbEntity
  8
图层2
370
     9
100
AcDbLine
 10
6027.275707906749
 20
2525.762042616767
 30
0.0
 11
6049.440979341183
 21
2525.762042616767
 31
0.0
  0
LINE
  5
19A0
330
199D
100
AcDbEntity
  8
图层2
370
     9
100
AcDbLine
 10
6048.190979341183
 20
2493.762042616767
 30
0.0
 11
6048.190979341183
 21
2468.762042616767
 31
0.0
  0
LINE
  5
19A1
330
199D
100
AcDbEntity
  8
图层2
370
     9
100
AcDbLine
 10
6048.190979341183
 20
2550.762042616767
 30
0.0
 11
6048.190979341183
 21
2597.209050547553
 31
0.0
  0
LINE
  5
19A2
330
199D
100
AcDbEntity
  8
图层2
370
     9
100
AcDbLine
 10
6048.190979341183
 20
2518.762042616767
 30
0.0
 11
6048.190979341183
 21
2525.762042616767
 31
0.0
  0
SOLID
  5
19A3
330
199D
100
AcDbEntity
  8
图层2
100
AcDbTrace
 10
6044.024312674516
 20
2493.762042616767
 30
0.0
 11
6052.35764600785
 21
2493.762042616767
 31
0.0
 12
6048.190979341183
 22
2518.762042616767
 32
0.0
 13
6048.190979341183
 23
2518.762042616767
 33
0.0
  0
SOLID
  5
19A4
330
199D
100
AcDbEntity
  8
图层2
100
AcDbTrace
 10
6044.024312674516
 20
2550.762042616767
 30
0.0
 11
6052.35764600785
 21
2550.762042616767
 31
0.0
 12
6048.190979341183
 22
2525.762042616767
 32
0.0
 13
6048.190979341183
 23
2525.762042616767
 33
0.0
  0
MTEXT
  5
19A5
330
199D
100
AcDbEntity
  8
图层2
 62
     0
100
AcDbMText
 10
6032.438636154449
 20
2586.485546582161
 30
0.0
 40
25.0
 41
0.0
 71
     5
 72
     1
  1
7
 11
0.0000000000000001
 21
1.0
 31
0.0
 73
     1
 44
1.0
1001
ACAD
1000
MTEXTBEGIN
1070
    73
1070
     1
1070
    44
1040
1.0
1070
    74
1070
     0
1000
MTEXTEND
  0
POINT
  5
19A6
330
199D
100
AcDbEntity
  8
Defpoints
 62
     0
100
AcDbPoint
 10
6026.650707906751
 20
2518.762042616767
 30
0.0
  0
POINT
  5
19A7
330
199D
100
AcDbEntity
  8
Defpoints
 62
     0
100
AcDbPoint
 10
6026.650707906751
 20
2525.762042616767
 30
0.0
  0
POINT
  5
19A8
330
199D
100
AcDbEntity
  8
Defpoints
 62
     0
100
AcDbPoint
 10
6048.190979341183
 20
2525.762042616767
 30
0.0
  0
ENDBLK
  5
19AA
330
199D
100
AcDbEntity
  8
0
100
AcDbBlockEnd
  0
BLOCK
  5
19B8
330
19AC
100
AcDbEntity
  8
0
100
AcDbBlockBegin
  2
*D36
 70
     1
 10
0.0
 20
0.0
 30
0.0
  3
*D36
  1

  0
LINE
  5
19AD
330
19AC
100
AcDbEntity
  8
图层2
370
     9
100
AcDbLine
 10
5136.776643362708
 20
2574.762042616767
 30
0.0
 11
5120.717604072313
 21
2574.762042616767
 31
0.0
  0
LINE
  5
19AE
330
19AC
100
AcDbEntity
  8
图层2
370
     9
100
AcDbLine
 10
5122.106186585559
 20
2581.762042616768
 30
0.0
 11
5120.717604072313
 21
2581.762042616768
 31
0.0
  0
LINE
  5
19AF
330
19AC
100
AcDbEntity
  8
图层2
370
     9
100
AcDbLine
 10
5121.967604072313
 20
2549.762042616767
 30
0.0
 11
5121.967604072313
 21
2524.762042616767
 31
0.0
  0
LINE
  5
19B0
330
19AC
100
AcDbEntity
  8
图层2
370
     9
100
AcDbLine
 10
5121.967604072313
 20
2606.762042616768
 30
0.0
 11
5121.967604072313
 21
2653.209050547553
 31
0.0
  0
LINE
  5
19B1
330
19AC
100
AcDbEntity
  8
图层2
370
     9
100
AcDbLine
 10
5121.967604072313
 20
2574.762042616767
 30
0.0
 11
5121.967604072313
 21
2581.762042616768
 31
0.0
  0
SOLID
  5
19B2
330
19AC
100
AcDbEntity
  8
图层2
100
AcDbTrace
 10
5117.800937405647
 20
2549.762042616768
 30
0.0
 11
5126.13427073898
 21
2549.762042616767
 31
0.0
 12
5121.967604072313
 22
2574.762042616767
 32
0.0
 13
5121.967604072313
 23
2574.762042616767
 33
0.0
  0
SOLID
  5
19B3
330
19AC
100
AcDbEntity
  8
图层2
100
AcDbTrace
 10
5117.800937405647
 20
2606.762042616768
 30
0.0
 11
5126.13427073898
 21
2606.762042616768
 31
0.0
 12
5121.967604072313
 22
2581.762042616768
 32
0.0
 13
5121.967604072313
 23
2581.762042616768
 33
0.0
  0
MTEXT
  5
19B4
330
19AC
100
AcDbEntity
  8
图层2
 62
     0
100
AcDbMText
 10
5106.21526088558
 20
2642.485546582161
 30
0.0
 40
25.0
 41
0.0
 71
     5
 72
     1
  1
7
 11
0.0000000000000001
 21
1.0
 31
0.0
 73
     1
 44
1.0
1001
ACAD
1000
MTEXTBEGIN
1070
    73
1070
     1
1070
    44
1040
1.0
1070
    74
1070
     0
1000
MTEXTEND
  0
POINT
  5
19B5
330
19AC
100
AcDbEntity
  8
Defpoints
 62
     0
100
AcDbPoint
 10
5137.401643362707
 20
2574.762042616767
 30
0.0
  0
POINT
  5
19B6
330
19AC
100
AcDbEntity
  8
Defpoints
 62
     0
100
AcDbPoint
 10
5122.731186585559
 20
2581.762042616768
 30
0.0
  0
POINT
  5
19B7
330
19AC
100
AcDbEntity
  8
Defpoints
 62
     0
100
AcDbPoint
 10
5121.967604072313
 20
2581.762042616768
 30
0.0
  0
ENDBLK
  5
19B9
330
19AC
100
AcDbEntity
  8
0
100
AcDbBlockEnd
  0
BLOCK
  5
19CA
330
19C0
100
AcDbEntity
  8
0
100
AcDbBlockBegin
  2
*D37
 70
     1
 10
0.0
 20
0.0
 30
0.0
  3
*D37
  1

  0
LINE
  5
1B8F
330
19C0
100
AcDbEntity
  8
图层2
370
     9
100
AcDbLine
 10
8080.818940939254
 20
2304.137042616761
 30
0.0
 11
8080.818940939254
 21
1961.038948343557
 31
0.0
  0
LINE
  5
1B90
330
19C0
100
AcDbEntity
  8
图层2
370
     9
100
AcDbLine
 10
8860.818940939257
 20
2332.13704261677
 30
0.0
 11
8860.818940939257
 21
1961.038948343557
 31
0.0
  0
LINE
  5
1B91
330
19C0
100
AcDbEntity
  8
图层2
370
     9
100
AcDbLine
 10
8105.818940939254
 20
1962.288948343557
 30
0.0
 11
8835.818940939256
 21
1962.288948343557
 31
0.0
  0
SOLID
  5
1B92
330
19C0
100
AcDbEntity
  8
图层2
100
AcDbTrace
 10
8105.818940939254
 20
1966.455615010224
 30
0.0
 11
8105.818940939254
 21
1958.12228167689
 31
0.0
 12
8080.818940939254
 22
1962.288948343557
 32
0.0
 13
8080.818940939254
 23
1962.288948343557
 33
0.0
  0
SOLID
  5
1B93
330
19C0
100
AcDbEntity
  8
图层2
100
AcDbTrace
 10
8835.818940939256
 20
1966.455615010224
 30
0.0
 11
8835.818940939256
 21
1958.12228167689
 31
0.0
 12
8860.818940939257
 22
1962.288948343557
 32
0.0
 13
8860.818940939257
 23
1962.288948343557
 33
0.0
  0
MTEXT
  5
1B94
330
19C0
100
AcDbEntity
  8
图层2
 62
     0
100
AcDbMText
 10
8470.818940939254
 20
1978.041291530291
 30
0.0
 40
25.0
 41
0.0
 71
     5
 72
     1
  1
780
 73
     1
 44
1.0
1001
ACAD
1000
MTEXTBEGIN
1070
    73
1070
     1
1070
    44
1040
1.0
1070
    74
1070
     0
1000
MTEXTEND
  0
POINT
  5
1B95
330
19C0
100
AcDbEntity
  8
Defpoints
 62
     0
100
AcDbPoint
 10
8080.818940939254
 20
2304.762042616761
 30
0.0
  0
POINT
  5
1B96
330
19C0
100
AcDbEntity
  8
Defpoints
 62
     0
100
AcDbPoint
 10
8860.818940939257
 20
2332.762042616769
 30
0.0
  0
POINT
  5
1B97
330
19C0
100
AcDbEntity
  8
Defpoints
 62
     0
100
AcDbPoint
 10
8860.818940939257
 20
1962.288948343557
 30
0.0
  0
ENDBLK
  5
19CB
330
19C0
100
AcDbEntity
  8
0
100
AcDbBlockEnd
  0
BLOCK
  5
19E2
330
19D8
100
AcDbEntity
  8
0
100
AcDbBlockBegin
  2
*D38
 70
     1
 10
0.0
 20
0.0
 30
0.0
  3
*D38
  1

  0
LINE
  5
1BD6
330
19D8
100
AcDbEntity
  8
图层2
370
     9
100
AcDbLine
 10
8253.193940939254
 20
2522.762042616767
 30
0.0
 11
7961.633397799508
 21
2522.762042616767
 31
0.0
  0
LINE
  5
1BD7
330
19D8
100
AcDbEntity
  8
图层2
370
     9
100
AcDbLine
 10
8253.193940939254
 20
2086.762042616767
 30
0.0
 11
7961.633397799508
 21
2086.762042616767
 31
0.0
  0
LINE
  5
1BD8
330
19D8
100
AcDbEntity
  8
图层2
370
     9
100
AcDbLine
 10
7962.883397799508
 20
2497.762042616767
 30
0.0
 11
7962.883397799508
 21
2111.762042616767
 31
0.0
  0
SOLID
  5
1BD9
330
19D8
100
AcDbEntity
  8
图层2
100
AcDbTrace
 10
7958.716731132843
 20
2497.762042616767
 30
0.0
 11
7967.050064466175
 21
2497.762042616767
 31
0.0
 12
7962.883397799508
 22
2522.762042616767
 32
0.0
 13
7962.883397799508
 23
2522.762042616767
 33
0.0
  0
SOLID
  5
1BDA
330
19D8
100
AcDbEntity
  8
图层2
100
AcDbTrace
 10
7958.716731132843
 20
2111.762042616767
 30
0.0
 11
7967.050064466175
 21
2111.762042616767
 31
0.0
 12
7962.883397799508
 22
2086.762042616767
 32
0.0
 13
7962.883397799508
 23
2086.762042616767
 33
0.0
  0
MTEXT
  5
1BDB
330
19D8
100
AcDbEntity
  8
图层2
 62
     0
100
AcDbMText
 10
7947.16710363945
 20
2304.762042616768
 30
0.0
 40
25.0
 41
0.0
 71
     5
 72
     1
  1
436
 11
0.0000000000000001
 21
1.0
 31
0.0
 73
     1
 44
1.0
1001
ACAD
1000
MTEXTBEGIN
1070
    73
1070
     1
1070
    44
1040
1.0
1070
    74
1070
     0
1000
MTEXTEND
  0
POINT
  5
1BDC
330
19D8
100
AcDbEntity
  8
Defpoints
 62
     0
100
AcDbPoint
 10
8253.818940939254
 20
2522.762042616767
 30
0.0
  0
POINT
  5
1BDD
330
19D8
100
AcDbEntity
  8
Defpoints
 62
     0
100
AcDbPoint
 10
8253.818940939254
 20
2086.762042616767
 30
0.0
  0
POINT
  5
1BDE
330
19D8
100
AcDbEntity
  8
Defpoints
 62
     0
100
AcDbPoint
 10
7962.883397799508
 20
2086.762042616767
 30
0.0
  0
ENDBLK
  5
19E3
330
19D8
100
AcDbEntity
  8
0
100
AcDbBlockEnd
  0
BLOCK
  5
19FA
330
19F0
100
AcDbEntity
  8
0
100
AcDbBlockBegin
  2
*D39
 70
     1
 10
0.0
 20
0.0
 30
0.0
  3
*D39
  1

  0
LINE
  5
1BB7
330
19F0
100
AcDbEntity
  8
图层2
370
     9
100
AcDbLine
 10
8653.443940939252
 20
2578.762042616767
 30
0.0
 11
8973.506819051095
 21
2578.762042616767
 31
0.0
  0
LINE
  5
1BB8
330
19F0
100
AcDbEntity
  8
图层2
370
     9
100
AcDbLine
 10
8653.443940939252
 20
2086.762042616767
 30
0.0
 11
8973.506819051095
 21
2086.762042616767
 31
0.0
  0
LINE
  5
1BB9
330
19F0
100
AcDbEntity
  8
图层2
370
     9
100
AcDbLine
 10
8972.256819051095
 20
2553.762042616767
 30
0.0
 11
8972.256819051095
 21
2111.762042616767
 31
0.0
  0
SOLID
  5
1BBA
330
19F0
100
AcDbEntity
  8
图层2
100
AcDbTrace
 10
8968.09015238443
 20
2553.762042616767
 30
0.0
 11
8976.423485717761
 21
2553.762042616767
 31
0.0
 12
8972.256819051095
 22
2578.762042616767
 32
0.0
 13
8972.256819051095
 23
2578.762042616767
 33
0.0
  0
SOLID
  5
1BBB
330
19F0
100
AcDbEntity
  8
图层2
100
AcDbTrace
 10
8968.09015238443
 20
2111.762042616767
 30
0.0
 11
8976.423485717761
 21
2111.762042616767
 31
0.0
 12
8972.256819051095
 22
2086.762042616767
 32
0.0
 13
8972.256819051095
 23
2086.762042616767
 33
0.0
  0
MTEXT
  5
1BBC
330
19F0
100
AcDbEntity
  8
图层2
 62
     0
100
AcDbMText
 10
8956.504475864361
 20
2332.762042616769
 30
0.0
 40
25.0
 41
0.0
 71
     5
 72
     1
  1
492
 11
0.0000000000000001
 21
1.0
 31
0.0
 73
     1
 44
1.0
1001
ACAD
1000
MTEXTBEGIN
1070
    73
1070
     1
1070
    44
1040
1.0
1070
    74
1070
     0
1000
MTEXTEND
  0
POINT
  5
1BBD
330
19F0
100
AcDbEntity
  8
Defpoints
 62
     0
100
AcDbPoint
 10
8652.818940939253
 20
2578.762042616767
 30
0.0
  0
POINT
  5
1BBE
330
19F0
100
AcDbEntity
  8
Defpoints
 62
     0
100
AcDbPoint
 10
8652.818940939253
 20
2086.762042616767
 30
0.0
  0
POINT
  5
1BBF
330
19F0
100
AcDbEntity
  8
Defpoints
 62
     0
100
AcDbPoint
 10
8972.256819051095
 20
2086.762042616767
 30
0.0
  0
ENDBLK
  5
19FB
330
19F0
100
AcDbEntity
  8
0
100
AcDbBlockEnd
  0
BLOCK
  5
1A1A
330
1A0E
100
AcDbEntity
  8
0
100
AcDbBlockBegin
  2
*D40
 70
     1
 10
0.0
 20
0.0
 30
0.0
  3
*D40
  1

  0
LINE
  5
1B98
330
1A0E
100
AcDbEntity
  8
图层2
370
     9
100
AcDbLine
 10
8856.818940939254
 20
2027.235835465639
 30
0.0
 11
8856.818940939254
 21
2004.67374718543
 31
0.0
  0
LINE
  5
1B99
330
1A0E
100
AcDbEntity
  8
图层2
370
     9
100
AcDbLine
 10
8860.818940939257
 20
2027.235835465639
 30
0.0
 11
8860.818940939257
 21
2004.67374718543
 31
0.0
  0
LINE
  5
1B9A
330
1A0E
100
AcDbEntity
  8
图层2
370
     9
100
AcDbLine
 10
8831.818940939255
 20
2005.92374718543
 30
0.0
 11
8806.818940939256
 21
2005.92374718543
 31
0.0
  0
LINE
  5
1B9B
330
1A0E
100
AcDbEntity
  8
图层2
370
     9
100
AcDbLine
 10
8885.818940939257
 20
2005.92374718543
 30
0.0
 11
8933.419517723683
 21
2005.92374718543
 31
0.0
  0
LINE
  5
1B9C
330
1A0E
100
AcDbEntity
  8
图层2
370
     9
100
AcDbLine
 10
8856.818940939254
 20
2005.92374718543
 30
0.0
 11
8860.818940939257
 21
2005.92374718543
 31
0.0
  0
SOLID
  5
1B9D
330
1A0E
100
AcDbEntity
  8
图层2
100
AcDbTrace
 10
8831.818940939255
 20
2010.090413852097
 30
0.0
 11
8831.818940939255
 21
2001.757080518764
 31
0.0
 12
8856.818940939254
 22
2005.92374718543
 32
0.0
 13
8856.818940939254
 23
2005.92374718543
 33
0.0
  0
SOLID
  5
1B9E
330
1A0E
100
AcDbEntity
  8
图层2
100
AcDbTrace
 10
8885.818940939257
 20
2010.090413852097
 30
0.0
 11
8885.818940939257
 21
2001.757080518764
 31
0.0
 12
8860.818940939257
 22
2005.92374718543
 32
0.0
 13
8860.818940939257
 23
2005.92374718543
 33
0.0
  0
MTEXT
  5
1B9F
330
1A0E
100
AcDbEntity
  8
图层2
 62
     0
100
AcDbMText
 10
8922.119229331469
 20
2021.42374718543
 30
0.0
 40
25.0
 41
0.0
 71
     5
 72
     1
  1
4
 73
     1
 44
1.0
1001
ACAD
1000
MTEXTBEGIN
1070
    73
1070
     1
1070
    44
1040
1.0
1070
    74
1070
     0
1000
MTEXTEND
  0
POINT
  5
1BA0
330
1A0E
100
AcDbEntity
  8
Defpoints
 62
     0
100
AcDbPoint
 10
8856.818940939254
 20
2027.860835465639
 30
0.0
  0
POINT
  5
1BA1
330
1A0E
100
AcDbEntity
  8
Defpoints
 62
     0
100
AcDbPoint
 10
8860.818940939257
 20
2027.860835465639
 30
0.0
  0
POINT
  5
1BA2
330
1A0E
100
AcDbEntity
  8
Defpoints
 62
     0
100
AcDbPoint
 10
8860.818940939257
 20
2005.92374718543
 30
0.0
  0
ENDBLK
  5
1A1B
330
1A0E
100
AcDbEntity
  8
0
100
AcDbBlockEnd
  0
BLOCK
  5
1A29
330
1A1D
100
AcDbEntity
  8
0
100
AcDbBlockBegin
  2
*D41
 70
     1
 10
0.0
 20
0.0
 30
0.0
  3
*D41
  1

  0
LINE
  5
1BCB
330
1A1D
100
AcDbEntity
  8
图层2
370
     9
100
AcDbLine
 10
8023.221067990114
 20
2090.762042616767
 30
0.0
 11
8002.362636342137
 21
2090.762042616767
 31
0.0
  0
LINE
  5
1BCC
330
1A1D
100
AcDbEntity
  8
图层2
370
     9
100
AcDbLine
 10
8023.221067990114
 20
2086.762042616767
 30
0.0
 11
8002.362636342137
 21
2086.762042616767
 31
0.0
  0
LINE
  5
1BCD
330
1A1D
100
AcDbEntity
  8
图层2
370
     9
100
AcDbLine
 10
8003.612636342136
 20
2115.762042616767
 30
0.0
 11
8003.612636342136
 21
2140.762042616767
 31
0.0
  0
LINE
  5
1BCE
330
1A1D
100
AcDbEntity
  8
图层2
370
     9
100
AcDbLine
 10
8003.612636342136
 20
2061.762042616767
 30
0.0
 11
8003.612636342136
 21
2014.16146583234
 31
0.0
  0
LINE
  5
1BCF
330
1A1D
100
AcDbEntity
  8
图层2
370
     9
100
AcDbLine
 10
8003.612636342136
 20
2090.762042616767
 30
0.0
 11
8003.612636342136
 21
2086.762042616767
 31
0.0
  0
SOLID
  5
1BD0
330
1A1D
100
AcDbEntity
  8
图层2
100
AcDbTrace
 10
7999.445969675469
 20
2115.762042616767
 30
0.0
 11
8007.779303008803
 21
2115.762042616767
 31
0.0
 12
8003.612636342136
 22
2090.762042616767
 32
0.0
 13
8003.612636342136
 23
2090.762042616767
 33
0.0
  0
SOLID
  5
1BD1
330
1A1D
100
AcDbEntity
  8
图层2
100
AcDbTrace
 10
7999.445969675469
 20
2061.762042616767
 30
0.0
 11
8007.779303008803
 21
2061.762042616767
 31
0.0
 12
8003.612636342136
 22
2086.762042616767
 32
0.0
 13
8003.612636342136
 23
2086.762042616767
 33
0.0
  0
MTEXT
  5
1BD2
330
1A1D
100
AcDbEntity
  8
图层2
 62
     0
100
AcDbMText
 10
7988.112636342136
 20
2025.461754224555
 30
0.0
 40
25.0
 41
0.0
 71
     5
 72
     1
  1
4
 11
0.0000000000000001
 21
1.0
 31
0.0
 73
     1
 44
1.0
1001
ACAD
1000
MTEXTBEGIN
1070
    73
1070
     1
1070
    44
1040
1.0
1070
    74
1070
     0
1000
MTEXTEND
  0
POINT
  5
1BD3
330
1A1D
100
AcDbEntity
  8
Defpoints
 62
     0
100
AcDbPoint
 10
8023.846067990115
 20
2090.762042616767
 30
0.0
  0
POINT
  5
1BD4
330
1A1D
100
AcDbEntity
  8
Defpoints
 62
     0
100
AcDbPoint
 10
8023.846067990115
 20
2086.762042616767
 30
0.0
  0
POINT
  5
1BD5
330
1A1D
100
AcDbEntity
  8
Defpoints
 62
     0
100
AcDbPoint
 10
8003.612636342136
 20
2086.762042616767
 30
0.0
  0
ENDBLK
  5
1A2A
330
1A1D
100
AcDbEntity
  8
0
100
AcDbBlockEnd
  0
BLOCK
  5
1A38
330
1A2C
100
AcDbEntity
  8
0
100
AcDbBlockBegin
  2
*D42
 70
     1
 10
0.0
 20
0.0
 30
0.0
  3
*D42
  1

  0
LINE
  5
1BAC
330
1A2C
100
AcDbEntity
  8
图层2
370
     9
100
AcDbLine
 10
8907.623562196329
 20
2574.762042616767
 30
0.0
 11
8931.086011611007
 21
2574.762042616767
 31
0.0
  0
LINE
  5
1BAD
330
1A2C
100
AcDbEntity
  8
图层2
370
     9
100
AcDbLine
 10
8907.623562196329
 20
2578.762042616767
 30
0.0
 11
8931.086011611007
 21
2578.762042616767
 31
0.0
  0
LINE
  5
1BAE
330
1A2C
100
AcDbEntity
  8
图层2
370
     9
100
AcDbLine
 10
8929.836011611007
 20
2549.762042616767
 30
0.0
 11
8929.836011611007
 21
2524.762042616767
 31
0.0
  0
LINE
  5
1BAF
330
1A2C
100
AcDbEntity
  8
图层2
370
     9
100
AcDbLine
 10
8929.836011611007
 20
2603.762042616767
 30
0.0
 11
8929.836011611007
 21
2651.362619401194
 31
0.0
  0
LINE
  5
1BB0
330
1A2C
100
AcDbEntity
  8
图层2
370
     9
100
AcDbLine
 10
8929.836011611007
 20
2574.762042616767
 30
0.0
 11
8929.836011611007
 21
2578.762042616767
 31
0.0
  0
SOLID
  5
1BB1
330
1A2C
100
AcDbEntity
  8
图层2
100
AcDbTrace
 10
8925.669344944344
 20
2549.762042616767
 30
0.0
 11
8934.002678277673
 21
2549.762042616767
 31
0.0
 12
8929.836011611007
 22
2574.762042616767
 32
0.0
 13
8929.836011611007
 23
2574.762042616767
 33
0.0
  0
SOLID
  5
1BB2
330
1A2C
100
AcDbEntity
  8
图层2
100
AcDbTrace
 10
8925.669344944344
 20
2603.762042616767
 30
0.0
 11
8934.002678277673
 21
2603.762042616767
 31
0.0
 12
8929.836011611007
 22
2578.762042616767
 32
0.0
 13
8929.836011611007
 23
2578.762042616767
 33
0.0
  0
MTEXT
  5
1BB3
330
1A2C
100
AcDbEntity
  8
图层2
 62
     0
100
AcDbMText
 10
8914.336011611007
 20
2640.062331008982
 30
0.0
 40
25.0
 41
0.0
 71
     5
 72
     1
  1
4
 11
0.0000000000000001
 21
1.0
 31
0.0
 73
     1
 44
1.0
1001
ACAD
1000
MTEXTBEGIN
1070
    73
1070
     1
1070
    44
1040
1.0
1070
    74
1070
     0
1000
MTEXTEND
  0
POINT
  5
1BB4
330
1A2C
100
AcDbEntity
  8
Defpoints
 62
     0
100
AcDbPoint
 10
8906.99856219633
 20
2574.762042616767
 30
0.0
  0
POINT
  5
1BB5
330
1A2C
100
AcDbEntity
  8
Defpoints
 62
     0
100
AcDbPoint
 10
8906.99856219633
 20
2578.762042616767
 30
0.0
  0
POINT
  5
1BB6
330
1A2C
100
AcDbEntity
  8
Defpoints
 62
     0
100
AcDbPoint
 10
8929.836011611007
 20
2578.762042616767
 30
0.0
  0
ENDBLK
  5
1A39
330
1A2C
100
AcDbEntity
  8
0
100
AcDbBlockEnd
  0
ENDSEC
  0
SECTION
  2
ENTITIES
  0
DIMENSION
  5
177F
102
{ACAD_XDICTIONARY
360
1780
102
}
102
{ACAD_REACTORS
330
1781
102
}
330
1F
100
AcDbEntity
  8
图层2
100
AcDbDimension
  2
*D28
 10
8253.818940939261
 20
2890.762042616763
 30
0.0
 11
8216.847511036155
 21
2183.751119905332
 31
0.0
 70
   164
 71
     5
 42
799.9999999999959
  3
ISO-25
100
AcDbRadialDimension
 15
8212.041952556296
 25
2091.853610290726
 35
0.0
 40
0.0
1001
ACAD
1000
DSTYLE
1002
{
1070
   288
1070
     1
1002
}
  0
DIMENSION
  5
1782
102
{ACAD_XDICTIONARY
360
1783
102
}
102
{ACAD_REACTORS
330
1784
102
}
330
1F
100
AcDbEntity
  8
图层2
100
AcDbDimension
  2
*D27
 10
8176.243266372258
 20
2179.982882317681
 30
0.0
 11
8174.481945709185
 21
2177.852443679324
 31
0.0
 70
   164
 71
     5
 42
84.99999999999818
  3
ISO-25
100
AcDbRadialDimension
 15
8122.082885680276
 25
2114.47217202311
 35
0.0
 40
0.0
1001
ACAD
1000
DSTYLE
1002
{
1070
   288
1070
     1
1002
}
  0
DIMENSION
  5
1785
102
{ACAD_XDICTIONARY
360
1786
102
}
102
{ACAD_REACTORS
330
1787
102
}
330
1F
100
AcDbEntity
  8
图层2
100
AcDbDimension
  2
*D26
 10
9384.818940939252
 20
2304.762042616765
 30
0.0
 11
8186.339588840006
 21
2330.157236158621
 31
0.0
 70
   164
 71
     5
 42
1299.999999999995
  3
ISO-25
100
AcDbRadialDimension
 15
8085.110689741084
 25
2332.302227209274
 35
0.0
 40
0.0
1001
ACAD
1000
DSTYLE
1002
{
1070
   288
1070
     1
1002
}
  0
DIMENSION
  5
1788
102
{ACAD_XDICTIONARY
360
1789
102
}
102
{ACAD_REACTORS
330
178A
102
}
330
1F
100
AcDbEntity
  8
图层2
100
AcDbDimension
  2
*D25
 10
8176.243266372265
 20
2429.541202915856
 30
0.0
 11
8174.474505607504
 21
2431.665468583566
 31
0.0
 70
   164
 71
     5
 42
84.99999999999909
  3
ISO-25
100
AcDbRadialDimension
 15
8121.854103523567
 25
2494.862095168011
 35
0.0
 40
0.0
1001
ACAD
1000
DSTYLE
1002
{
1070
   288
1070
     1
1002
}
  0
DIMENSION
  5
178B
102
{ACAD_XDICTIONARY
360
178C
102
}
102
{ACAD_REACTORS
330
178D
102
}
330
1F
100
AcDbEntity
  8
图层2
100
AcDbDimension
  2
*D24
 10
8549.791630534867
 20
2475.349554342103
 30
0.0
 11
8541.767011950176
 21
2485.275847867439
 31
0.0
 70
   164
 71
     5
 42
95.00000000000818
  3
ISO-25
100
AcDbRadialDimension
 15
8490.067055986093
 25
2549.227664733272
 35
0.0
 40
0.0
1001
ACAD
1000
DSTYLE
1002
{
1070
   288
1070
     1
1002
}
  0
DIMENSION
  5
178E
102
{ACAD_XDICTIONARY
360
178F
102
}
102
{ACAD_REACTORS
330
1790
102
}
330
1F
100
AcDbEntity
  8
图层2
100
AcDbDimension
  2
*D23
 10
8652.818940939253
 20
3390.762042616774
 30
0.0
 11
8709.874464287075
 21
2193.372239537264
 31
0.0
 70
   164
 71
     5
 42
1300.000000000006
  3
ISO-25
100
AcDbRadialDimension
 15
8714.693627675991
 25
2092.23536859685
 35
0.0
 40
0.0
1001
ACAD
1000
DSTYLE
1002
{
1070
   288
1070
     1
1002
}
  0
DIMENSION
  5
1791
102
{ACAD_XDICTIONARY
360
1792
102
}
102
{ACAD_REACTORS
330
1793
102
}
330
1F
100
AcDbEntity
  8
图层2
100
AcDbDimension
  2
*D22
 10
8652.818940939249
 20
1274.762042616768
 30
0.0
 11
8631.553416543267
 21
2473.321782778028
 31
0.0
 70
   164
 71
     5
 42
1299.999999999997
  3
ISO-25
100
AcDbRadialDimension
 15
8629.757235724971
 25
2574.557471810379
 35
0.0
 40
0.0
1001
ACAD
1000
DSTYLE
1002
{
1070
   288
1070
     1
1002
}
  0
DIMENSION
  5
1794
102
{ACAD_XDICTIONARY
360
1795
102
}
102
{ACAD_REACTORS
330
1796
102
}
330
1F
100
AcDbEntity
  8
图层2
100
AcDbDimension
  2
*D21
 10
7056.81894093925
 20
2332.762042616768
 30
0.0
 11
8755.075871817524
 21
2373.620919020567
 31
0.0
 70
   164
 71
     5
 42
1800.000000000001
  3
ISO-25
100
AcDbRadialDimension
 15
8856.298201988437
 25
2376.056257633094
 35
0.0
 40
0.0
1001
ACAD
1000
DSTYLE
1002
{
1070
   288
1070
     1
1002
}
  0
DIMENSION
  5
1797
102
{ACAD_XDICTIONARY
360
1798
102
}
102
{ACAD_REACTORS
330
1799
102
}
330
1F
100
AcDbEntity
  8
图层2
100
AcDbDimension
  2
*D20
 10
8755.846251343644
 20
2475.349554342106
 30
0.0
 11
8766.489035075876
 21
2482.396323886348
 31
0.0
 70
   164
 71
     5
 42
95.0
  3
ISO-25
100
AcDbRadialDimension
 15
8835.056960701852
 25
2527.796322812334
 35
0.0
 40
0.0
1001
ACAD
1000
DSTYLE
1002
{
1070
   288
1070
     1
1002
}
  0
DIMENSION
  5
179A
102
{ACAD_XDICTIONARY
360
179B
102
}
102
{ACAD_REACTORS
330
179C
102
}
330
1F
100
AcDbEntity
  8
图层2
100
AcDbDimension
  2
*D19
 10
8755.846251343646
 20
2190.174530891429
 30
0.0
 11
8765.917173758417
 21
2182.332188875406
 31
0.0
 70
   164
 71
     5
 42
94.99999999999818
  3
ISO-25
100
AcDbRadialDimension
 15
8830.800786588936
 25
2131.806580386359
 35
0.0
 40
0.0
1001
ACAD
1000
DSTYLE
1002
{
1070
   288
1070
     1
1002
}
  0
DIMENSION
  5
179D
102
{ACAD_XDICTIONARY
360
179E
102
}
102
{ACAD_REACTORS
330
179F
102
}
330
1F
100
AcDbEntity
  8
图层2
100
AcDbDimension
  2
*D18
 10
8003.612636342136
 20
2090.762042616767
 30
0.0
 11
7987.896342182077
 21
2304.762042616768
 31
0.0
 70
    32
 71
     5
 42
427.9999999999994
  3
ISO-25
100
AcDbAlignedDimension
 13
8253.818940939254
 23
2518.762042616767
 33
0.0
 14
8253.818940939254
 24
2090.762042616767
 34
0.0
 50
90.0
100
AcDbRotatedDimension
  0
DIMENSION
  5
17A0
102
{ACAD_XDICTIONARY
360
17A1
102
}
102
{ACAD_REACTORS
330
17A2
102
}
330
1F
100
AcDbEntity
  8
图层2
100
AcDbDimension
  2
*D17
 10
8929.836011611007
 20
2090.762042616767
 30
0.0
 11
8914.119717450947
 21
2332.762042616769
 31
0.0
 70
    32
 71
     5
 42
484.0
  3
ISO-25
100
AcDbAlignedDimension
 13
8652.818940939253
 23
2574.762042616767
 33
0.0
 14
8652.818940939253
 24
2090.762042616767
 34
0.0
 50
90.0
100
AcDbRotatedDimension
  0
DIMENSION
  5
17A3
102
{ACAD_XDICTIONARY
360
17A4
102
}
102
{ACAD_REACTORS
330
17A5
102
}
330
1F
100
AcDbEntity
  8
图层2
100
AcDbDimension
  2
*D16
 10
8084.818940939255
 20
2005.92374718543
 30
0.0
 11
8470.818940939254
 21
2021.676090372164
 31
0.0
 70
    32
 71
     5
 42
772.0
  3
ISO-25
100
AcDbAlignedDimension
 13
8856.818940939254
 23
2332.762042616769
 33
0.0
 14
8084.818940939255
 24
2304.762042616765
 34
0.0
 50
180.0
100
AcDbRotatedDimension
  0
ARC
  5
17A6
102
{ACAD_REACTORS
330
178A
102
}
330
1F
100
AcDbEntity
  8
图层1
 48
150.0
100
AcDbCircle
 10
8176.243266372265
 20
2429.541202915854
 30
0.0
 40
85.0
100
AcDbArc
 50
96.22870721332537
 51
174.10539368893
  0
ARC
  5
17A7
102
{ACAD_REACTORS
330
1784
102
}
330
1F
100
AcDbEntity
  8
图层1
 48
150.0
100
AcDbCircle
 10
8176.243266372265
 20
2179.982882317679
 30
0.0
 40
85.0
100
AcDbArc
 50
185.8946063110703
 51
263.7712927866746
  0
ARC
  5
17A8
102
{ACAD_REACTORS
330
178D
102
}
330
1F
100
AcDbEntity
  8
图层1
 48
150.0
100
AcDbCircle
 10
8549.791630534867
 20
2475.349554342104
 30
0.0
 40
95.0
100
AcDbArc
 50
94.90476838262328
 51
146.5359992421229
  0
ARC
  5
17A9
102
{ACAD_REACTORS
330
1799
102
}
330
1F
100
AcDbEntity
  8
图层1
 48
150.0
100
AcDbCircle
 10
8755.846251343644
 20
2475.349554342104
 30
0.0
 40
95.0
100
AcDbArc
 50
4.797193889802316
 51
85.0952316173773
  0
ARC
  5
17AA
102
{ACAD_REACTORS
330
179C
102
}
330
1F
100
AcDbEntity
  8
图层1
 48
150.0
100
AcDbCircle
 10
8755.846251343644
 20
2190.17453089143
 30
0.0
 40
95.0
100
AcDbArc
 50
274.9047683826228
 51
355.2028061101978
  0
ARC
  5
17AB
102
{ACAD_REACTORS
330
179F
102
}
330
1F
100
AcDbEntity
  8
图层1
 48
150.0
100
AcDbCircle
 10
8253.818940939254
 20
1718.762042616766
 30
0.0
 40
800.0
100
AcDbArc
 50
89.99999999999998
 51
96.22870721332541
  0
ARC
  5
17AC
102
{ACAD_REACTORS
330
179F
330
1781
102
}
330
1F
100
AcDbEntity
  8
图层1
 48
150.0
100
AcDbCircle
 10
8253.818940939254
 20
2890.762042616767
 30
0.0
 40
800.0
100
AcDbArc
 50
263.7712927866745
 51
270.0
  0
ARC
  5
17AD
102
{ACAD_REACTORS
330
17A5
330
1787
102
}
330
1F
100
AcDbEntity
  8
图层1
 48
150.0
100
AcDbCircle
 10
9384.818940939254
 20
2304.762042616765
 30
0.0
 40
1300.0
100
AcDbArc
 50
174.10539368893
 51
180.0
  0
ARC
  5
17AE
330
1F
100
AcDbEntity
  8
图层1
 48
150.0
100
AcDbCircle
 10
9384.818940939254
 20
2304.762042616761
 30
0.0
 40
1300.0
100
AcDbArc
 50
180.0
 51
185.8946063110697
  0
LINE
  5
17AF
330
1F
100
AcDbEntity
  8
图层1
 48
150.0
100
AcDbLine
 10
8253.818940939254
 20
2518.762042616767
 30
0.0
 11
8453.854899660733
 21
2518.762042616767
 31
0.0
  0
ARC
  5
17B0
102
{ACAD_REACTORS
330
17A2
330
1790
102
}
330
1F
100
AcDbEntity
  8
图层1
 48
150.0
100
AcDbCircle
 10
8652.818940939253
 20
3390.762042616767
 30
0.0
 40
1300.0
100
AcDbArc
 50
270.0
 51
274.904768382623
  0
ARC
  5
17B1
102
{ACAD_REACTORS
330
17A2
330
1793
102
}
330
1F
100
AcDbEntity
  8
图层1
 48
150.0
100
AcDbCircle
 10
8652.818940939253
 20
1274.762042616767
 30
0.0
 40
1300.0
100
AcDbArc
 50
90.0
 51
94.90476838262301
  0
ARC
  5
17B2
330
1F
100
AcDbEntity
  8
图层1
 48
150.0
100
AcDbCircle
 10
8652.818940939253
 20
1274.762042616767
 30
0.0
 40
1300.0
100
AcDbArc
 50
85.09523161737702
 51
90.0
  0
ARC
  5
17B3
102
{ACAD_REACTORS
330
17A5
102
}
330
1F
100
AcDbEntity
  8
图层1
 48
150.0
100
AcDbCircle
 10
7056.818940939256
 20
2332.762042616769
 30
0.0
 40
1800.0
100
AcDbArc
 50
355.2028061101978
 51
0.000000000000007
  0
ARC
  5
17B4
102
{ACAD_REACTORS
330
1796
102
}
330
1F
100
AcDbEntity
  8
图层1
 48
150.0
100
AcDbCircle
 10
7056.818940939256
 20
2332.762042616769
 30
0.0
 40
1800.0
100
AcDbArc
 50
0.000000000000007
 51
4.797193889802163
  0
LINE
  5
17B5
330
1F
100
AcDbEntity
  8
图层1
 48
150.0
100
AcDbLine
 10
8253.818940939254
 20
2090.762042616767
 30
0.0
 11
8652.818940939253
 21
2090.762042616767
 31
0.0
  0
DIMENSION
  5
19BF
330
1F
100
AcDbEntity
  8
图层2
100
AcDbDimension
  2
*D37
 10
8860.818940939257
 20
1962.288948343557
 30
0.0
 11
8470.818940939254
 21
1978.041291530291
 31
0.0
 70
    32
 71
     5
 42
780.0000000000017
  3
ISO-25
100
AcDbAlignedDimension
 13
8080.818940939254
 23
2304.762042616761
 33
0.0
 14
8860.818940939257
 24
2332.762042616769
 34
0.0
100
AcDbRotatedDimension
  0
DIMENSION
  5
19D7
330
1F
100
AcDbEntity
  8
图层2
100
AcDbDimension
  2
*D38
 10
7962.883397799508
 20
2086.762042616767
 30
0.0
 11
7947.16710363945
 21
2304.762042616768
 31
0.0
 70
    32
 71
     5
 42
436.0
  3
ISO-25
100
AcDbAlignedDimension
 13
8253.818940939254
 23
2522.762042616767
 33
0.0
 14
8253.818940939254
 24
2086.762042616767
 34
0.0
 50
90.0
100
AcDbRotatedDimension
  0
DIMENSION
  5
19EF
330
1F
100
AcDbEntity
  8
图层2
100
AcDbDimension
  2
*D39
 10
8972.256819051095
 20
2086.762042616767
 30
0.0
 11
8956.504475864361
 21
2332.762042616769
 31
0.0
 70
    32
 71
     5
 42
492.0
  3
ISO-25
100
AcDbAlignedDimension
 13
8652.818940939253
 23
2578.762042616767
 33
0.0
 14
8652.818940939253
 24
2086.762042616767
 34
0.0
 50
90.0
100
AcDbRotatedDimension
  0
DIMENSION
  5
1A0D
330
1F
100
AcDbEntity
  8
图层2
100
AcDbDimension
  2
*D40
 10
8860.818940939257
 20
2005.92374718543
 30
0.0
 11
8922.119229331469
 21
2021.42374718543
 31
0.0
 70
    32
 71
     5
 42
4.000000000001818
  3
ISO-25
100
AcDbAlignedDimension
 13
8856.818940939254
 23
2027.860835465639
 33
0.0
 14
8860.818940939257
 24
2027.860835465639
 34
0.0
100
AcDbRotatedDimension
  0
DIMENSION
  5
1A1C
330
1F
100
AcDbEntity
  8
图层2
100
AcDbDimension
  2
*D41
 10
8003.612636342136
 20
2086.762042616767
 30
0.0
 11
7988.112636342136
 21
2025.461754224555
 31
0.0
 70
    32
 71
     5
 42
4.0
  3
ISO-25
100
AcDbAlignedDimension
 13
8023.846067990115
 23
2090.762042616767
 33
0.0
 14
8023.846067990115
 24
2086.762042616767
 34
0.0
 50
90.0
100
AcDbRotatedDimension
  0
DIMENSION
  5
1A2B
330
1F
100
AcDbEntity
  8
图层2
100
AcDbDimension
  2
*D42
 10
8929.836011611007
 20
2578.762042616767
 30
0.0
 11
8914.336011611007
 21
2640.062331008982
 31
0.0
 70
    32
 71
     5
 42
4.0
  3
ISO-25
100
AcDbAlignedDimension
 13
8906.99856219633
 23
2574.762042616767
 33
0.0
 14
8906.99856219633
 24
2578.762042616767
 34
0.0
 50
90.0
100
AcDbRotatedDimension
  0
ARC
  5
1AA7
330
1F
100
AcDbEntity
  8
图层1
 48
150.0
100
AcDbCircle
 10
8453.854899660733
 20
2538.762042616767
 30
0.0
 40
20.0
100
AcDbArc
 50
270.0
 51
326.5359992421219
  0
ARC
  5
1B55
330
1F
100
AcDbEntity
  8
Title Block
100
AcDbCircle
 10
8176.243266372265
 20
2179.982882317679
 30
0.0
 40
89.0
100
AcDbArc
 50
185.8946063110703
 51
263.7712927866746
  0
ARC
  5
1B56
330
1F
100
AcDbEntity
  8
Title Block
100
AcDbCircle
 10
9384.818940939254
 20
2304.762042616761
 30
0.0
 40
1304.0
100
AcDbArc
 50
180.0
 51
185.8946063110697
  0
ARC
  5
1B57
330
1F
100
AcDbEntity
  8
Title Block
100
AcDbCircle
 10
9384.818940939254
 20
2304.762042616765
 30
0.0
 40
1304.0
100
AcDbArc
 50
174.10539368893
 51
180.0
  0
ARC
  5
1B58
330
1F
100
AcDbEntity
  8
Title Block
100
AcDbCircle
 10
8176.243266372265
 20
2429.541202915854
 30
0.0
 40
89.0
100
AcDbArc
 50
96.22870721332537
 51
174.10539368893
  0
ARC
  5
1B59
330
1F
100
AcDbEntity
  8
Title Block
100
AcDbCircle
 10
8253.818940939254
 20
1718.762042616766
 30
0.0
 40
804.0
100
AcDbArc
 50
89.99999999999998
 51
96.22870721332541
  0
LINE
  5
1B5A
330
1F
100
AcDbEntity
  8
Title Block
100
AcDbLine
 10
8253.818940939254
 20
2522.762042616767
 30
0.0
 11
8453.854899660733
 21
2522.762042616767
 31
0.0
  0
ARC
  5
1B5B
330
1F
100
AcDbEntity
  8
Title Block
100
AcDbCircle
 10
8453.854899660733
 20
2538.762042616767
 30
0.0
 40
16.0
100
AcDbArc
 50
270.0
 51
326.5359992421219
  0
ARC
  5
1B5C
330
1F
100
AcDbEntity
  8
Title Block
100
AcDbCircle
 10
8549.791630534867
 20
2475.349554342104
 30
0.0
 40
99.0
100
AcDbArc
 50
94.90476838262328
 51
146.5359992421228
  0
ARC
  5
1B5D
330
1F
100
AcDbEntity
  8
Title Block
100
AcDbCircle
 10
8652.818940939253
 20
1274.762042616767
 30
0.0
 40
1304.0
100
AcDbArc
 50
90.0
 51
94.90476838262301
  0
ARC
  5
1B5E
330
1F
100
AcDbEntity
  8
Title Block
100
AcDbCircle
 10
8652.818940939253
 20
1274.762042616767
 30
0.0
 40
1304.0
100
AcDbArc
 50
85.09523161737702
 51
90.0
  0
ARC
  5
1B5F
330
1F
100
AcDbEntity
  8
Title Block
100
AcDbCircle
 10
8755.846251343644
 20
2475.349554342104
 30
0.0
 40
99.0
100
AcDbArc
 50
4.797193889802316
 51
85.0952316173773
  0
ARC
  5
1B60
330
1F
100
AcDbEntity
  8
Title Block
100
AcDbCircle
 10
7056.818940939256
 20
2332.762042616769
 30
0.0
 40
1804.0
100
AcDbArc
 50
0.000000000000007
 51
4.797193889802163
  0
ARC
  5
1B61
330
1F
100
AcDbEntity
  8
Title Block
100
AcDbCircle
 10
7056.818940939256
 20
2332.762042616769
 30
0.0
 40
1804.0
100
AcDbArc
 50
355.2028061101978
 51
0.000000000000007
  0
ARC
  5
1B62
330
1F
100
AcDbEntity
  8
Title Block
100
AcDbCircle
 10
8755.846251343644
 20
2190.17453089143
 30
0.0
 40
99.0
100
AcDbArc
 50
274.9047683826228
 51
355.2028061101978
  0
ARC
  5
1B63
330
1F
100
AcDbEntity
  8
Title Block
100
AcDbCircle
 10
8652.818940939253
 20
3390.762042616767
 30
0.0
 40
1304.0
100
AcDbArc
 50
270.0
 51
274.904768382623
  0
LINE
  5
1B64
330
1F
100
AcDbEntity
  8
Title Block
100
AcDbLine
 10
8253.818940939254
 20
2086.762042616767
 30
0.0
 11
8652.818940939253
 21
2086.762042616767
 31
0.0
  0
ARC
  5
1B65
330
1F
100
AcDbEntity
  8
Title Block
100
AcDbCircle
 10
8253.818940939254
 20
2890.762042616767
 30
0.0
 40
804.0
100
AcDbArc
 50
263.7712927866745
 51
270.0
  0
ENDSEC
  0
SECTION
  2
OBJECTS
  0
DICTIONARY
  5
C
330
0
100
AcDbDictionary
281
     1
  3
ACAD_COLOR
350
73
  3
ACAD_GROUP
350
D
  3
ACAD_LAYOUT
350
1A
  3
ACAD_MATERIAL
350
72
  3
ACAD_MLINESTYLE
350
17
  3
ACAD_PLOTSETTINGS
350
19
  3
ACAD_PLOTSTYLENAME
350
E
  3
ACAD_TABLESTYLE
350
1BEC
  3
ACDBHEADERROUNDTRIPXREC
350
1BFE
  3
AcDbVariableDictionary
350
66
  3
ASE_INDEX_DICTIONARY
350
1B67
  0
DICTIONARY
  5
1780
330
177F
100
AcDbDictionary
280
     1
281
     1
  3
ACAD_DIMASSOC
360
1781
  0
DICTIONARY
  5
1783
330
1782
100
AcDbDictionary
280
     1
281
     1
  3
ACAD_DIMASSOC
360
1784
  0
DICTIONARY
  5
1786
330
1785
100
AcDbDictionary
280
     1
281
     1
  3
ACAD_DIMASSOC
360
1787
  0
DICTIONARY
  5
1789
330
1788
100
AcDbDictionary
280
     1
281
     1
  3
ACAD_DIMASSOC
360
178A
  0
DICTIONARY
  5
178C
330
178B
100
AcDbDictionary
280
     1
281
     1
  3
ACAD_DIMASSOC
360
178D
  0
DICTIONARY
  5
178F
330
178E
100
AcDbDictionary
280
     1
281
     1
  3
ACAD_DIMASSOC
360
1790
  0
DICTIONARY
  5
1792
330
1791
100
AcDbDictionary
280
     1
281
     1
  3
ACAD_DIMASSOC
360
1793
  0
DICTIONARY
  5
1795
330
1794
100
AcDbDictionary
280
     1
281
     1
  3
ACAD_DIMASSOC
360
1796
  0
DICTIONARY
  5
1798
330
1797
100
AcDbDictionary
280
     1
281
     1
  3
ACAD_DIMASSOC
360
1799
  0
DICTIONARY
  5
179B
330
179A
100
AcDbDictionary
280
     1
281
     1
  3
ACAD_DIMASSOC
360
179C
  0
DICTIONARY
  5
179E
330
179D
100
AcDbDictionary
280
     1
281
     1
  3
ACAD_DIMASSOC
360
179F
  0
DICTIONARY
  5
17A1
330
17A0
100
AcDbDictionary
280
     1
281
     1
  3
ACAD_DIMASSOC
360
17A2
  0
DICTIONARY
  5
17A4
330
17A3
100
AcDbDictionary
280
     1
281
     1
  3
ACAD_DIMASSOC
360
17A5
  0
DICTIONARY
  5
73
102
{ACAD_REACTORS
330
C
102
}
330
C
100
AcDbDictionary
281
     1
  0
DICTIONARY
  5
D
102
{ACAD_REACTORS
330
C
102
}
330
C
100
AcDbDictionary
281
     1
  0
DICTIONARY
  5
1A
102
{ACAD_REACTORS
330
C
102
}
330
C
100
AcDbDictionary
281
     1
  3
Model
350
22
  3
布局1
350
59
  3
布局2
350
5E
  0
DICTIONARY
  5
72
102
{ACAD_REACTORS
330
C
102
}
330
C
100
AcDbDictionary
281
     1
  0
DICTIONARY
  5
17
102
{ACAD_REACTORS
330
C
102
}
330
C
100
AcDbDictionary
281
     1
  3
Standard
350
18
  0
DICTIONARY
  5
19
102
{ACAD_REACTORS
330
C
102
}
330
C
100
AcDbDictionary
281
     1
  0
ACDBDICTIONARYWDFLT
  5
E
102
{ACAD_REACTORS
330
C
102
}
330
C
100
AcDbDictionary
281
     1
  3
Normal
350
F
100
AcDbDictionaryWithDefault
340
F
  0
DICTIONARY
  5
1BEC
102
{ACAD_REACTORS
330
C
102
}
330
C
100
AcDbDictionary
281
     1
  3
Standard
350
1BED
  0
DICTIONARY
  5
1BFE
102
{ACAD_REACTORS
330
C
102
}
330
C
100
AcDbDictionary
281
     1
  0
DICTIONARY
  5
66
102
{ACAD_REACTORS
330
C
102
}
330
C
100
AcDbDictionary
281
     1
  3
CTABLESTYLE
350
1BF4
  3
DIMASSOC
350
67
  3
HIDETEXT
350
6B
  3
PROJECTNAME
350
1A8E
  0
DICTIONARY
  5
1B67
102
{ACAD_REACTORS
330
C
102
}
330
C
100
AcDbDictionary
281
     1
  3
ASEBlockHierarchyIndexRecord
350
1B69
1001
DCO15
1040
1626777191.343
  0
DIMASSOC
  5
1781
102
{ACAD_REACTORS
330
1780
102
}
330
1780
100
AcDbDimAssoc
330
177F
 90
        2
 70
     0
 71
     0
  1
AcDbOsnapPointRef
 72
     3
331
17AC
 73
     2
 91
        0
 40
0.0
 10
0.0
 20
0.0
 30
0.0
 75
     0
  0
DIMASSOC
  5
1784
102
{ACAD_REACTORS
330
1783
102
}
330
1783
100
AcDbDimAssoc
330
1782
 90
        2
 70
     0
 71
     0
  1
AcDbOsnapPointRef
 72
     3
331
17A7
 73
     2
 91
        0
 40
0.0
 10
0.0
 20
0.0
 30
0.0
 75
     0
  0
DIMASSOC
  5
1787
102
{ACAD_REACTORS
330
1786
102
}
330
1786
100
AcDbDimAssoc
330
1785
 90
        2
 70
     0
 71
     0
  1
AcDbOsnapPointRef
 72
     3
331
17AD
 73
     2
 91
        0
 40
0.0
 10
0.0
 20
0.0
 30
0.0
 75
     0
  0
DIMASSOC
  5
178A
102
{ACAD_REACTORS
330
1789
102
}
330
1789
100
AcDbDimAssoc
330
1788
 90
        2
 70
     0
 71
     0
  1
AcDbOsnapPointRef
 72
     3
331
17A6
 73
     2
 91
        0
 40
0.0
 10
0.0
 20
0.0
 30
0.0
 75
     0
  0
DIMASSOC
  5
178D
102
{ACAD_REACTORS
330
178C
102
}
330
178C
100
AcDbDimAssoc
330
178B
 90
        2
 70
     0
 71
     0
  1
AcDbOsnapPointRef
 72
     3
331
17A8
 73
     2
 91
        0
 40
0.0
 10
0.0
 20
0.0
 30
0.0
 75
     0
  0
DIMASSOC
  5
1790
102
{ACAD_REACTORS
330
178F
102
}
330
178F
100
AcDbDimAssoc
330
178E
 90
        2
 70
     0
 71
     0
  1
AcDbOsnapPointRef
 72
     3
331
17B0
 73
     2
 91
        0
 40
0.0
 10
0.0
 20
0.0
 30
0.0
 75
     0
  0
DIMASSOC
  5
1793
102
{ACAD_REACTORS
330
1792
102
}
330
1792
100
AcDbDimAssoc
330
1791
 90
        2
 70
     0
 71
     0
  1
AcDbOsnapPointRef
 72
     3
331
17B1
 73
     2
 91
        0
 40
0.0
 10
0.0
 20
0.0
 30
0.0
 75
     0
  0
DIMASSOC
  5
1796
102
{ACAD_REACTORS
330
1795
102
}
330
1795
100
AcDbDimAssoc
330
1794
 90
        2
 70
     0
 71
     0
  1
AcDbOsnapPointRef
 72
     3
331
17B4
 73
     2
 91
        0
 40
0.0
 10
0.0
 20
0.0
 30
0.0
 75
     0
  0
DIMASSOC
  5
1799
102
{ACAD_REACTORS
330
1798
102
}
330
1798
100
AcDbDimAssoc
330
1797
 90
        2
 70
     0
 71
     0
  1
AcDbOsnapPointRef
 72
     3
331
17A9
 73
     2
 91
        0
 40
0.0
 10
0.0
 20
0.0
 30
0.0
 75
     0
  0
DIMASSOC
  5
179C
102
{ACAD_REACTORS
330
179B
102
}
330
179B
100
AcDbDimAssoc
330
179A
 90
        2
 70
     0
 71
     0
  1
AcDbOsnapPointRef
 72
     3
331
17AA
 73
     2
 91
        0
 40
0.0
 10
0.0
 20
0.0
 30
0.0
 75
     0
  0
DIMASSOC
  5
179F
102
{ACAD_REACTORS
330
179E
102
}
330
179E
100
AcDbDimAssoc
330
179D
 90
        3
 70
     0
 71
     0
  1
AcDbOsnapPointRef
 72
     1
331
17AB
 73
     2
 91
        0
 40
1.570796326794896
 10
0.0
 20
0.0
 30
2.000000000000000E+50
 75
     0
  1
AcDbOsnapPointRef
 72
    13
331
17AC
 73
     2
 91
        0
 40
4.712388980384688
 10
0.0
 20
0.0
 30
2.000000000000000E+50
 75
     0
  0
DIMASSOC
  5
17A2
102
{ACAD_REACTORS
330
17A1
102
}
330
17A1
100
AcDbDimAssoc
330
17A0
 90
        3
 70
     0
 71
     0
  1
AcDbOsnapPointRef
 72
     1
331
17B1
 73
     2
 91
        0
 40
1.570796326794896
 10
0.0
 20
0.0
 30
2.000000000000000E+50
 75
     0
  1
AcDbOsnapPointRef
 72
     1
331
17B0
 73
     2
 91
        0
 40
4.712388980384688
 10
0.0
 20
0.0
 30
2.000000000000000E+50
 75
     0
  0
DIMASSOC
  5
17A5
102
{ACAD_REACTORS
330
17A4
102
}
330
17A4
100
AcDbDimAssoc
330
17A3
 90
        3
 70
     0
 71
     0
  1
AcDbOsnapPointRef
 72
    13
331
17B3
 73
     2
 91
        0
 40
3.141592653589792
 10
0.0
 20
0.0
 30
2.000000000000000E+50
 75
     0
  1
AcDbOsnapPointRef
 72
    13
331
17AD
 73
     2
 91
        0
 40
0.0
 10
0.0
 20
0.0
 30
2.000000000000000E+50
 75
     0
  0
LAYOUT
  5
22
102
{ACAD_XDICTIONARY
360
1BFF
102
}
102
{ACAD_REACTORS
330
1A
102
}
330
1A
100
AcDbPlotSettings
  1

  2
none_device
  4
ANSI_A_(8.50_x_11.00_Inches)
  6

 40
6.349999904632567
 41
19.04999923706055
 42
6.350006103515625
 43
19.04998779296875
 44
215.8999938964844
 45
279.3999938964844
 46
0.0
 47
0.0
 48
0.0
 49
0.0
140
0.0
141
0.0
142
1.0
143
2.584895464708373
 70
 11952
 72
     0
 73
     1
 74
     0
  7

 75
     0
147
0.3868628397755418
148
0.0
149
0.0
100
AcDbLayout
  1
Model
 70
     1
 71
     0
 10
0.0
 20
0.0
 11
12.0
 21
9.0
 12
0.0
 22
0.0
 32
0.0
 14
0.0
 24
0.0
 34
0.0
 15
0.0
 25
0.0
 35
0.0
146
0.0
 13
0.0
 23
0.0
 33
0.0
 16
1.0
 26
0.0
 36
0.0
 17
0.0
 27
1.0
 37
0.0
 76
     0
330
1F
  0
LAYOUT
  5
59
102
{ACAD_XDICTIONARY
360
1C01
102
}
102
{ACAD_REACTORS
330
1A
102
}
330
1A
100
AcDbPlotSettings
  1

  2
None
  4

  6

 40
0.0
 41
0.0
 42
0.0
 43
0.0
 44
0.0
 45
0.0
 46
0.0
 47
0.0
 48
0.0
 49
0.0
140
0.0
141
0.0
142
1.0
143
1.0
 70
   688
 72
     0
 73
     0
 74
     5
  7

 75
    16
147
1.0
148
0.0
149
0.0
100
AcDbLayout
  1
布局1
 70
     1
 71
     1
 10
0.0
 20
0.0
 11
12.0
 21
9.0
 12
0.0
 22
0.0
 32
0.0
 14
0.0
 24
0.0
 34
0.0
 15
0.0
 25
0.0
 35
0.0
146
0.0
 13
0.0
 23
0.0
 33
0.0
 16
1.0
 26
0.0
 36
0.0
 17
0.0
 27
1.0
 37
0.0
 76
     0
330
58
  0
LAYOUT
  5
5E
102
{ACAD_XDICTIONARY
360
1C03
102
}
102
{ACAD_REACTORS
330
1A
102
}
330
1A
100
AcDbPlotSettings
  1

  2
None
  4

  6

 40
0.0
 41
0.0
 42
0.0
 43
0.0
 44
0.0
 45
0.0
 46
0.0
 47
0.0
 48
0.0
 49
0.0
140
0.0
141
0.0
142
1.0
143
1.0
 70
   688
 72
     0
 73
     0
 74
     5
  7

 75
    16
147
1.0
148
0.0
149
0.0
100
AcDbLayout
  1
布局2
 70
     1
 71
     2
 10
0.0
 20
0.0
 11
12.0
 21
9.0
 12
0.0
 22
0.0
 32
0.0
 14
0.0
 24
0.0
 34
0.0
 15
0.0
 25
0.0
 35
0.0
146
0.0
 13
0.0
 23
0.0
 33
0.0
 16
1.0
 26
0.0
 36
0.0
 17
0.0
 27
1.0
 37
0.0
 76
     0
330
5D
  0
MLINESTYLE
  5
18
102
{ACAD_REACTORS
330
17
102
}
330
17
100
AcDbMlineStyle
  2
STANDARD
 70
     0
  3

 62
   256
 51
90.0
 52
90.0
 71
     2
 49
0.5
 62
   256
  6
BYLAYER
 49
-0.5
 62
   256
  6
BYLAYER
  0
ACDBPLACEHOLDER
  5
F
102
{ACAD_REACTORS
330
E
102
}
330
E
  0
TABLESTYLE
  5
1BED
102
{ACAD_REACTORS
330
1BEC
102
}
330
1BEC
100
AcDbTableStyle
  3
Standard
 70
     0
 71
     0
 40
0.06
 41
0.06
280
     0
281
     0
  7
Standard
140
0.18
170
     2
 62
     0
 63
     7
283
     0
274
    -2
284
     1
 64
     0
275
    -2
285
     1
 65
     0
276
    -2
286
     1
 66
     0
277
    -2
287
     1
 67
     0
278
    -2
288
     1
 68
     0
279
    -2
289
     1
 69
     0
  7
Standard
140
0.25
170
     5
 62
     0
 63
     7
283
     0
274
    -2
284
     1
 64
     0
275
    -2
285
     1
 65
     0
276
    -2
286
     1
 66
     0
277
    -2
287
     1
 67
     0
278
    -2
288
     1
 68
     0
279
    -2
289
     1
 69
     0
  7
Standard
140
0.18
170
     5
 62
     0
 63
     7
283
     0
274
    -2
284
     1
 64
     0
275
    -2
285
     1
 65
     0
276
    -2
286
     1
 66
     0
277
    -2
287
     1
 67
     0
278
    -2
288
     1
 68
     0
279
    -2
289
     1
 69
     0
  0
DICTIONARYVAR
  5
1BF4
102
{ACAD_REACTORS
330
66
102
}
330
66
100
DictionaryVariables
280
     0
  1
STANDARD
  0
DICTIONARYVAR
  5
67
102
{ACAD_REACTORS
330
66
102
}
330
66
100
DictionaryVariables
280
     0
  1
2
  0
DICTIONARYVAR
  5
6B
102
{ACAD_REACTORS
330
66
102
}
330
66
100
DictionaryVariables
280
     0
  1
1
  0
DICTIONARYVAR
  5
1A8E
102
{ACAD_REACTORS
330
66
102
}
330
66
100
DictionaryVariables
280
     0
  1

  0
XRECORD
  5
1B69
102
{ACAD_REACTORS
330
1B67
102
}
330
1B67
100
AcDbXrecord
280
     1
  0
DICTIONARY
  5
1BFF
330
22
100
AcDbDictionary
280
     1
281
     1
  3
ACAD_XREC_ROUNDTRIP
360
1C00
  0
DICTIONARY
  5
1C01
330
59
100
AcDbDictionary
280
     1
281
     1
  3
ACAD_XREC_ROUNDTRIP
360
1C02
  0
DICTIONARY
  5
1C03
330
5E
100
AcDbDictionary
280
     1
281
     1
  3
ACAD_XREC_ROUNDTRIP
360
1C04
  0
XRECORD
  5
1C00
102
{ACAD_REACTORS
330
1BFF
102
}
330
1BFF
100
AcDbXrecord
280
     1
102
SHADEPLOT
 70
     0
102
SHADEPLOTRESLEVEL
 70
     2
102
SHADEPLOTCUSTOMDPI
 70
   300
  0
XRECORD
  5
1C02
102
{ACAD_REACTORS
330
1C01
102
}
330
1C01
100
AcDbXrecord
280
     1
102
SHADEPLOT
 70
     0
102
SHADEPLOTRESLEVEL
 70
     2
102
SHADEPLOTCUSTOMDPI
 70
   300
  0
XRECORD
  5
1C04
102
{ACAD_REACTORS
330
1C03
102
}
330
1C03
100
AcDbXrecord
280
     1
102
SHADEPLOT
 70
     0
102
SHADEPLOTRESLEVEL
 70
     2
102
SHADEPLOTCUSTOMDPI
 70
   300
  0
ENDSEC
  0
EOF
